osu file format v14

[General]
AudioFilename: audio.mp3
AudioLeadIn: 0
PreviewTime: 183358
Countdown: 0
SampleSet: Soft
StackLeniency: 0.7
Mode: 3
LetterboxInBreaks: 0
SpecialStyle: 0
WidescreenStoryboard: 0

[Editor]
Bookmarks: 32177
DistanceSpacing: 1.5
BeatDivisor: 4
GridSize: 4
TimelineZoom: 1

[Metadata]
Title:Stereo Love
TitleUnicode:Stereo Love
Artist:Edward Maya feat. Vika Jigulina
ArtistUnicode:Edward Maya feat. Vika Jigulina
Creator:Arzenvald
Version:Easy
Source:
Tags:Dance Electronic EDM English 2009 Bayatılar Eldar Mansurov
BeatmapID:1984206
BeatmapSetID:950109

[Difficulty]
HPDrainRate:7
CircleSize:4
OverallDifficulty:7
ApproachRate:5
SliderMultiplier:1.4
SliderTickRate:1

[Events]
//Background and Video events
0,0,"EdwMaya_StereoLove_Packshot.jpg",0,0
//Break Periods
//Storyboard Layer 0 (Background)
//Storyboard Layer 1 (Fail)
//Storyboard Layer 2 (Pass)
//Storyboard Layer 3 (Foreground)
//Storyboard Sound Samples

[TimingPoints]
1941,472.44094488189,4,2,0,100,1,0
92649,-100,4,2,0,100,0,1
105878,-100,4,2,0,100,0,0
107767,-100,4,2,0,100,0,1
122885,-100,4,2,0,100,0,0
183358,-100,4,2,0,100,0,1
243830,-100,4,2,0,100,0,0

[HitObjects]
64,192,32178,5,0,0:0:0:0:
448,192,33358,1,0,0:0:0:0:
448,192,35248,1,0,0:0:0:0:
320,192,37137,1,0,0:0:0:0:
320,192,39027,1,0,0:0:0:0:
64,192,40917,1,0,0:0:0:0:
64,192,42807,1,0,0:0:0:0:
192,192,44696,1,0,0:0:0:0:
320,192,45405,128,0,47295:0:0:0:0:
64,192,47295,1,0,0:0:0:0:
192,192,47767,1,0,0:0:0:0:
64,192,48240,1,0,0:0:0:0:
64,192,49185,1,0,0:0:0:0:
192,192,49657,1,0,0:0:0:0:
64,192,50129,1,0,0:0:0:0:
320,192,51074,1,0,0:0:0:0:
192,192,51547,1,0,0:0:0:0:
64,192,52019,1,0,0:0:0:0:
448,192,52964,1,0,0:0:0:0:
320,192,53437,1,0,0:0:0:0:
192,192,53909,1,0,0:0:0:0:
320,192,54854,1,0,0:0:0:0:
448,192,55326,1,0,0:0:0:0:
320,192,55799,1,0,0:0:0:0:
320,192,56744,1,0,0:0:0:0:
448,192,57216,1,0,0:0:0:0:
320,192,57689,1,0,0:0:0:0:
448,192,58633,1,0,0:0:0:0:
320,192,59106,1,0,0:0:0:0:
192,192,59578,1,0,0:0:0:0:
320,192,60523,1,0,0:0:0:0:
192,192,60996,1,0,0:0:0:0:
64,192,61468,1,0,0:0:0:0:
320,192,62413,1,0,0:0:0:0:
448,192,62885,1,0,0:0:0:0:
192,192,63358,1,0,0:0:0:0:
64,192,63830,1,0,0:0:0:0:
448,192,64303,1,0,0:0:0:0:
320,192,64775,1,0,0:0:0:0:
64,192,65248,1,0,0:0:0:0:
192,192,65720,1,0,0:0:0:0:
448,192,66192,1,0,0:0:0:0:
320,192,67137,1,0,0:0:0:0:
192,192,68082,1,0,0:0:0:0:
64,192,69027,1,0,0:0:0:0:
192,192,69972,1,0,0:0:0:0:
448,192,70444,1,0,0:0:0:0:
320,192,70917,1,0,0:0:0:0:
64,192,71389,1,0,0:0:0:0:
192,192,71862,1,0,0:0:0:0:
448,192,72334,1,0,0:0:0:0:
320,192,72807,1,0,0:0:0:0:
64,192,73279,1,0,0:0:0:0:
192,192,73752,1,0,0:0:0:0:
320,192,75641,1,0,0:0:0:0:
64,192,77531,1,0,0:0:0:0:
64,192,78476,1,0,0:0:0:0:
448,192,79421,1,0,0:0:0:0:
448,192,80366,1,0,0:0:0:0:
192,192,81311,1,0,0:0:0:0:
192,192,82255,1,0,0:0:0:0:
320,192,83200,1,0,0:0:0:0:
320,192,84145,1,0,0:0:0:0:
192,192,85090,1,0,0:0:0:0:
448,192,85563,1,0,0:0:0:0:
192,192,86035,1,0,0:0:0:0:
64,192,86980,1,0,0:0:0:0:
320,192,87452,1,0,0:0:0:0:
64,192,87925,1,0,0:0:0:0:
192,192,88870,1,0,0:0:0:0:
448,192,89342,1,0,0:0:0:0:
192,192,89815,1,0,0:0:0:0:
64,192,90759,128,0,92649:0:0:0:0:
320,192,92649,1,0,0:0:0:0:
448,192,93122,1,0,0:0:0:0:
192,192,93594,1,0,0:0:0:0:
320,192,94066,1,0,0:0:0:0:
64,192,94539,1,0,0:0:0:0:
192,192,95011,1,0,0:0:0:0:
64,192,95484,1,0,0:0:0:0:
192,192,95956,1,0,0:0:0:0:
64,192,96429,1,0,0:0:0:0:
192,192,97374,1,0,0:0:0:0:
320,192,97846,1,0,0:0:0:0:
64,192,99263,1,0,0:0:0:0:
320,192,100208,1,0,0:0:0:0:
448,192,100681,1,0,0:0:0:0:
192,192,101153,1,0,0:0:0:0:
320,192,101626,1,0,0:0:0:0:
64,192,102098,1,0,0:0:0:0:
192,192,102570,1,0,0:0:0:0:
64,192,103043,1,0,0:0:0:0:
192,192,103515,1,0,0:0:0:0:
64,192,103988,1,0,0:0:0:0:
320,192,104933,1,0,0:0:0:0:
448,192,105405,1,0,0:0:0:0:
192,192,105878,128,0,107767:0:0:0:0:
448,192,107767,128,0,108240:0:0:0:0:
64,192,108712,1,0,0:0:0:0:
64,192,109185,1,0,0:0:0:0:
320,192,109657,128,0,110129:0:0:0:0:
192,192,110602,1,0,0:0:0:0:
192,192,111074,1,0,0:0:0:0:
448,192,111547,1,0,0:0:0:0:
320,192,112019,1,0,0:0:0:0:
192,192,112492,1,0,0:0:0:0:
64,192,112964,1,0,0:0:0:0:
192,192,113437,1,0,0:0:0:0:
320,192,114381,1,0,0:0:0:0:
448,192,114854,1,0,0:0:0:0:
320,192,115326,128,0,115799:0:0:0:0:
192,192,116271,1,0,0:0:0:0:
64,192,116744,1,0,0:0:0:0:
192,192,117216,128,0,117689:0:0:0:0:
320,192,118161,1,0,0:0:0:0:
448,192,118633,1,0,0:0:0:0:
64,192,119106,1,0,0:0:0:0:
192,192,119578,1,0,0:0:0:0:
448,192,120051,1,0,0:0:0:0:
320,192,120523,1,0,0:0:0:0:
192,192,120996,128,0,122885:0:0:0:0:
64,192,122885,1,0,0:0:0:0:
192,192,123358,1,0,0:0:0:0:
64,192,123830,1,0,0:0:0:0:
64,192,124775,1,0,0:0:0:0:
192,192,125248,1,0,0:0:0:0:
64,192,125720,1,0,0:0:0:0:
320,192,126665,1,0,0:0:0:0:
192,192,127137,1,0,0:0:0:0:
64,192,127610,1,0,0:0:0:0:
448,192,128555,1,0,0:0:0:0:
320,192,129027,1,0,0:0:0:0:
192,192,129500,1,0,0:0:0:0:
320,192,130444,1,0,0:0:0:0:
448,192,130917,1,0,0:0:0:0:
320,192,131389,1,0,0:0:0:0:
320,192,132334,1,0,0:0:0:0:
448,192,132807,1,0,0:0:0:0:
320,192,133279,1,0,0:0:0:0:
448,192,134224,1,0,0:0:0:0:
320,192,134696,1,0,0:0:0:0:
192,192,135169,1,0,0:0:0:0:
320,192,136114,1,0,0:0:0:0:
192,192,136586,1,0,0:0:0:0:
64,192,137059,1,0,0:0:0:0:
320,192,138003,1,0,0:0:0:0:
448,192,138476,1,0,0:0:0:0:
192,192,138948,1,0,0:0:0:0:
64,192,139421,1,0,0:0:0:0:
448,192,139893,1,0,0:0:0:0:
320,192,140366,1,0,0:0:0:0:
64,192,140838,1,0,0:0:0:0:
192,192,141311,1,0,0:0:0:0:
448,192,141783,1,0,0:0:0:0:
320,192,142728,1,0,0:0:0:0:
192,192,143673,1,0,0:0:0:0:
64,192,144618,1,0,0:0:0:0:
192,192,145563,1,0,0:0:0:0:
448,192,146035,1,0,0:0:0:0:
320,192,146507,1,0,0:0:0:0:
64,192,146980,1,0,0:0:0:0:
192,192,147452,1,0,0:0:0:0:
448,192,147925,1,0,0:0:0:0:
320,192,148397,1,0,0:0:0:0:
64,192,148870,1,0,0:0:0:0:
192,192,149342,1,0,0:0:0:0:
320,192,150287,1,0,0:0:0:0:
448,192,151232,1,0,0:0:0:0:
64,192,153122,128,0,155011:0:0:0:0:
448,192,155011,128,0,156901:0:0:0:0:
192,192,160681,128,0,164460:0:0:0:0:
64,192,168240,1,0,0:0:0:0:
448,192,168712,1,0,0:0:0:0:
64,192,169185,1,0,0:0:0:0:
64,192,170129,1,0,0:0:0:0:
448,192,170602,1,0,0:0:0:0:
64,192,171074,1,0,0:0:0:0:
192,192,172019,1,0,0:0:0:0:
448,192,172492,1,0,0:0:0:0:
192,192,172964,1,0,0:0:0:0:
192,192,173909,1,0,0:0:0:0:
448,192,174381,1,0,0:0:0:0:
192,192,174854,1,0,0:0:0:0:
64,192,175799,1,0,0:0:0:0:
192,192,176507,1,0,0:0:0:0:
320,192,176980,1,0,0:0:0:0:
448,192,177689,1,0,0:0:0:0:
320,192,178397,1,0,0:0:0:0:
192,192,178870,1,0,0:0:0:0:
64,192,179578,1,0,0:0:0:0:
192,192,180287,1,0,0:0:0:0:
320,192,180759,1,0,0:0:0:0:
448,192,181468,128,0,183358:0:0:0:0:
320,192,183358,1,0,0:0:0:0:
192,192,183830,1,0,0:0:0:0:
448,192,184303,1,0,0:0:0:0:
320,192,184775,1,0,0:0:0:0:
64,192,185248,1,0,0:0:0:0:
448,192,185720,1,0,0:0:0:0:
64,192,186192,1,0,0:0:0:0:
448,192,186665,1,0,0:0:0:0:
64,192,187137,1,0,0:0:0:0:
192,192,188082,1,0,0:0:0:0:
320,192,188555,1,0,0:0:0:0:
64,192,189027,1,0,0:0:0:0:
192,192,189500,1,0,0:0:0:0:
448,192,189972,1,0,0:0:0:0:
320,192,190917,1,0,0:0:0:0:
192,192,191389,1,0,0:0:0:0:
448,192,191862,1,0,0:0:0:0:
320,192,192334,1,0,0:0:0:0:
64,192,192807,1,0,0:0:0:0:
448,192,193279,1,0,0:0:0:0:
64,192,193752,1,0,0:0:0:0:
448,192,194224,1,0,0:0:0:0:
64,192,194696,1,0,0:0:0:0:
192,192,195641,1,0,0:0:0:0:
320,192,196114,1,0,0:0:0:0:
64,192,196586,1,0,0:0:0:0:
192,192,197531,1,0,0:0:0:0:
320,192,198476,1,0,0:0:0:0:
448,192,198948,1,0,0:0:0:0:
192,192,199421,1,0,0:0:0:0:
320,192,199893,1,0,0:0:0:0:
64,192,200366,1,0,0:0:0:0:
448,192,200838,1,0,0:0:0:0:
64,192,201311,1,0,0:0:0:0:
448,192,201783,1,0,0:0:0:0:
64,192,202255,1,0,0:0:0:0:
192,192,203200,1,0,0:0:0:0:
448,192,203673,1,0,0:0:0:0:
64,192,204145,1,0,0:0:0:0:
320,192,204618,1,0,0:0:0:0:
448,192,205090,1,0,0:0:0:0:
192,192,206035,1,0,0:0:0:0:
64,192,206507,1,0,0:0:0:0:
320,192,206980,1,0,0:0:0:0:
448,192,207452,1,0,0:0:0:0:
64,192,207925,1,0,0:0:0:0:
448,192,208397,1,0,0:0:0:0:
64,192,208870,1,0,0:0:0:0:
448,192,209342,1,0,0:0:0:0:
64,192,209815,1,0,0:0:0:0:
448,192,211232,1,0,0:0:0:0:
192,192,211704,128,0,213594:0:0:0:0:
448,192,213594,128,0,214539:0:0:0:0:
320,192,214539,1,0,0:0:0:0:
192,192,215011,1,0,0:0:0:0:
64,192,215484,128,0,216429:0:0:0:0:
192,192,216429,1,0,0:0:0:0:
448,192,216901,1,0,0:0:0:0:
320,192,217374,1,0,0:0:0:0:
192,192,217846,1,0,0:0:0:0:
64,192,218318,1,0,0:0:0:0:
320,192,218791,1,0,0:0:0:0:
192,192,219263,1,0,0:0:0:0:
64,192,220208,1,0,0:0:0:0:
192,192,220681,1,0,0:0:0:0:
320,192,221153,128,0,222098:0:0:0:0:
448,192,222098,1,0,0:0:0:0:
320,192,222570,1,0,0:0:0:0:
192,192,223043,128,0,223988:0:0:0:0:
64,192,223988,1,0,0:0:0:0:
448,192,224460,1,0,0:0:0:0:
320,192,224933,1,0,0:0:0:0:
192,192,225405,1,0,0:0:0:0:
64,192,225878,1,0,0:0:0:0:
320,192,226350,1,0,0:0:0:0:
192,192,226822,1,0,0:0:0:0:
64,192,227767,1,0,0:0:0:0:
192,192,228240,1,0,0:0:0:0:
320,192,228712,128,0,229185:0:0:0:0:
64,192,229185,1,0,0:0:0:0:
448,192,229657,1,0,0:0:0:0:
320,192,230129,1,0,0:0:0:0:
192,192,230602,128,0,231074:0:0:0:0:
448,192,231074,1,0,0:0:0:0:
64,192,231547,1,0,0:0:0:0:
192,192,232019,1,0,0:0:0:0:
320,192,232492,1,0,0:0:0:0:
192,192,232964,1,0,0:0:0:0:
320,192,233437,1,0,0:0:0:0:
448,192,233909,1,0,0:0:0:0:
192,192,234381,128,0,235326:0:0:0:0:
448,192,235326,1,0,0:0:0:0:
320,192,235799,1,0,0:0:0:0:
64,192,236271,128,0,236744:0:0:0:0:
448,192,236744,1,0,0:0:0:0:
64,192,237216,1,0,0:0:0:0:
192,192,237689,1,0,0:0:0:0:
448,192,238161,128,0,238633:0:0:0:0:
64,192,238633,1,0,0:0:0:0:
320,192,239106,1,0,0:0:0:0:
192,192,239578,1,0,0:0:0:0:
448,192,240051,1,0,0:0:0:0:
64,192,240523,1,0,0:0:0:0:
192,192,240996,1,0,0:0:0:0:
320,192,241468,1,0,0:0:0:0:
448,192,241941,128,0,243830:0:0:0:0:
