osu file format v14

[General]
AudioFilename: Edward Maya & Vika Jigulina - Stereo Love.mp3
AudioLeadIn: 1000
PreviewTime: 120776
Countdown: 0
SampleSet: Normal
StackLeniency: 0
Mode: 0
LetterboxInBreaks: 0
WidescreenStoryboard: 0

[Editor]
DistanceSpacing: 0.8
BeatDivisor: 4
GridSize: 4
TimelineZoom: 1

[Metadata]
Title:Stereo Love
TitleUnicode:Stereo Love
Artist:Edward Maya & Vika Jigulina
ArtistUnicode:Edward Maya & Vika Jigulina
Creator:AdRon Zh3Ro
Version:Insane
Source:
Tags:
BeatmapID:185435
BeatmapSetID:62508

[Difficulty]
HPDrainRate:8
CircleSize:5
OverallDifficulty:8
ApproachRate:8
SliderMultiplier:1.1
SliderTickRate:2

[Events]
//Background and Video events
0,0,"abstract_floral_desktop_1600x1200_hd-wallpaper-791679.jpg",0,0
//Break Periods
//Storyboard Layer 0 (Background)
//Storyboard Layer 1 (Fail)
//Storyboard Layer 2 (Pass)
//Storyboard Layer 3 (Foreground)
//Storyboard Layer 4 (Overlay)
//Storyboard Sound Samples

[TimingPoints]
84,472.44094488189,4,2,0,15,1,0
4103,-50,4,2,0,15,0,0
5271,-100,4,2,0,15,0,0
7161,-200,4,2,0,15,0,0
11412,-50,4,2,0,15,0,0
12829,-100,4,2,0,15,0,0
14956,-200,4,2,0,15,0,0
19208,-50,4,2,0,15,0,0
20387,-100,4,2,0,15,0,0
22277,-200,4,2,0,15,0,0
25586,-50,4,2,0,15,0,0
26177,-200,4,2,0,15,0,0
27476,-50,4,2,0,15,0,0
28067,-200,4,2,0,15,0,0
29366,-50,4,2,0,15,0,0
30311,-50,4,1,0,15,0,0
31369,-100,4,1,0,15,0,0
32082,-50,4,1,0,15,0,0
33259,-100,4,1,0,15,0,0
33850,-50,4,1,0,15,0,0
35149,-100,4,1,0,15,0,0
35740,-50,4,1,0,15,0,0
37039,-100,4,1,0,15,0,0
37629,-50,4,1,0,15,0,0
38929,-100,4,1,0,15,0,0
39519,-50,4,1,0,15,0,0
40818,-100,4,1,0,15,0,0
41409,-50,4,1,0,15,0,0
42708,-100,4,1,0,15,0,0
43299,-50,4,1,0,15,0,0
43666,-50,4,1,0,15,0,1
44965,-50,4,1,0,15,0,0
45438,-50,4,1,0,25,0,1
45556,-50,4,1,0,25,0,0
46960,-100,4,1,0,25,0,0
47669,-50,4,1,0,25,0,0
48850,-100,4,1,0,25,0,0
49558,-50,4,1,0,25,0,0
51684,-100,4,1,0,25,0,0
53338,-50,4,1,0,25,0,0
54519,-100,4,1,0,25,0,0
55228,-50,4,1,0,25,0,0
56409,-100,4,1,0,25,0,0
57118,-50,4,1,0,25,0,0
59244,-100,4,1,0,25,0,0
60320,-100,4,1,0,25,0,1
60556,-50,4,1,0,25,0,0
62078,-100,4,1,0,25,0,0
62787,-50,4,1,0,25,0,0
63968,-100,4,1,0,25,0,0
64677,-50,4,1,0,25,0,0
67747,-100,4,1,0,25,0,0
68456,-50,4,1,0,25,0,0
69637,-100,4,1,0,25,0,0
70346,-50,4,1,0,25,0,0
71527,-100,4,1,0,25,0,0
72236,-50,4,1,0,25,0,0
74362,-100,4,1,0,25,0,0
75779,-50,4,1,0,10,0,0
80858,-100,4,1,0,10,0,0
82747,-200,4,1,0,10,0,0
86999,-50,4,1,0,10,0,0
88298,-100,4,1,0,10,0,0
90792,-50,4,1,0,15,0,1
91028,-50,4,1,0,15,0,0
95975,-100,4,1,0,15,0,0
97865,-50,4,1,0,15,0,0
98351,-50,4,1,0,15,0,1
98587,-50,4,1,0,15,0,0
101880,-200,4,1,0,15,0,0
104956,-50,4,1,0,15,0,0
113695,-100,4,1,0,15,0,0
119139,-100,4,1,0,15,0,1
120556,-50,4,1,0,25,0,0
121028,-50,4,1,0,25,0,1
121265,-50,4,1,0,25,0,0
136137,-50,4,1,0,25,0,1
136383,-50,4,1,0,25,0,0
151254,-76.9230769230769,4,1,0,25,0,1
151728,-50,4,1,0,25,0,1
153027,-76.9230769230769,4,1,0,25,0,1
153618,-50,4,1,0,25,0,1
154917,-76.9230769230769,4,1,0,25,0,1
155508,-50,4,1,0,25,0,1
156807,-76.9230769230769,4,1,0,25,0,1
157397,-50,4,1,0,25,0,1
158697,-76.9230769230769,4,1,0,25,0,1
159287,-50,4,1,0,25,0,1
160586,-76.9230769230769,4,1,0,25,0,1
161177,-50,4,1,0,25,0,1
162476,-76.9230769230769,4,1,0,25,0,1
163067,-50,4,1,0,25,0,1
164366,-76.9230769230769,4,1,0,25,0,1
164956,-50,4,1,0,25,0,1
179130,-50,4,1,0,30,0,1
179366,-50,4,1,0,31,0,1
179602,-50,4,1,0,32,0,1
179838,-50,4,1,0,33,0,1
180075,-50,4,1,0,34,0,1
180311,-50,4,1,0,35,0,1
180547,-50,4,1,0,36,0,1
180783,-50,4,1,0,37,0,1
181019,-50,4,1,0,38,0,1
181256,-50,4,1,0,39,0,1
181490,-50,4,1,0,40,0,0

[Colours]
Combo1 : 222,216,177
Combo2 : 185,223,176
Combo3 : 196,192,121
Combo4 : 118,182,123

[HitObjects]
256,192,556,12,0,3863,0:0:0:0:
388,324,4335,5,2,0:0:0:0:
304,344,4572,1,0,0:0:0:0:
208,344,4808,1,2,0:0:0:0:
124,324,5044,1,2,0:0:0:0:
328,252,5517,2,0,B|384:232|384:232|416:176,1,110,0|2,0:0|0:0,0:0:0:0:
102,188,6461,2,0,B|128:232|128:232|184:252,1,110,0|2,0:0|0:0,0:0:0:0:
416,36,7406,2,0,B|372:80|360:132|360:132|308:136|256:188|256:188|204:136|152:132|152:132|140:80|96:36,1,467.5,2|2,0:0|0:0,0:0:0:0:
204,40,11895,5,2,0:0:0:0:
256,112,12131,1,2,0:0:0:0:
308,40,12367,1,2,0:0:0:0:
204,40,12603,1,2,0:0:0:0:
402,168,13076,2,0,B|432:128|432:128|428:68,1,110,0|2,0:0|0:0,0:0:0:0:
84,68,14021,2,0,B|80:128|80:128|109:168,1,110,0|2,0:0|0:0,0:0:0:0:
368,336,15202,2,0,B|316:288|332:212|332:212|292:208|256:244|256:244|220:208|180:212|180:212|196:288|144:336,1,440,2|2,0:0|0:0,0:0:0:0:
140,152,19454,5,2,0:0:0:0:
212,100,19690,1,2,0:0:0:0:
300,100,19926,1,0,0:0:0:0:
372,152,20162,1,2,0:0:0:0:
120,72,20635,2,0,B|68:100|68:100|52:152,1,110,0|2,0:0|0:0,0:0:0:0:
458,148,21580,2,0,B|444:100|444:100|392:72,1,110,0|2,0:0|0:0,0:0:0:0:
108,280,22524,2,0,B|180:292|208:336|208:336|256:336|308:336|308:336|328:292|404:280,1,330,2|2,0:0|0:0,0:0:0:0:
256,172,25832,5,2,0:0:0:0:
208,244,26068,1,0,0:0:0:0:
160,168,26304,2,0,B|136:120|88:168|68:108,1,110,2|0,0:0|0:0,0:0:0:0:
256,172,27721,5,2,0:0:0:0:
304,244,27958,1,0,0:0:0:0:
352,168,28194,2,0,B|376:120|424:168|444:108,1,110,2|0,0:0|0:0,0:0:0:0:
256,308,29611,1,2,0:0:0:0:
256,168,30084,1,2,0:0:0:0:
256,172,30202,1,0,0:0:0:0:
256,176,30320,5,2,0:0:0:0:
256,308,30674,1,0,0:0:0:0:
256,312,30792,1,2,0:0:0:0:
340,332,31028,1,0,0:0:0:0:
172,332,31265,1,2,0:0:0:0:
348,236,31501,2,0,B|384:192|384:192|374:139,1,110,0|2,0:0|0:0,0:3:0:0:
376,136,32091,1,0,0:0:0:0:
379,133,32209,5,2,0:0:0:0:
147,147,32564,1,0,0:0:0:0:
144,144,32682,1,2,0:0:0:0:
164,236,32918,1,0,0:0:0:0:
80,208,33154,1,2,0:0:0:0:
256,236,33391,2,0,B|244:198|244:198|272:198|272:198|256:158,1,110,0|2,0:0|0:0,0:0:0:0:
256,152,33981,1,0,0:0:0:0:
256,148,34099,5,2,0:0:0:0:
366,147,34454,1,0,0:0:0:0:
368,144,34572,1,2,0:0:0:0:
348,236,34808,1,0,0:0:0:0:
432,208,35044,1,2,0:0:0:0:
164,236,35280,2,0,B|128:192|128:192|139:139,1,110,0|2,0:0|0:0,0:3:0:0:
136,136,35871,1,0,0:0:0:0:
133,133,35989,5,2,0:0:0:0:
256,40,36343,1,0,0:0:0:0:
256,34,36461,1,2,0:0:0:0:
176,52,36698,1,0,0:0:0:0:
336,52,36934,1,2,0:0:0:0:
204,152,37170,2,0,B|256:172|256:172|308:152,1,110,0|2,0:0|0:0,0:0:0:0:
312,148,37761,1,0,0:0:0:0:
316,144,37879,5,2,0:0:0:0:
176,232,38233,1,0,0:0:0:0:
172,236,38351,1,2,0:0:0:0:
256,268,38587,1,0,0:0:0:0:
336,232,38824,1,2,0:0:0:0:
308,336,39060,2,0,B|256:352|256:352|204:336,1,110,0|2,0:0|0:0,0:0:0:0:
200,332,39650,1,0,0:0:0:0:
196,328,39769,5,2,0:0:0:0:
172,236,40123,1,0,0:0:0:0:
176,232,40241,1,2,0:0:0:0:
256,268,40477,1,0,0:0:0:0:
336,232,40713,1,2,0:0:0:0:
96,208,40950,2,0,B|68:160|68:160|96:88,1,110,0|2,0:0|0:0,0:0:0:0:
85,104,41540,1,0,0:0:0:0:
81,100,41658,5,2,0:0:0:0:
256,36,42013,1,0,0:0:0:0:
256,40,42131,1,2,0:0:0:0:
357,45,42367,1,0,0:0:0:0:
155,45,42603,1,2,0:0:0:0:
425,109,42839,2,0,B|445:160|445:160|417:208,1,110,0|2,0:0|0:0,0:0:0:0:
421,212,43430,1,0,0:0:0:0:
425,216,43548,1,2,0:0:0:0:
256,192,43666,12,0,44965,0:0:0:0:
256,100,45438,5,0,0:0:0:0:
108,192,45674,1,8,0:0:0:0:
196,184,45910,2,0,B|176:132|176:132|124:100,1,110
382,103,46383,2,0,B|336:132|336:132|316:184,1,110
404,192,46855,1,0,0:0:0:0:
256,244,47091,6,0,B|256:360,1,110,8|8,0:0|0:0,0:0:0:0:
340,312,47800,1,0,0:0:0:0:
172,312,48036,1,0,0:0:0:0:
256,176,48272,1,0,0:0:0:0:
340,312,48509,1,0,0:0:0:0:
346,312,48627,1,8,0:0:0:0:
352,312,48745,1,8,0:0:0:0:
156,228,48981,6,0,B|112:196|112:196|92:140,1,110,8|8,0:0|0:0,0:0:0:0:
419,143,49690,2,0,B|401:196|401:196|357:228,1,110
336,92,50162,1,0,0:0:0:0:
256,40,50398,1,0,0:0:0:0:
176,92,50635,1,0,0:0:0:0:
88,156,50871,6,0,B|108:212|108:212|160:236,1,110,8|0,0:0|0:0,0:0:0:0:
358,233,51343,2,0,B|404:212|404:212|424:156,1,110,8|0,0:0|0:0,0:0:0:0:
72,268,51816,2,0,B|118:289|118:289|138:345,1,110
144,344,52405,1,8,0:0:0:0:
150,344,52524,1,8,0:0:0:0:
375,344,52761,6,0,B|395:288|395:288|447:264,1,110,8|8,0:0|0:0,0:0:0:0:
336,236,53469,1,0,0:0:0:0:
256,192,53706,1,0,0:0:0:0:
176,236,53942,1,0,0:0:0:0:
256,344,54178,1,0,0:0:0:0:
336,236,54414,1,0,0:0:0:0:
308,72,54650,6,0,B|256:56|256:56|204:72,1,110,8|8,0:0|0:0,0:0:0:0:
132,52,55359,2,0,B|116:104|116:104|132:164,1,110
380,156,55832,2,0,B|395:103|395:103|379:51,1,110
372,50,56186,1,8,0:0:0:0:
366,49,56304,1,8,0:0:0:0:
204,176,56540,6,0,B|256:192|256:192|308:176,1,110,8|8,0:0|0:0,0:0:0:0:
180,312,57249,1,0,0:0:0:0:
128,240,57485,1,0,0:0:0:0:
384,240,57721,1,0,0:0:0:0:
332,312,57958,1,0,0:0:0:0:
256,248,58194,1,0,0:0:0:0:
112,152,58430,6,0,B|168:136|168:136|217:178,1,110,8|0,0:0|0:0,0:0:0:0:
400,152,58902,2,0,B|344:136|344:136|295:178,1,110,8|0,0:0|0:0,0:0:0:0:
460,56,59375,2,0,B|408:80|408:80|344:64,1,110
351,64,59965,1,8,0:0:0:0:
345,62,60083,1,8,0:0:0:0:
52,56,60320,6,0,B|104:80|104:80|168:64,1,110,8|8,0:0|0:0,0:0:0:0:
256,276,61028,1,0,0:0:0:0:
180,348,61265,2,0,B|165:296|165:296|125:256,1,110
386,256,61737,2,0,B|346:296|346:296|332:348,1,110
204,204,62209,6,0,B|256:184|256:184|308:204,1,110,8|8,0:0|0:0,0:0:0:0:
384,64,62918,1,0,0:0:0:0:
204,124,63154,1,0,0:0:0:0:
308,124,63391,1,0,0:0:0:0:
128,64,63627,1,0,0:0:0:0:
134,68,63745,1,8,0:0:0:0:
139,73,63863,1,8,0:0:0:0:
204,192,64099,6,0,B|256:212|256:212|306:192,1,110,8|8,0:0|0:0,0:0:0:0:
404,320,64808,1,0,0:0:0:0:
408,324,64926,1,0,0:0:0:0:
256,236,65162,1,0,0:0:0:0:
108,320,65398,1,0,0:0:0:0:
176,116,65753,2,0,B|136:160|136:160|144:224,1,110,0|8,0:0|0:0,0:0:0:0:
369,210,66461,6,0,B|376:160|376:160|336:116,1,110,8|0,0:0|0:0,0:0:0:0:
202,271,66934,2,0,B|256:288|256:288|308:272,2,110
195,271,67524,1,8,0:0:0:0:
189,272,67643,1,8,0:0:0:0:
305,130,67879,6,0,B|254:115|254:115|200:132,1,110,8|8,0:0|0:0,0:0:0:0:
256,204,68587,1,0,0:0:0:0:
340,224,68824,2,0,B|392:252|392:252|416:296,1,110
96,296,69296,2,0,B|120:252|120:252|172:224,1,110
307,320,69769,6,0,B|256:332|256:332|200:320,1,110,8|8,0:0|0:0,0:0:0:0:
256,244,70477,1,0,0:0:0:0:
136,100,70713,1,0,0:0:0:0:
376,100,70950,1,0,0:0:0:0:
256,244,71186,1,0,0:0:0:0:
256,238,71304,1,8,0:0:0:0:
255,232,71422,1,8,0:0:0:0:
308,120,71658,6,0,B|256:140|256:140|204:120,1,110,8|8,0:0|0:0,0:0:0:0:
160,56,72367,1,0,0:0:0:0:
156,52,72485,1,0,0:0:0:0:
256,40,72721,1,0,0:0:0:0:
352,56,72958,1,0,0:0:0:0:
416,188,73312,2,0,B|400:244|400:244|336:264,1,110,0|8,0:0|0:0,0:0:0:0:
161,259,74021,6,0,B|112:244|112:244|96:188,2,110,8|0|0,0:0|0:0|0:0,0:0:0:0:
310,171,74729,2,0,L|258:139,1,55
256,140,75084,1,8,0:0:0:0:
248,142,75202,2,8,L|202:171,1,55
256,236,75674,1,4,0:0:0:0:
256,192,75792,12,0,79454,0:0:0:0:
164,332,79926,5,8,0:0:0:0:
208,256,80162,1,0,0:0:0:0:
300,256,80398,1,8,0:0:0:0:
348,332,80635,1,8,0:0:0:0:
133,155,81107,2,0,B|148:204|148:204|120:256,1,110,0|8,0:0|0:0,0:0:0:0:
392,256,82052,2,0,B|364:204|364:204|378:155,1,110,0|8,0:0|0:0,0:0:0:0:
92,52,82997,2,0,B|140:72|192:60|192:60|240:104|256:160|256:160|272:104|320:60|320:60|372:72|420:52,1,440,8|8,0:0|0:0,0:0:0:0:
420,52,87013,1,8,0:0:0:0:
176,156,87485,5,8,0:0:0:0:
212,236,87721,1,8,0:0:0:0:
300,236,87958,1,0,0:0:0:0:
336,156,88194,1,8,0:0:0:0:
128,240,88666,2,0,B|140:292|140:292|196:328,1,110,0|8,0:0|0:0,0:0:0:0:
324,322,89611,2,0,B|372:292|372:292|384:240,1,110,0|8,0:0|0:0,0:0:0:0:
256,240,90792,5,0,0:0:0:0:
256,108,91146,1,8,0:0:0:0:
256,104,91501,1,8,0:0:0:0:
196,172,91737,2,0,B|148:140|148:140|136:80,1,110,0|8,0:0|0:0,0:0:0:0:
374,88,92209,2,0,B|364:140|364:140|316:172,1,110
396,208,92682,6,0,B|348:240|348:240|336:300,1,110,0|8,0:0|0:0,0:0:0:0:
174,291,93154,2,0,B|164:240|164:240|116:208,1,110
84,292,93627,1,0,0:0:0:0:
256,332,93863,1,8,0:0:0:0:
428,292,94099,1,0,0:0:0:0:
256,332,94335,1,8,0:0:0:0:
256,192,94572,5,8,0:0:0:0:
352,340,95044,1,8,0:0:0:0:
300,268,95280,1,0,0:0:0:0:
212,268,95517,1,8,0:0:0:0:
160,340,95753,1,8,0:0:0:0:
420,288,96225,2,0,B|380:244|380:244|376:184,1,110,0|8,0:0|0:0,0:0:0:0:
135,193,97170,2,0,B|132:244|132:244|92:288,1,110,0|8,0:0|0:0,0:0:0:0:
88,292,98115,1,8,0:0:0:0:
256,144,98351,5,0,0:0:0:0:
256,140,98706,1,8,0:0:0:0:
256,276,99060,1,8,0:0:0:0:
308,208,99296,2,0,B|356:176|356:176|368:116,1,110,0|8,0:0|0:0,0:0:0:0:
146,124,99769,2,0,B|156:176|156:176|204:208,1,110
120,252,100241,6,0,B|168:284|168:284|180:344,1,110,0|8,0:0|0:0,0:0:0:0:
334,335,100713,2,0,B|344:284|344:284|392:252,1,110
204,208,101186,1,0,0:0:0:0:
256,280,101422,1,8,0:0:0:0:
308,208,101658,1,0,0:0:0:0:
328,124,101895,2,0,B|348:80|400:120|424:76,1,110,8|0,0:0|0:0,0:0:0:0:
256,280,103312,5,8,0:0:0:0:
204,208,103548,1,0,0:0:0:0:
184,124,103784,2,0,B|164:80|112:120|88:76,1,110,8|0,0:0|0:0,0:0:0:0:
84,76,105202,1,8,0:0:0:0:
172,236,105674,1,8,0:0:0:0:
256,264,105910,5,0,0:0:0:0:
418,82,106265,1,8,0:0:0:0:
340,236,106619,1,8,0:0:0:0:
184,324,106855,2,0,B|128:312|128:312|96:272,1,110,0|8,0:0|0:0,0:0:0:0:
328,324,107328,2,0,B|384:312|384:312|416:270,1,110,0|8,0:0|0:0,0:0:0:0:
420,268,107800,5,0,0:0:0:0:
256,228,108154,1,8,0:0:0:0:
95,270,108509,1,8,0:0:0:0:
340,236,108745,2,0,B|360:184|360:184|408:152,1,110,0|8,0:0|0:0,0:0:0:0:
172,236,109217,2,0,B|152:184|152:184|106:153,1,110,0|8,0:0|0:0,0:0:0:0:
100,152,109690,5,0,0:0:0:0:
405,153,110044,1,8,0:0:0:0:
256,192,110398,1,8,0:0:0:0:
192,132,110635,2,0,B|180:80|180:80|224:24,1,110,0|8,0:0|0:0,0:0:0:0:
320,132,111107,2,0,B|332:80|332:80|288:24,1,110,0|8,0:0|0:0,0:0:0:0:
256,196,111580,5,0,0:0:0:0:
172,336,111934,1,8,0:0:0:0:
340,336,112288,1,8,0:0:0:0:
104,244,112524,2,0,B|157:236|157:236|205:264,1,110,0|8,0:0|0:0,0:0:0:0:
408,244,112997,2,0,B|354:236|354:236|306:264,1,110,0|8,0:0|0:0,0:0:0:0:
256,336,113469,5,0,0:0:0:0:
256,332,113824,1,8,0:0:0:0:
256,328,113942,2,0,B|256:104,1,220
172,140,115359,5,0,0:0:0:0:
172,144,115713,1,8,0:0:0:0:
172,148,115832,2,0,B|160:208|172:260|172:260|152:312|84:328,1,220
340,140,117249,5,0,0:0:0:0:
340,144,117603,1,8,0:0:0:0:
340,148,117721,2,0,B|352:208|340:260|340:260|360:312|428:328,1,220
256,192,119139,12,4,120556,0:0:0:0:
256,88,121028,5,4,0:0:0:0:
256,220,121383,1,0,0:0:0:0:
256,224,121501,1,8,0:0:0:0:
176,184,121737,1,8,0:0:0:0:
188,272,121973,2,0,B|168:324|168:324|104:352,1,110,0|8,0:0|0:0,0:0:0:0:
393,345,122446,2,0,B|344:324|344:324|324:272,1,110
336,184,122918,5,0,0:0:0:0:
256,104,123272,1,0,0:0:0:0:
256,98,123391,1,8,0:0:0:0:
176,184,123627,1,8,0:0:0:0:
384,248,123863,2,0,B|417:206|417:206|409:150,1,110,0|8,0:0|0:0,0:0:0:0:
103,150,124335,2,0,B|95:206|95:206|128:248,1,110
256,104,124808,5,0,0:0:0:0:
256,236,125162,1,0,0:0:0:0:
257,242,125280,1,8,0:0:0:0:
158,82,125517,2,0,B|152:132|152:132|188:180,1,110,8|0,0:0|0:0,0:0:0:0:
256,36,125989,1,8,0:0:0:0:
322,177,126225,2,0,B|358:129|358:129|352:80,1,110
256,120,126698,5,0,0:0:0:0:
256,252,127052,1,0,0:0:0:0:
256,248,127170,1,8,0:0:0:0:
188,180,127406,2,0,B|144:206|144:206|135:265,1,110,8|0,0:0|0:0,0:0:0:0:
376,265,127879,2,0,B|367:206|367:206|324:180,1,110,8|0,0:0|0:0,0:0:0:0:
200,320,128351,2,0,B|256:332|256:332|312:320,1,110,0|4,0:0|0:0,0:0:0:0:
256,120,128942,5,0,0:0:0:0:
256,116,129060,1,8,0:0:0:0:
312,52,129296,1,8,0:0:0:0:
364,124,129532,2,0,B|392:172|392:172|372:232,1,110,0|8,0:0|0:0,0:0:0:0:
137,223,130005,2,0,B|120:172|120:172|148:124,1,110
200,52,130477,5,0,0:0:0:0:
374,217,130832,1,0,0:0:0:0:
374,223,130950,2,0,B|384:280|384:280|432:320,1,110,8|8,0:0|0:0,0:0:0:0:
256,344,131422,1,0,0:0:0:0:
87,313,131658,2,0,B|128:280|128:280|137:223,1,110,8|0,0:0|0:0,0:0:0:0:
256,180,132131,1,0,0:0:0:0:
256,260,132367,5,0,0:0:0:0:
172,140,132721,1,0,0:0:0:0:
178,140,132839,1,8,0:0:0:0:
137,223,133076,2,0,B|92:184|92:184|84:120,1,110,8|0,0:0|0:0,0:0:0:0:
426,134,133548,2,0,B|420:184|420:184|374:223,1,110,8|0,0:0|0:0,0:0:0:0:
340,140,134021,1,0,0:0:0:0:
256,344,134257,5,0,0:0:0:0:
257,254,134611,1,0,0:0:0:0:
256,248,134729,2,0,B|256:132,1,110,8|0,0:0|0:0,0:0:0:0:
456,252,135202,2,0,B|410:291|410:291|404:341,1,110,0|8,0:0|0:0,0:0:0:0:
107,341,135674,2,0,B|101:291|101:291|56:252,1,110,0|8,0:0|0:0,0:0:0:0:
136,220,136146,5,4,0:0:0:0:
256,136,136383,1,0,0:0:0:0:
256,140,136501,1,8,0:0:0:0:
256,144,136619,1,8,0:0:0:0:
376,220,136855,1,8,0:0:0:0:
300,264,137091,2,0,B|344:296|344:296|368:356,1,110,0|8,0:0|0:0,0:0:0:0:
147,347,137564,2,0,B|168:296|168:296|212:264,1,110
256,340,138036,5,0,0:0:0:0:
256,136,138272,1,0,0:0:0:0:
256,132,138391,1,8,0:0:0:0:
256,128,138509,1,8,0:0:0:0:
180,184,138745,2,0,B|152:136|152:136|156:80,1,110,8|0,0:0|0:0,0:0:0:0:
256,48,139217,1,8,0:0:0:0:
356,81,139454,2,0,B|360:136|360:136|332:184,1,110
256,228,139926,5,0,0:0:0:0:
256,320,140162,1,0,0:0:0:0:
256,324,140280,1,8,0:0:0:0:
256,328,140398,1,8,0:0:0:0:
356,240,140635,2,0,B|384:192|384:192|376:138,1,110,8|0,0:0|0:0,0:0:0:0:
135,138,141107,2,0,B|128:192|128:192|156:240,1,110,8|0,0:0|0:0,0:0:0:0:
256,228,141580,1,0,0:0:0:0:
256,52,141816,5,0,0:0:0:0:
256,140,142052,1,0,0:0:0:0:
256,136,142170,1,8,0:0:0:0:
256,132,142288,1,8,0:0:0:0:
344,132,142524,1,8,0:0:0:0:
124,208,142761,1,0,0:0:0:0:
388,208,142997,1,8,0:0:0:0:
168,132,143233,1,0,0:0:0:0:
256,232,143469,1,8,0:0:0:0:
256,136,143706,5,4,0:0:0:0:
180,232,143942,1,0,0:0:0:0:
176,236,144060,1,8,0:0:0:0:
172,240,144178,1,8,0:0:0:0:
96,296,144414,2,0,B|44:268|44:268|24:216,2,110,8|0|8,0:0|0:0|0:0,0:0:0:0:
176,320,145123,1,0,0:0:0:0:
112,216,145359,1,0,0:0:0:0:
256,328,145595,5,0,0:0:0:0:
332,232,145832,1,0,0:0:0:0:
336,236,145950,1,8,0:0:0:0:
340,240,146068,1,8,0:0:0:0:
416,296,146304,2,0,B|468:268|468:268|488:216,2,110,8|0|8,0:0|0:0|0:0,0:0:0:0:
336,320,147013,1,0,0:0:0:0:
400,216,147249,1,0,0:0:0:0:
256,228,147485,5,0,0:0:0:0:
189,184,147721,1,0,0:0:0:0:
183,186,147839,1,8,0:0:0:0:
176,188,147957,2,0,B|144:144|144:144|160:88,1,110,8|0,0:0|0:0,0:0:0:0:
353,90,148430,2,0,B|368:144|368:144|336:188,1,110,0|8,0:0|0:0,0:0:0:0:
256,192,148902,12,4,150792,0:0:0:0:
256,318,151265,6,0,B|256:208,1,110,4|8,0:0|0:0,0:0:0:0:
256,204,151737,1,8,0:0:0:0:
108,236,151973,2,0,B|100:180|100:180|132:128,1,110,8|0,0:0|0:0,0:0:0:0:
384,136,152446,2,0,B|413:182|413:182|405:238,1,110,8|0,0:0|0:0,0:0:0:0:
256,200,152918,1,0,0:0:0:0:
172,328,153154,6,0,B|116:312|116:312|88:260,1,110,0|8,0:0|0:0,0:0:0:0:
96,264,153627,1,8,0:0:0:0:
136,52,153863,2,0,B|121:103|121:103|69:127,1,110,8|0,0:0|0:0,0:0:0:0:
443,127,154335,2,0,B|391:103|391:103|376:52,1,110,8|0,0:0|0:0,0:0:0:0:
256,210,154808,1,8,0:0:0:0:
340,328,155044,6,0,B|396:312|396:312|424:260,1,110,4|8,0:0|0:0,0:0:0:0:
416,264,155517,1,8,0:0:0:0:
176,240,155753,1,8,0:0:0:0:
336,240,155989,1,0,0:0:0:0:
256,320,156225,1,8,0:0:0:0:
205,81,156461,2,0,B|156:108|156:108|140:160,1,110
306,81,156934,6,0,B|356:108|356:108|372:160,1,110,0|8,0:0|0:0,0:0:0:0:
368,164,157406,1,8,0:0:0:0:
460,148,157643,1,8,0:0:0:0:
424,228,157879,2,0,B|436:280|436:280|405:327,1,110,0|8,0:0|0:0,0:0:0:0:
106,327,158351,2,0,B|76:280|76:280|88:228,1,110,0|8,0:0|0:0,0:0:0:0:
152,168,158824,6,0,B|182:215|182:215|170:267,1,110,4|8,0:0|0:0,0:0:0:0:
164,268,159296,1,8,0:0:0:0:
256,280,159532,1,8,0:0:0:0:
196,348,159769,1,0,0:0:0:0:
316,348,160005,1,8,0:0:0:0:
116,348,160241,1,0,0:0:0:0:
400,348,160477,1,0,0:0:0:0:
341,267,160713,6,0,B|329:215|329:215|360:168,1,110,0|8,0:0|0:0,0:0:0:0:
364,164,161186,1,8,0:0:0:0:
424,228,161422,1,8,0:0:0:0:
142,75,161658,2,0,B|92:96|92:96|64:144,1,110,0|8,0:0|0:0,0:0:0:0:
448,144,162131,2,0,B|420:96|420:96|370:75,1,110,0|8,0:0|0:0,0:0:0:0:
148,168,162603,6,0,B|120:220|120:220|136:296,1,110,4|8,0:0|0:0,0:0:0:0:
136,272,163076,1,8,0:0:0:0:
312,236,163312,2,0,B|256:220|256:220|200:236,2,110,8|0|8,0:0|0:0|0:0,0:0:0:0:
381,269,164021,2,0,B|392:220|392:220|364:168,1,110
130,269,164493,6,0,B|144:324|144:324|200:352,1,110,0|8,0:0|0:0,0:0:0:0:
196,344,164965,1,8,0:0:0:0:
319,348,165202,2,0,B|368:324|368:324|381:269,1,110,8|0,0:0|0:0,0:0:0:0:
256,276,165674,1,8,0:0:0:0:
328,164,165910,1,0,0:0:0:0:
184,164,166146,1,8,0:0:0:0:
164,248,166383,6,0,B|112:272|112:272|56:256,1,110,4|0,0:0|0:0,0:0:0:0:
56,252,166737,1,8,0:0:0:0:
52,248,166855,1,8,0:0:0:0:
96,156,167091,2,0,B|116:104|116:104|162:75,1,110,8|0,0:0|0:0,0:0:0:0:
256,168,167564,1,8,0:0:0:0:
350,75,167800,2,0,B|396:104|396:104|416:156,1,110,0|8,0:0|0:0,0:0:0:0:
348,248,168272,6,0,B|400:272|400:272|456:256,1,110
456,252,168627,1,8,0:0:0:0:
460,248,168745,1,8,0:0:0:0:
388,344,168981,1,8,0:0:0:0:
256,264,169217,1,0,0:0:0:0:
124,344,169454,1,8,0:0:0:0:
388,344,169690,1,0,0:0:0:0:
256,264,169926,1,8,0:0:0:0:
168,256,170162,6,0,B|144:208|144:208|156:152,1,110,4|0,0:0|0:0,0:0:0:0:
160,148,170517,1,8,0:0:0:0:
164,144,170635,1,8,0:0:0:0:
356,152,170871,2,0,B|368:208|368:208|344:256,1,110,8|0,0:0|0:0,0:0:0:0:
256,192,171343,1,8,0:0:0:0:
188,64,171580,1,0,0:0:0:0:
324,64,171816,1,8,0:0:0:0:
112,64,172052,6,0,B|64:92|64:92|48:160,1,110
56,148,172406,1,8,0:0:0:0:
60,152,172524,1,8,0:0:0:0:
140,152,172761,2,0,B|184:188|184:188|196:239,1,110,8|0,0:0|0:0,0:0:0:0:
256,304,173233,1,8,0:0:0:0:
315,239,173469,2,0,B|328:188|328:188|372:152,1,110,0|8,0:0|0:0,0:0:0:0:
404,236,173942,6,0,B|396:292|396:292|352:328,1,110,4|0,0:0|0:0,0:0:0:0:
350,330,174296,1,8,0:0:0:0:
345,335,174414,1,8,0:0:0:0:
256,312,174650,1,8,0:0:0:0:
157,325,174887,2,0,B|116:292|116:292|108:236,1,110,0|8,0:0|0:0,0:0:0:0:
312,240,175359,1,0,0:0:0:0:
200,240,175595,1,8,0:0:0:0:
400,212,175832,6,0,B|376:160|376:160|312:128,1,110
324,140,176186,1,8,0:0:0:0:
320,144,176304,1,8,0:0:0:0:
256,192,176540,1,8,0:0:0:0:
183,136,176776,2,0,B|136:160|136:160|112:212,1,110,0|8,0:0|0:0,0:0:0:0:
192,248,177249,1,0,0:0:0:0:
116,216,177485,1,8,0:0:0:0:
320,248,177721,6,0,B|340:304|340:304|396:336,1,110,4|0,0:0|0:0,0:0:0:0:
388,324,178076,1,8,0:0:0:0:
392,320,178194,1,8,0:0:0:0:
256,192,178430,1,8,0:0:0:0:
128,329,178666,2,0,B|172:304|172:304|192:248,1,110,0|8,0:0|0:0,0:0:0:0:
256,192,179139,12,4,181028,0:0:0:0:
256,192,181501,5,4,0:0:0:0:
