osu file format v14

[General]
AudioFilename: audio.mp3
AudioLeadIn: 0
PreviewTime: 12474
Countdown: 1
SampleSet: Soft
StackLeniency: 0.7
Mode: 0
LetterboxInBreaks: 0
WidescreenStoryboard: 0

[Editor]
DistanceSpacing: 0.8
BeatDivisor: 4
GridSize: 16
TimelineZoom: 1

[Metadata]
Title:Star Guardian 2017 Login Theme
TitleUnicode:Star Guardian 2017 Login Theme
Artist:Edouard Brenneisen
ArtistUnicode:Edouard Brenneisen
Creator:Jorkseljund
Version:Hard
Source:League of Legends
Tags:star guardian league of legends lux syndra miss fortune lulu poppy jinx ezreal ahri soraka
BeatmapID:1412316
BeatmapSetID:667466

[Difficulty]
HPDrainRate:7
CircleSize:4.5
OverallDifficulty:7
ApproachRate:8.5
SliderMultiplier:1.4
SliderTickRate:2

[Events]
//Background and Video events
0,0,"maxresdefault.jpg",0,0
//Break Periods
2,50272,55556
2,78324,102309
2,121960,124127
//Storyboard Layer 0 (Background)
//Storyboard Layer 1 (Fail)
//Storyboard Layer 2 (Pass)
//Storyboard Layer 3 (Foreground)
//Storyboard Sound Samples

[TimingPoints]
6436.01252584899,389.61038961039,4,2,0,100,1,0
21111,-100,4,2,0,5,0,0
21241,-100,4,2,0,100,0,0
21306,-100,4,2,0,5,0,0
21436,-100,4,2,0,100,0,0
21500,-100,4,2,0,5,0,0
21630,-100,4,2,0,100,0,0
21695,-100,4,2,0,5,0,0
21825,-100,4,2,0,100,0,0
21890,-100,4,2,0,5,0,0
22020,-100,4,2,0,100,0,0
37604,-100,4,2,0,100,0,1
50072,-100,4,2,0,100,0,0
62539,-100,4,2,0,100,0,1
68708,-100,4,2,0,100,0,0
71111,-100,4,2,0,100,0,1
75007,-100,4,2,0,100,0,0
131111,-100,4,2,0,100,0,1
143189,-100,4,2,0,100,0,0
143578,-100,4,2,0,100,0,1
169682,-100,4,2,0,100,0,0

[Colours]
Combo1 : 255,128,192
Combo2 : 255,0,255
Combo3 : 0,255,0
Combo4 : 255,0,0
Combo5 : 0,128,255
Combo6 : 128,0,255

[HitObjects]
80,80,6436,6,0,L|144:128,1,70,4|0,0:0|0:0,0:0:0:0:
64,128,6825,2,0,L|144:144,1,70,4|4,0:0|0:0,0:0:0:0:
192,208,7215,1,0,0:0:0:0:
288,240,7410,1,4,0:0:0:0:
384,192,7604,1,4,0:0:0:0:
400,64,7799,2,0,B|368:64|368:64|352:80|352:80|320:80|320:80,1,70
240,112,8189,6,0,L|176:144,1,70
224,224,8578,2,0,L|288:192,1,70,2|2,0:0|0:0,0:0:0:0:
368,144,8968,1,2,0:0:0:0:
432,224,9163,1,2,0:0:0:0:
384,320,9358,1,2,0:0:0:0:
256,320,9552,5,4,0:0:0:0:
176,256,9747,1,0,0:0:0:0:
80,320,9942,1,4,0:0:0:0:
256,208,10137,1,4,0:0:0:0:
368,144,10332,1,0,0:0:0:0:
304,64,10526,2,0,L|240:112,1,70,4|4,0:0|0:0,0:0:0:0:
160,160,10916,5,0,0:0:0:0:
48,144,11111,2,0,L|48:224,1,70
128,240,11500,2,0,L|192:176,1,70,2|2,0:0|0:0,0:0:0:0:
256,128,11890,1,2,0:0:0:0:
368,112,12085,1,2,0:0:0:0:
432,192,12280,1,2,0:0:0:0:
368,288,12474,1,2,0:0:0:0:
288,208,12669,6,0,P|240:272|176:288,1,140,4|8,0:0|0:0,0:0:0:0:
80,224,13254,2,0,B|160:208|160:208|224:176,1,140
160,96,13838,2,0,L|304:96,1,140,8|0,0:0|0:0,0:0:0:0:
384,160,14423,2,0,L|320:208,1,70,0|8,0:0|0:0,0:0:0:0:
208,208,14812,5,2,0:0:0:0:
115,208,15007,1,2,0:0:0:0:
68,127,15202,1,2,0:0:0:0:
115,47,15396,1,10,0:0:0:0:
208,47,15591,1,2,0:0:0:0:
255,128,15786,6,0,P|335:160|367:128,1,140,2|8,0:0|0:0,0:0:0:0:
432,80,16371,2,0,P|468:135|433:191,1,140,2|0,0:0|0:0,0:0:0:0:
368,256,16955,2,0,B|304:192|304:192|256:176,1,140,8|0,0:0|0:0,0:0:0:0:
176,112,17539,5,2,0:0:0:0:
64,160,17734,2,0,L|112:224,1,70,10|2,0:0|0:0,0:0:0:0:
272,160,18124,2,0,L|224:224,1,70,2|2,0:0|0:0,0:0:0:0:
167,263,18513,1,10,0:0:0:0:
272,336,18708,1,0,0:0:0:0:
384,304,18903,6,0,B|416:240|416:240|368:176,1,140,0|8,0:0|0:0,0:0:0:0:
416,80,19487,2,0,P|336:80|288:128,1,140
368,192,20072,2,0,P|296:227|231:204,1,140,8|0,0:0|0:0,0:0:0:0:
160,144,20656,1,0,0:0:0:0:
208,48,20851,1,8,0:0:0:0:
288,112,21046,6,0,L|288:80,1,23.3333333333333,2|0,0:0|0:0,0:0:0:0:
288,112,21241,2,0,L|320:96,1,23.3333333333333,2|0,0:0|0:0,0:0:0:0:
288,112,21436,2,0,L|320:112,1,23.3333333333333,2|0,0:0|0:0,0:0:0:0:
288,112,21630,2,0,L|320:144,1,23.3333333333333,10|0,0:0|0:0,0:0:0:0:
288,112,21825,2,0,L|288:144,1,23.3333333333333,2|0,0:0|0:0,0:0:0:0:
288,112,22020,6,0,B|352:80|352:80|432:80,1,140,0|8,0:0|0:0,0:0:0:0:
416,160,22604,2,0,B|368:176|368:176|368:272,1,140
272,272,23189,2,0,P|272:192|208:176,1,140,8|0,0:0|0:0,0:0:0:0:
176,256,23773,5,2,0:0:0:0:
73,256,23968,1,10,0:0:0:0:
22,167,24163,1,2,0:0:0:0:
73,78,24357,1,2,0:0:0:0:
176,78,24552,1,2,0:0:0:0:
227,167,24747,1,10,0:0:0:0:
288,96,24942,5,0,0:0:0:0:
288,96,25137,2,0,B|352:64|352:64|400:112,1,140,0|8,0:0|0:0,0:0:0:0:
464,192,25721,2,0,P|384:208|336:176,1,140
256,144,26306,2,0,P|176:160|160:224,1,140,8|0,0:0|0:0,0:0:0:0:
208,288,26890,1,0,0:0:0:0:
208,288,27085,1,8,0:0:0:0:
320,288,27280,6,0,L|272:224,2,70,2|2|2,0:0|0:0|0:0,0:0:0:0:
400,352,27864,1,10,0:0:0:0:
464,256,28059,1,2,0:0:0:0:
432,176,28254,6,0,P|368:208|288:208,1,140,2|8,0:0|0:0,0:0:0:0:
256,288,28838,2,0,P|176:272|160:224,1,140
224,160,29423,2,0,B|144:144|144:144|112:96,1,140,8|0,0:0|0:0,0:0:0:0:
192,64,30007,6,0,L|272:80,1,70,2|10,0:0|0:0,0:0:0:0:
260,77,30397,1,2,0:0:0:0:
240,160,30591,1,2,0:0:0:0:
336,240,30786,1,2,0:0:0:0:
464,208,30981,1,10,0:0:0:0:
480,80,31176,1,0,0:0:0:0:
384,64,31371,6,0,P|352:144|304:144,1,140,0|8,0:0|0:0,0:0:0:0:
240,112,31955,2,0,P|160:128|160:176,1,140
208,240,32539,2,0,B|272:192|272:192|336:192,1,140,8|0,0:0|0:0,0:0:0:0:
432,208,33124,2,0,L|432:288,1,70,0|8,0:0|0:0,0:0:0:0:
320,304,33513,5,2,0:0:0:0:
224,304,33708,1,2,0:0:0:0:
176,221,33903,1,2,0:0:0:0:
224,138,34098,1,10,0:0:0:0:
320,138,34293,1,2,0:0:0:0:
368,224,34487,6,0,P|432:192|416:128,1,140,2|8,0:0|0:0,0:0:0:0:
352,80,35072,2,0,P|272:48|224:80,1,140
128,112,35656,2,0,P|176:176|240:176,1,140,8|0,0:0|0:0,0:0:0:0:
256,192,36241,12,4,37604,0:0:0:0:
48,80,37994,6,0,B|96:144|96:144|160:144,1,140,8|0,0:0|0:0,0:0:0:0:
240,64,38578,1,0,0:0:0:0:
352,80,38773,2,0,P|323:154|261:182,1,140,8|0,0:0|0:0,0:0:0:0:
160,208,39358,5,0,0:0:0:0:
64,288,39552,2,0,L|144:304,1,70,8|0,0:0|0:0,0:0:0:0:
256,320,39942,1,0,0:0:0:0:
448,288,40137,2,0,L|368:304,1,70,0|8,0:0|0:0,0:0:0:0:
272,304,40526,5,0,0:0:0:0:
169,304,40721,1,0,0:0:0:0:
118,215,40916,1,0,0:0:0:0:
169,126,41111,1,8,0:0:0:0:
272,126,41306,1,0,0:0:0:0:
323,215,41500,1,0,0:0:0:0:
416,288,41695,5,0,0:0:0:0:
464,176,41890,1,8,0:0:0:0:
384,80,42085,1,0,0:0:0:0:
272,48,42280,2,0,P|208:64|160:128,1,140,0|8,0:0|0:0,0:0:0:0:
80,128,42864,2,0,P|112:192|192:208,1,140
240,144,43448,2,0,B|320:144|320:144|384:96,1,140,8|4,0:0|0:0,0:0:0:0:
448,176,44033,5,0,0:0:0:0:
352,288,44228,2,0,L|432:288,2,70,8|0|0,0:0|0:0|0:0,0:0:0:0:
256,304,44812,1,0,0:0:0:0:
144,272,45007,1,8,0:0:0:0:
80,176,45202,2,0,L|144:128,1,70,0|4,0:0|0:0,0:0:0:0:
256,80,45591,5,0,0:0:0:0:
256,80,45786,1,8,0:0:0:0:
256,80,45981,1,0,0:0:0:0:
256,80,46176,2,0,B|320:144|320:144|384:144,1,140,0|8,0:0|0:0,0:0:0:0:
464,160,46760,6,0,L|448:240,1,70,0|4,0:0|0:0,0:0:0:0:
368,272,47150,1,0,0:0:0:0:
272,160,47345,2,0,L|288:240,1,70,8|0,0:0|0:0,0:0:0:0:
224,304,47734,2,0,P|144:304|112:256,1,140,4|8,0:0|0:0,0:0:0:0:
96,160,48319,2,0,L|176:128,1,70,4|0,0:0|0:0,0:0:0:0:
288,80,48708,5,4,0:0:0:0:
416,224,49098,1,4,0:0:0:0:
219,311,49487,1,4,0:0:0:0:
101,263,49682,1,4,0:0:0:0:
149,146,49877,1,4,0:0:0:0:
266,194,50072,1,4,0:0:0:0:
64,80,56306,6,0,B|128:144|128:144|192:144,1,140,0|8,0:0|0:0,0:0:0:0:
288,112,56890,2,0,P|352:144|336:208,1,140
256,272,57474,2,0,B|176:272|176:272|112:320,1,140,8|0,0:0|0:0,0:0:0:0:
64,224,58059,2,0,L|128:176,1,70,0|8,0:0|0:0,0:0:0:0:
176,112,58448,5,2,0:0:0:0:
230,36,58643,1,2,0:0:0:0:
323,46,58838,1,2,0:0:0:0:
361,131,59033,1,10,0:0:0:0:
306,207,59228,1,2,0:0:0:0:
213,197,59423,6,0,P|160:256|192:272,1,140,2|8,0:0|0:0,0:0:0:0:
288,288,60007,2,0,B|368:288|368:288|416:240,1,140
432,160,60591,2,0,B|352:160|352:160|304:112,1,140,8|0,0:0|0:0,0:0:0:0:
400,80,61176,2,0,L|340:26,1,70,2|2,0:0|0:0,0:0:0:0:
240,48,61565,1,2,0:0:0:0:
144,112,61760,1,2,0:0:0:0:
128,224,61955,1,2,0:0:0:0:
224,304,62150,1,2,0:0:0:0:
416,192,62539,6,0,B|352:160|352:160|272:160,1,140,4|8,0:0|0:0,0:0:0:0:
320,256,63124,2,0,P|240:256|192:208,1,140
80,208,63708,2,0,B|144:144|144:144|192:128,1,140,8|0,0:0|0:0,0:0:0:0:
288,96,64293,6,0,L|368:96,1,70,0|8,0:0|0:0,0:0:0:0:
432,176,64682,2,0,L|362:176,1,70,2|2,0:0|0:0,0:0:0:0:
256,208,65072,2,0,L|320:256,2,70,2|10|2,0:0|0:0|0:0,0:0:0:0:
160,288,65656,6,0,B|96:240|96:240|96:176,1,140,0|8,0:0|0:0,0:0:0:0:
96,96,66241,2,0,B|176:96|176:96|240:64,1,140
229,69,66825,2,0,L|288:112,1,70,8|0,0:0|0:0,0:0:0:0:
368,144,67215,2,0,P|400:208|352:240,1,140,0|10,0:0|0:0,0:0:0:0:
256,272,67799,5,2,0:0:0:0:
144,256,67994,1,2,0:0:0:0:
80,160,68189,1,2,0:0:0:0:
192,160,68384,2,0,L|272:160,1,70,10|2,0:0|0:0,0:0:0:0:
368,176,68773,6,0,P|400:112|352:80,1,140,4|8,0:0|0:0,0:0:0:0:
256,80,69358,2,0,P|176:80|128:112,1,140,4|0,0:0|0:0,0:0:0:0:
64,192,69942,2,0,B|112:256|112:256|176:256,1,140,12|0,0:0|0:0,0:0:0:0:
288,256,70526,1,4,0:0:0:0:
416,80,70916,6,0,L|336:80,1,70,4|4,0:0|0:0,0:0:0:0:
256,112,71306,1,0,0:0:0:0:
208,224,71500,1,8,0:0:0:0:
288,320,71695,1,0,0:0:0:0:
416,272,71890,1,0,0:0:0:0:
384,192,72085,6,0,L|304:192,2,70,0|8|0,0:0|0:0|0:0,0:0:0:0:
416,112,72669,1,0,0:0:0:0:
288,80,72864,1,0,0:0:0:0:
176,144,73059,1,8,0:0:0:0:
96,256,73254,1,4,0:0:0:0:
208,304,73448,2,0,L|288:304,1,70,0|4,0:0|0:0,0:0:0:0:
278,304,73838,5,4,0:0:0:0:
384,256,74098,2,0,L|384:192,2,46.6666666666667,0|4|0,0:0|0:0|0:0,0:0:0:0:
416,128,74617,2,0,B|336:96|336:96|272:96,1,140,4|0,0:0|0:0,0:0:0:0:
256,192,75202,12,0,78124,0:0:0:0:
256,192,103059,12,0,106176,0:0:0:0:
208,224,106955,5,0,0:0:0:0:
103,224,107150,1,0,0:0:0:0:
50,133,107344,1,0,0:0:0:0:
103,42,107539,1,0,0:0:0:0:
208,42,107734,1,0,0:0:0:0:
260,133,107929,1,0,0:0:0:0:
304,240,108124,1,0,0:0:0:0:
416,304,108319,1,0,0:0:0:0:
416,208,108513,6,0,B|416:128|416:128|352:80,1,140
208,132,109293,2,0,B|160:96|160:96|80:96,1,140
64,240,110072,6,0,L|128:288,2,70
112,144,110656,2,0,L|176:192,1,70
224,128,111046,2,0,L|168:86,1,70
288,96,111436,5,0,0:0:0:0:
376,44,111630,1,0,0:0:0:0:
453,113,111825,1,2,0:0:0:0:
411,207,112020,1,2,0:0:0:0:
309,196,112215,1,2,0:0:0:0:
352,128,112410,2,0,B|272:96|272:96|208:96,1,140,2|0,0:0|0:0,0:0:0:0:
112,112,112994,5,0,0:0:0:0:
112,112,113189,1,0,0:0:0:0:
112,112,113384,1,0,0:0:0:0:
96,240,113578,2,0,L|160:288,1,70
240,288,113968,2,0,L|304:240,1,70
432,240,114358,1,0,0:0:0:0:
416,128,114552,5,0,0:0:0:0:
288,112,114747,2,0,B|208:96|208:96|208:96,1,70
64,160,115137,2,0,P|144:192|144:192,1,70
240,208,115526,6,0,L|320:208,2,70
320,288,116111,2,0,L|400:288,2,70
208,304,116695,1,0,0:0:0:0:
96,256,116890,1,0,0:0:0:0:
48,128,117085,1,0,0:0:0:0:
160,48,117280,1,0,0:0:0:0:
304,64,117474,1,0,0:0:0:0:
192,176,117669,5,0,0:0:0:0:
192,176,117864,1,0,0:0:0:0:
288,224,118059,1,0,0:0:0:0:
288,224,118254,1,0,0:0:0:0:
400,192,118448,1,0,0:0:0:0:
400,192,118643,1,0,0:0:0:0:
416,96,118838,2,0,L|336:80,1,70
224,96,119228,6,0,L|160:128,1,70
64,192,119617,2,0,L|128:240,1,70
224,272,120007,1,0,0:0:0:0:
352,320,120202,1,0,0:0:0:0:
432,224,120397,1,0,0:0:0:0:
400,112,120591,1,0,0:0:0:0:
256,64,120786,6,0,L|192:96,1,70
64,128,121176,2,0,B|96:192|96:192|176:192,1,140
272,192,121760,1,0,0:0:0:0:
64,112,124877,6,0,B|144:112|144:112|192:176,1,140,4|0,0:0|0:0,0:0:0:0:
96,208,125461,2,0,P|128:272|208:272,1,140,4|0,0:0|0:0,0:0:0:0:
272,240,126046,1,0,0:0:0:0:
208,128,126241,1,0,0:0:0:0:
272,64,126436,6,0,L|352:64,1,70,4|0,0:0|0:0,0:0:0:0:
384,144,126825,2,0,L|432:208,1,70,4|4,0:0|0:0,0:0:0:0:
368,288,127215,1,0,0:0:0:0:
288,192,127410,2,0,B|208:192|208:192|160:224,1,116.666666666667
256,192,127994,12,0,130721,0:0:0:0:
64,80,131111,6,0,P|128:144|176:128,1,140,4|8,0:0|0:0,0:0:0:0:
256,80,131695,1,0,0:0:0:0:
352,128,131890,2,0,P|416:160|416:224,1,140,0|8,0:0|0:0,0:0:0:0:
336,288,132474,2,0,B|256:288|256:288|192:240,1,140
96,160,133059,5,8,0:0:0:0:
114,66,133254,1,0,0:0:0:0:
209,54,133448,1,0,0:0:0:0:
249,141,133643,1,0,0:0:0:0:
179,206,133838,1,8,0:0:0:0:
64,192,134033,2,0,L|64:272,1,70
160,320,134423,6,0,L|240:320,1,70,0|8,0:0|0:0,0:0:0:0:
336,320,134812,2,0,P|320:272|240:224,1,140
144,224,135397,1,8,0:0:0:0:
64,128,135591,1,0,0:0:0:0:
176,128,135786,6,0,B|256:128|256:128|320:176,1,140,0|8,0:0|0:0,0:0:0:0:
304,48,136371,2,0,P|384:64|400:112,1,140
416,192,136955,2,0,P|432:272|384:288,1,140,8|0,0:0|0:0,0:0:0:0:
288,304,137539,5,0,0:0:0:0:
176,304,137734,2,0,L|96:288,1,70,8|0,0:0|0:0,0:0:0:0:
128,208,138124,2,0,L|208:224,1,70
304,176,138513,2,0,L|240:112,1,70,8|0,0:0|0:0,0:0:0:0:
144,112,138903,1,4,0:0:0:0:
256,48,139098,5,0,0:0:0:0:
384,80,139293,1,8,0:0:0:0:
400,176,139487,1,0,0:0:0:0:
320,272,139682,1,0,0:0:0:0:
144,256,139877,2,0,L|208:192,2,70
64,160,140461,6,0,B|128:112|128:112|208:112,1,140,4|0,0:0|0:0,0:0:0:0:
144,208,141046,1,0,0:0:0:0:
176,288,141241,2,0,B|256:288|256:288|304:240,1,140,4|4,0:0|0:0,0:0:0:0:
368,144,141825,1,4,0:0:0:0:
128,128,142215,5,4,0:0:0:0:
208,256,142605,1,4,0:0:0:0:
368,32,142994,1,4,0:0:0:0:
469,66,143189,1,4,0:0:0:0:
434,168,143384,1,4,0:0:0:0:
333,133,143578,6,0,B|256:112|256:112|176:112,1,140,4|8,0:0|0:0,0:0:0:0:
96,144,144163,2,0,P|82:224|132:226,1,140
208,208,144747,2,0,B|288:192|288:192|336:256,1,140,8|0,0:0|0:0,0:0:0:0:
416,304,145332,5,0,0:0:0:0:
432,176,145526,1,8,0:0:0:0:
304,160,145721,1,2,0:0:0:0:
228,192,145916,1,2,0:0:0:0:
163,142,146111,1,2,0:0:0:0:
173,61,146306,1,10,0:0:0:0:
248,29,146500,1,2,0:0:0:0:
313,79,146695,6,0,B|368:128|368:128|368:208,1,140,0|8,0:0|0:0,0:0:0:0:
256,160,147280,2,0,P|256:240|208:256,1,140
80,256,147864,2,0,B|144:192|144:192|96:144,1,140,8|0,0:0|0:0,0:0:0:0:
176,80,148448,6,0,L|256:80,1,70,2|10,0:0|0:0,0:0:0:0:
352,80,148838,1,2,0:0:0:0:
352,80,149033,1,2,0:0:0:0:
416,176,149228,1,2,0:0:0:0:
416,176,149423,1,10,0:0:0:0:
416,304,149617,1,0,0:0:0:0:
272,304,149812,6,0,B|320:240|320:240|240:240,1,140,0|8,0:0|0:0,0:0:0:0:
192,240,150397,2,0,P|160:304|96:288,1,140
64,208,150981,2,0,B|80:128|80:128|144:128,1,140,8|0,0:0|0:0,0:0:0:0:
256,176,151565,2,0,L|320:240,1,70,0|8,0:0|0:0,0:0:0:0:
231,291,151955,5,2,0:0:0:0:
157,220,152150,1,2,0:0:0:0:
182,120,152344,1,2,0:0:0:0:
280,92,152539,1,10,0:0:0:0:
354,163,152734,1,2,0:0:0:0:
329,263,152929,6,0,B|400:288|400:288|448:224,1,140,2|8,0:0|0:0,0:0:0:0:
416,144,153513,2,0,L|256:144,1,140
176,144,154098,2,0,B|224:80|224:80|160:80,1,140,8|0,0:0|0:0,0:0:0:0:
64,96,154682,6,0,B|80:176|80:176|80:176,1,70,2|10,0:0|0:0,0:0:0:0:
128,256,155072,2,0,L|208:272,2,70,2|2|2,0:0|0:0|0:0,0:0:0:0:
160,160,155656,1,10,0:0:0:0:
272,224,155851,1,0,0:0:0:0:
336,320,156046,6,0,P|416:288|432:224,1,140,4|8,0:0|0:0,0:0:0:0:
320,224,156630,2,0,B|384:176|384:176|384:96,1,140
288,128,157215,2,0,P|222:174|218:239,1,140,8|0,0:0|0:0,0:0:0:0:
160,304,157799,2,0,L|96:272,1,70,0|8,0:0|0:0,0:0:0:0:
80,160,158189,6,0,L|144:112,1,70,2|2,0:0|0:0,0:0:0:0:
256,128,158578,2,0,L|320:192,1,70,2|10,0:0|0:0,0:0:0:0:
240,272,158968,1,2,0:0:0:0:
352,304,159163,6,0,B|400:240|400:240|336:192,1,140,0|8,0:0|0:0,0:0:0:0:
256,256,159747,1,0,0:0:0:0:
144,256,159942,2,0,B|192:192|192:192|208:128,1,140,0|8,0:0|0:0,0:0:0:0:
96,160,160526,1,0,0:0:0:0:
144,48,160721,2,0,B|224:48|224:48|272:96,1,140,0|10,0:0|0:0,0:0:0:0:
368,96,161306,5,2,0:0:0:0:
474,120,161501,1,2,0:0:0:0:
484,229,161696,1,2,0:0:0:0:
383,272,161890,1,10,0:0:0:0:
311,190,162085,1,2,0:0:0:0:
208,128,162280,6,0,B|128:128|128:128|96:192,1,140,4|8,0:0|0:0,0:0:0:0:
192,224,162864,1,0,0:0:0:0:
112,320,163059,2,0,B|192:320|192:320|256:304,1,140,0|12,0:0|0:0,0:0:0:0:
304,240,163643,2,0,L|368:288,1,70
400,160,164033,2,0,B|336:128|336:128|256:128,1,140,4|4,0:0|0:0,0:0:0:0:
267,128,164617,1,4,0:0:0:0:
128,128,164812,1,0,0:0:0:0:
80,224,165007,6,0,L|160:256,1,70,8|0,0:0|0:0,0:0:0:0:
256,256,165397,2,0,L|256:176,2,70,0|0|8,0:0|0:0|0:0,0:0:0:0:
352,320,165981,1,0,0:0:0:0:
448,256,166176,1,0,0:0:0:0:
352,192,166371,2,0,L|416:144,1,70,0|8,0:0|0:0,0:0:0:0:
352,80,166760,6,0,B|288:112|288:112|256:176,1,140,4|4,0:0|0:0,0:0:0:0:
256,176,167345,1,12,0:0:0:0:
128,160,167539,1,0,0:0:0:0:
96,272,167734,1,4,0:0:0:0:
256,176,167929,1,0,0:0:0:0:
240,304,168124,1,4,0:0:0:0:
368,256,168319,1,0,0:0:0:0:
416,160,168513,6,0,B|352:128|352:128|272:144,1,140,4|4,0:0|0:0,0:0:0:0:
208,224,169098,1,4,0:0:0:0:
48,304,169293,1,0,0:0:0:0:
80,160,169487,2,0,L|144:112,1,70,4|4,0:0|0:0,0:0:0:0:
