osu file format v14

[General]
AudioFilename: audio.mp3
AudioLeadIn: 0
PreviewTime: -1
Countdown: 1
SampleSet: Normal
StackLeniency: 0.7
Mode: 0
LetterboxInBreaks: 0
WidescreenStoryboard: 0

[Editor]
Bookmarks: 5932,11449,25306,43953
DistanceSpacing: 1
BeatDivisor: 4
GridSize: 8
TimelineZoom: 1

[Metadata]
Title:Non, Je ne regrete
TitleUnicode:Non, Je ne regrete
Artist:Edith Piaf
ArtistUnicode:Edith Piaf
Creator:sdolnicek
Version:timing
Source:
Tags:french chanson tragic love
BeatmapID:1809059
BeatmapSetID:865145

[Difficulty]
HPDrainRate:5
CircleSize:4
OverallDifficulty:5
ApproachRate:6.5
SliderMultiplier:1.4
SliderTickRate:1

[Events]
//Background and Video events
//Break Periods
//Storyboard Layer 0 (Background)
//Storyboard Layer 1 (Fail)
//Storyboard Layer 2 (Pass)
//Storyboard Layer 3 (Foreground)
//Storyboard Sound Samples

[TimingPoints]
415,705.882352941176,4,1,0,100,1,0
5932,689.655172413793,4,1,0,100,1,0
11449,697.674418604651,4,1,0,100,1,0
19821,689.655172413793,4,1,0,100,1,0
22579,685.714285714286,4,1,0,100,1,0
25306,681.818181818182,4,1,0,100,1,0
33488,697.674418604651,4,1,0,100,1,0
45348,689.655172413793,4,1,0,100,1,0
51554,1111.11111111111,4,1,0,100,1,0
53776,714.285714285714,4,1,0,100,1,0
56633,1034.48275862069,4,1,0,100,1,0
59736,750,4,1,0,100,1,0
62736,701.754385964912,4,1,0,100,1,0
64844,718.562874251497,4,1,0,100,1,0
68432,800,4,1,0,100,1,0
71632,710.085714285713,4,1,0,100,1,0
73762,705.882352941176,4,1,0,100,1,0
76585,750,4,1,0,100,1,0
77331,784.313725490196,4,1,0,100,1,0
78115,1000,4,1,0,100,1,0
81115,697.674418604651,4,1,0,100,1,0
82510,759.493670886076,4,1,0,100,1,0
85547,699.708454810496,4,1,0,100,1,0
99533,666.666666666667,4,1,0,100,1,0
102199,697.674418604651,4,1,0,100,1,0
104989,937.5,4,1,0,100,1,0

[Colours]
Combo1 : 0,128,255
Combo2 : 128,0,128
Combo3 : 0,0,160
Combo4 : 255,0,128

[HitObjects]
176,219,415,5,0,0:0:0:0:
313,222,1120,1,0,0:0:0:0:
418,226,1826,1,0,0:0:0:0:
274,101,2532,1,0,0:0:0:0:
219,208,3238,1,0,0:0:0:0:
315,284,3944,1,0,0:0:0:0:
283,281,4650,1,0,0:0:0:0:
225,281,5356,1,0,0:0:0:0:
225,281,5932,1,0,0:0:0:0:
225,281,6621,1,0,0:0:0:0:
225,281,7311,1,0,0:0:0:0:
225,281,8000,1,0,0:0:0:0:
225,281,8690,1,0,0:0:0:0:
225,281,9380,1,0,0:0:0:0:
225,281,10069,1,0,0:0:0:0:
225,281,10759,1,0,0:0:0:0:
225,281,11449,1,0,0:0:0:0:
225,281,12146,1,0,0:0:0:0:
225,281,12844,1,0,0:0:0:0:
305,282,13542,1,0,0:0:0:0:
208,222,14239,1,0,0:0:0:0:
164,236,14937,1,0,0:0:0:0:
164,236,15635,1,0,0:0:0:0:
164,236,16332,1,0,0:0:0:0:
164,236,17030,1,0,0:0:0:0:
164,236,17728,1,0,0:0:0:0:
164,236,18425,1,0,0:0:0:0:
164,236,19123,1,0,0:0:0:0:
164,236,19821,1,0,0:0:0:0:
164,236,20510,1,0,0:0:0:0:
164,236,21200,1,0,0:0:0:0:
164,236,21889,1,0,0:0:0:0:
164,236,22579,1,0,0:0:0:0:
164,236,23264,1,0,0:0:0:0:
164,236,23950,1,0,0:0:0:0:
164,236,24636,1,0,0:0:0:0:
164,236,25306,1,0,0:0:0:0:
164,236,25987,1,0,0:0:0:0:
164,236,26669,1,0,0:0:0:0:
164,236,27351,1,0,0:0:0:0:
164,236,28033,1,0,0:0:0:0:
164,236,28715,1,0,0:0:0:0:
164,236,29396,1,0,0:0:0:0:
164,236,30078,1,0,0:0:0:0:
164,236,30760,1,0,0:0:0:0:
164,236,31442,1,0,0:0:0:0:
164,236,32124,1,0,0:0:0:0:
164,236,32806,1,0,0:0:0:0:
164,236,33488,1,0,0:0:0:0:
164,236,34185,1,0,0:0:0:0:
164,236,34883,1,0,0:0:0:0:
164,236,35581,1,0,0:0:0:0:
164,236,36278,1,0,0:0:0:0:
164,236,36976,1,0,0:0:0:0:
164,236,37674,1,0,0:0:0:0:
164,236,38371,1,0,0:0:0:0:
164,236,39069,1,0,0:0:0:0:
164,236,39767,1,0,0:0:0:0:
164,236,40464,1,0,0:0:0:0:
164,236,41162,1,0,0:0:0:0:
164,236,41860,1,0,0:0:0:0:
164,236,42557,1,0,0:0:0:0:
164,236,43255,1,0,0:0:0:0:
164,236,43953,1,0,0:0:0:0:
164,236,44650,1,0,0:0:0:0:
164,236,45348,1,0,0:0:0:0:
164,236,46037,1,0,0:0:0:0:
164,236,46727,1,0,0:0:0:0:
164,236,47416,1,0,0:0:0:0:
164,236,48106,1,0,0:0:0:0:
164,236,48796,1,0,0:0:0:0:
164,236,49485,1,0,0:0:0:0:
164,236,50175,1,0,0:0:0:0:
164,236,50865,1,0,0:0:0:0:
164,236,51554,1,0,0:0:0:0:
166,236,52665,1,0,0:0:0:0:
166,236,53776,1,0,0:0:0:0:
166,236,54490,1,0,0:0:0:0:
166,236,55204,1,0,0:0:0:0:
166,236,55918,1,0,0:0:0:0:
166,236,56633,1,0,0:0:0:0:
166,236,57667,1,0,0:0:0:0:
166,236,58701,1,0,0:0:0:0:
166,236,59736,1,0,0:0:0:0:
166,236,60486,1,0,0:0:0:0:
166,236,61236,1,0,0:0:0:0:
166,236,61986,1,0,0:0:0:0:
166,236,62736,1,0,0:0:0:0:
166,236,63437,1,0,0:0:0:0:
166,236,64139,1,0,0:0:0:0:
166,236,64844,1,0,0:0:0:0:
166,236,65562,1,0,0:0:0:0:
166,236,66281,1,0,0:0:0:0:
166,236,66999,1,0,0:0:0:0:
166,236,67718,1,0,0:0:0:0:
166,236,68436,1,0,0:0:0:0:
166,236,69232,1,0,0:0:0:0:
166,236,70032,1,0,0:0:0:0:
166,236,70832,1,0,0:0:0:0:
166,236,71632,1,0,0:0:0:0:
166,236,72342,1,0,0:0:0:0:
166,236,73052,1,0,0:0:0:0:
166,236,73762,1,0,0:0:0:0:
166,236,74467,1,0,0:0:0:0:
166,236,75173,1,0,0:0:0:0:
166,236,75879,1,0,0:0:0:0:
166,236,76585,1,0,0:0:0:0:
166,236,77335,1,0,0:0:0:0:
166,236,78115,1,0,0:0:0:0:
166,236,79115,1,0,0:0:0:0:
166,236,80115,1,0,0:0:0:0:
166,236,81115,1,0,0:0:0:0:
166,236,81812,1,0,0:0:0:0:
166,236,82510,1,0,0:0:0:0:
166,236,83269,1,0,0:0:0:0:
166,236,84028,1,0,0:0:0:0:
151,253,84788,1,0,0:0:0:0:
151,253,85547,1,0,0:0:0:0:
151,253,86246,1,0,0:0:0:0:
151,253,86946,1,0,0:0:0:0:
151,253,87646,1,0,0:0:0:0:
151,253,88345,1,0,0:0:0:0:
151,253,89045,1,0,0:0:0:0:
151,253,89745,1,0,0:0:0:0:
151,253,90444,1,0,0:0:0:0:
151,253,91144,1,0,0:0:0:0:
151,253,91844,1,0,0:0:0:0:
151,253,92544,1,0,0:0:0:0:
151,253,93243,1,0,0:0:0:0:
151,253,93943,1,0,0:0:0:0:
151,253,94643,1,0,0:0:0:0:
151,253,95342,1,0,0:0:0:0:
151,253,96042,1,0,0:0:0:0:
151,253,96742,1,0,0:0:0:0:
151,253,97442,1,0,0:0:0:0:
151,253,98141,1,0,0:0:0:0:
151,253,98841,1,0,0:0:0:0:
151,253,99533,1,0,0:0:0:0:
151,253,100199,1,0,0:0:0:0:
151,253,100866,1,0,0:0:0:0:
151,253,101533,1,0,0:0:0:0:
151,253,102194,1,0,0:0:0:0:
151,253,102896,1,0,0:0:0:0:
151,253,103594,1,0,0:0:0:0:
151,253,104292,1,0,0:0:0:0:
151,253,104989,1,0,0:0:0:0:
151,253,105926,1,0,0:0:0:0:
151,253,106864,1,0,0:0:0:0:
151,253,107801,1,0,0:0:0:0:
