osu file format v14

[General]
AudioFilename: audio.mp3
AudioLeadIn: 0
PreviewTime: -1
Countdown: 0
SampleSet: None
StackLeniency: 0.7
Mode: 0
LetterboxInBreaks: 0
WidescreenStoryboard: 0

[Editor]
DistanceSpacing: 0.1
BeatDivisor: 8
GridSize: 16
TimelineZoom: 1

[Metadata]
Title:Don Craciun (Official Audio Music)
TitleUnicode:Don Craciun (Official Audio Music)
Artist:Edi Grozavu
ArtistUnicode:Edi Grozavu
Creator:razicoaie
Version:Normal
Source:Edi Grozavu
Tags:craciun
BeatmapID:3866218
BeatmapSetID:1878196

[Difficulty]
HPDrainRate:5
CircleSize:5
OverallDifficulty:5
ApproachRate:5
SliderMultiplier:1.1
SliderTickRate:1

[Events]
//Background and Video events
Video,0,"don craciun fara sunet (1).mp4"
//Break Periods
2,48983,50370
2,51770,53092
2,63253,64707
//Storyboard Layer 0 (Background)
//Storyboard Layer 1 (Fail)
//Storyboard Layer 2 (Pass)
//Storyboard Layer 3 (Foreground)
//Storyboard Layer 4 (Overlay)
//Storyboard Sound Samples

[TimingPoints]
0,530.973451327433,4,1,0,100,1,0

[HitObjects]
256,192,8429,12,0,19314,0:0:0:0:
137,88,21172,5,0,0:0:0:0:
238,188,21504,1,0,0:0:0:0:
201,179,22831,2,0,L|266:224,1,68.75
176,187,25353,1,0,0:0:0:0:
290,191,25884,1,0,0:0:0:0:
138,139,27013,1,0,0:0:0:0:
292,235,27676,1,0,0:0:0:0:
263,130,28738,1,0,0:0:0:0:
151,228,30132,1,0,0:0:0:0:
377,241,30464,1,0,0:0:0:0:
261,109,30862,1,0,0:0:0:0:
144,235,32986,1,0,0:0:0:0:
380,304,33318,1,0,0:0:0:0:
309,142,33716,1,0,0:0:0:0:
236,242,34380,1,0,0:0:0:0:
369,227,35176,1,0,0:0:0:0:
172,177,35840,1,0,0:0:0:0:
159,273,36172,1,0,0:0:0:0:
314,170,36570,1,0,0:0:0:0:
185,251,38097,5,0,0:0:0:0:
295,255,38429,1,0,0:0:0:0:
386,245,38761,1,0,0:0:0:0:
448,218,39092,1,0,0:0:0:0:
365,162,39491,1,0,0:0:0:0:
174,183,40486,1,0,0:0:0:0:
286,242,40818,1,0,0:0:0:0:
311,144,41216,1,0,0:0:0:0:
212,171,41615,1,0,0:0:0:0:
314,231,41946,1,0,0:0:0:0:
361,66,42345,1,0,0:0:0:0:
183,178,45132,1,0,0:0:0:0:
324,132,45530,1,0,0:0:0:0:
297,274,45862,1,0,0:0:0:0:
112,197,48783,1,0,0:0:0:0:
253,193,51570,5,0,0:0:0:0:
64,196,54292,6,0,L|353:195,1,288.75
138,244,56615,5,0,0:0:0:0:
185,138,56946,1,0,0:0:0:0:
310,252,57345,1,0,0:0:0:0:
170,248,59269,1,0,0:0:0:0:
263,246,59535,1,0,0:0:0:0:
355,244,59800,1,0,0:0:0:0:
290,126,60199,1,0,0:0:0:0:
145,122,60929,1,0,0:0:0:0:
175,119,62256,1,0,0:0:0:0:
310,208,62654,1,0,0:0:0:0:
305,118,63053,1,0,0:0:0:0:
68,50,65907,5,0,0:0:0:0:
68,50,66902,6,0,L|388:286,1,385
107,89,71615,1,0,0:0:0:0:
303,209,72345,1,0,0:0:0:0:
125,249,73008,1,0,0:0:0:0:
290,135,73738,1,0,0:0:0:0:
115,120,74469,1,0,0:0:0:0:
236,239,75132,1,0,0:0:0:0:
458,102,75862,1,0,0:0:0:0:
283,114,76592,1,0,0:0:0:0:
122,218,77256,1,0,0:0:0:0:
122,218,77455,2,0,P|325:217|325:221,1,316.25
157,131,79446,5,0,0:0:0:0:
236,229,79778,1,0,0:0:0:0:
291,115,80110,1,0,0:0:0:0:
218,207,82300,5,0,0:0:0:0:
259,175,82632,1,0,0:0:0:0:
308,128,83030,1,0,0:0:0:0:
185,137,85154,1,0,0:0:0:0:
225,168,85553,1,0,0:0:0:0:
263,208,85884,1,0,0:0:0:0:
150,167,87345,1,0,0:0:0:0:
169,221,87676,1,0,0:0:0:0:
246,235,88008,1,0,0:0:0:0:
294,164,88407,1,0,0:0:0:0:
203,128,88738,1,0,0:0:0:0:
152,174,89800,5,0,0:0:0:0:
248,186,90132,1,0,0:0:0:0:
354,195,90530,1,0,0:0:0:0:
367,247,90862,1,0,0:0:0:0:
150,113,91261,2,0,L|228:200,1,110
176,146,93517,1,0,0:0:0:0:
240,155,93982,1,0,0:0:0:0:
209,208,94446,1,0,0:0:0:0:
134,131,95442,1,0,0:0:0:0:
297,258,97300,1,0,0:0:0:0:
186,244,98761,5,0,0:0:0:0:
215,174,99026,1,0,0:0:0:0:
279,190,99424,1,0,0:0:0:0:
154,140,101216,5,0,0:0:0:0:
281,202,101548,1,0,0:0:0:0:
206,231,101880,1,0,0:0:0:0:
327,122,102212,1,0,0:0:0:0:
111,220,102942,2,0,L|241:251,1,123.75
124,276,105199,1,0,0:0:0:0:
151,95,105796,1,0,0:0:0:0:
80,195,106526,2,0,L|265:199,1,178.75
207,227,107986,1,0,0:0:0:0:
257,200,109115,1,0,0:0:0:0:
257,200,109446,1,0,0:0:0:0:
257,200,109778,1,0,0:0:0:0:
257,200,110110,1,0,0:0:0:0:
257,200,110508,1,0,0:0:0:0:
257,200,110840,1,0,0:0:0:0:
256,192,111570,12,0,115154,0:0:0:0:
