osu file format v14

[General]
AudioFilename: audio.mp3
AudioLeadIn: 0
PreviewTime: 52651
Countdown: 0
SampleSet: Soft
StackLeniency: 0.3
Mode: 0
LetterboxInBreaks: 0
WidescreenStoryboard: 1

[Editor]
Bookmarks: 8281,22321,23641,39001,54361,69721,79201,87001,102361,117721,133081
DistanceSpacing: 1
BeatDivisor: 8
GridSize: 8
TimelineZoom: 2.100001

[Metadata]
Title:(RE)PLAY
TitleUnicode:(RE)PLAY
Artist:Eden & Trickstar
ArtistUnicode:Eden & Trickstar
Creator:Ascended
Version:YAHURI'S (RE)HARD
Source:あんさんぶるスターズ!!
Tags:Replay what's whats your scenario あんさんぶるスターズ!! -_ascended_- ascended AirinCat Yahuri Otosaka-Yu Suzuki_1112 ensemble stars!! enstars!! es!! enstars es jpop j-pop japanese japan pop jazz male vocals vocal vocalist gacha mobile phone video game videogame games idol seiyuu voice actor va basic music rhythm Eden & Trickstar COVER SONG SERIES 05 frontier works frontierworks happy elements cacalia studio MOMO"mocha"N UTA Daichi Miura 三浦大知 Takuya Sakai 酒井拓也 Arte Refact Jun Sazanami 漣ジュン Yuuma Yuma Yūma Uchida 内田雄馬 Hiyori Tomoe 巴日和 Natsuki Hanae 花江夏樹 Nagisa Ran 乱凪砂 Junichi Jun'ichi Suwabe 諏訪部順一 Ibara Saegusa 七種茨 Ryota Osaka Ryouta Oosaka Ōsaka Ryōta 逢坂良太 Hokuto Hidaka 氷鷹北斗 Tomoaki Maeno 前野智昭 Subaru Akehoshi 明星スバル Tetsuya Kakihara 柿原徹也 Mao Isara 衣更真緒 Kaji Yuuki Yuki 梶裕貴 Makoto Yuuki Yūki 遊木真 Showtarou Shoutarou Shōtarō Morikubo 森久保祥太郎 and
BeatmapID:4427763
BeatmapSetID:2095363

[Difficulty]
HPDrainRate:4
CircleSize:3.5
OverallDifficulty:6
ApproachRate:7.6
SliderMultiplier:1.8
SliderTickRate:1

[Events]
//Background and Video events
0,0,"child soldiers.jpg",0,0
//Break Periods
2,87201,93719
//Storyboard Layer 0 (Background)
//Storyboard Layer 1 (Fail)
//Storyboard Layer 2 (Pass)
//Storyboard Layer 3 (Foreground)
//Storyboard Layer 4 (Overlay)
//Storyboard Sound Samples

[TimingPoints]
601,480,4,2,1,50,1,0
6361,-100,4,2,1,40,0,0
8281,-100,4,2,1,50,0,0
21601,-100,4,2,1,40,0,0
23521,-100,4,2,1,5,0,0
23641,-100,4,2,1,60,0,0
27361,-100,4,2,1,5,0,0
27481,-100,4,2,1,60,0,0
30241,-100,4,2,1,5,0,0
30361,-100,4,2,1,60,0,0
31201,-100,4,2,1,5,0,0
31321,-100,4,2,1,60,0,0
39001,-111.111111111111,4,2,1,40,0,0
46681,-111.111111111111,4,2,1,45,0,0
52441,-90.9090909090909,4,2,1,55,0,0
54361,-90.9090909090909,4,2,1,65,0,1
54721,-90.9090909090909,4,2,1,65,0,0
69721,-90.9090909090909,4,2,1,75,0,1
70441,-90.9090909090909,4,2,1,75,0,0
73561,-90.9090909090909,4,2,1,75,0,1
74281,-90.9090909090909,4,2,1,75,0,0
77401,-90.9090909090909,4,2,1,75,0,1
78121,-90.9090909090909,4,2,1,75,0,0
87001,476.190476190476,4,2,1,50,1,0
87001,-100,4,2,1,75,0,0
89381,489.795918367347,4,2,1,50,1,0
89871,470.588235294118,4,2,1,50,1,0
91301,487.80487804878,4,2,1,50,1,0
91321,-100,4,2,1,50,0,0
91788,480,4,2,1,50,1,0
92761,479.233226837061,4,2,1,50,1,0
98511,483.870967741935,4,2,1,50,1,0
98511,-90.9090909090909,4,2,1,50,0,0
100441,480,4,2,1,50,1,0
102361,480,4,2,1,50,1,0
102361,-90.9090909090909,4,2,1,70,0,1
102721,-90.9090909090909,4,2,1,70,0,0
117721,-90.9090909090909,4,2,1,55,0,1
118081,-90.9090909090909,4,2,1,55,0,0
120481,-90.9090909090909,4,2,1,5,0,0
120601,-90.9090909090909,4,2,1,55,0,0
121921,-90.9090909090909,4,2,1,5,0,0
122041,-90.9090909090909,4,2,1,55,0,0
124801,-90.9090909090909,4,2,1,5,0,0
124921,-90.9090909090909,4,2,1,55,0,0
125401,-90.9090909090909,4,2,1,55,0,1
125761,-90.9090909090909,4,2,1,55,0,0
126112,480,4,2,1,55,1,0
126112,-90.9090909090909,4,2,1,55,0,0
127312,480,4,2,1,50,1,0
127312,-90.9090909090909,4,2,1,50,0,0
128512,472.44094488189,4,2,1,50,1,0
128512,-90.9090909090909,4,2,1,50,0,0
129220,480,4,2,1,50,1,0
129220,-90.9090909090909,4,2,1,55,0,0
129698,-90.9090909090909,4,2,1,50,0,0
132098,470.588235294118,4,2,1,50,1,0
132098,-90.9090909090909,4,2,1,50,0,0
133081,480,4,2,1,50,1,0
133321,-125,4,2,1,35,0,0
134881,-125,4,2,1,5,0,0

[Colours]
Combo1 : 223,32,37
Combo2 : 223,32,128

[HitObjects]
448,30,8281,5,0,3:0:0:0:
448,30,8521,1,0,3:0:0:0:
377,85,8761,2,0,P|310:93|246:73,1,135,8|8,0:0|0:0,0:0:0:0:
234,67,9241,2,0,L|249:246,1,180,0|8,3:0|0:0,0:0:0:0:
317,303,9961,1,0,0:0:0:0:
260,372,10201,5,0,3:0:0:0:
260,372,10441,1,0,3:0:0:0:
191,314,10681,2,0,L|101:306,1,90,8|0,0:0|3:0,0:0:0:0:
87,304,11041,1,8,0:0:0:0:
75,296,11161,2,8,P|79:250|66:207,1,90,0|0,3:0|3:0,0:0:0:0:
38,123,11641,1,8,0:0:0:0:
126,140,11881,6,0,B|214:170|208:93|297:125,1,180,2|0,0:1|3:0,0:0:0:0:
374,174,12601,1,8,0:0:0:0:
450,126,12841,1,0,3:0:0:0:
456,138,12961,1,8,0:0:0:0:
460,150,13081,1,0,3:0:0:0:
438,238,13321,1,0,3:0:0:0:
489,318,13561,5,8,0:0:0:0:
489,318,13801,2,0,L|309:333,1,180,0|0,0:0|3:0,0:0:0:0:
228,371,14521,1,8,0:0:0:0:
236,281,14761,1,0,3:0:0:0:
237,267,14881,1,8,0:0:0:0:
238,254,15001,2,0,P|234:209|214:168,1,90,0|0,3:0|3:0,0:0:0:0:
160,97,15481,1,8,0:0:0:0:
227,37,15721,5,2,0:1:0:0:
239,43,15841,1,8,0:0:0:0:
251,47,15961,1,0,3:0:0:0:
332,8,16201,1,0,3:0:0:0:
417,36,16441,2,0,L|428:170,1,135,8|8,0:0|0:0,0:0:0:0:
429,184,16921,2,0,P|341:193|290:265,1,180,0|8,3:0|0:0,0:0:0:0:
247,343,17641,1,0,0:0:0:0:
160,318,17881,6,0,L|152:228,1,90,0|0,3:0|3:0,0:0:0:0:
118,144,18361,2,0,P|163:140|203:119,1,90,8|0,0:0|3:0,0:0:0:0:
213,112,18721,1,8,0:0:0:0:
224,104,18841,2,0,P|264:84|308:80,1,90,0|0,3:0|3:0,0:0:0:0:
373,143,19321,1,8,0:0:0:0:
293,180,19561,5,2,0:1:0:0:
293,180,19801,2,0,P|221:231|213:319,1,180,0|8,3:0|0:0,0:0:0:0:
289,365,20521,1,0,3:0:0:0:
303,362,20641,1,8,0:0:0:0:
316,359,20761,2,0,L|406:367,1,90,0|0,3:0|3:0,0:0:0:0:
492,345,21241,1,8,0:0:0:0:
467,258,21481,1,0,0:0:0:0:
467,258,21961,2,0,B|472:195|472:195|468:184|468:184|473:124,1,135,2|2,0:3|0:3,0:0:0:0:
473,124,23161,6,0,P|407:133|363:86,1,135,2|0,0:3|0:0,0:0:0:0:
357,61,23641,2,0,L|179:92,1,180,2|8,3:2|0:0,0:0:0:0:
0,76,24601,1,0,0:0:0:0:
12,71,24721,1,0,0:0:0:0:
25,67,24841,2,0,L|16:20,2,45,0|0|8,3:0|0:0|0:0,0:0:0:0:
39,66,25201,1,0,0:0:0:0:
42,155,25441,2,0,P|83:207|109:269,1,135,0|0,0:0|3:0,0:0:0:0:
132,356,26041,1,8,0:0:0:0:
312,322,26521,5,0,0:0:0:0:
312,322,26761,1,0,3:0:0:0:
394,358,27001,2,0,L|417:225,1,135,10|0,0:2|0:0,0:0:0:0:
422,198,27481,2,0,B|328:203|354:131|259:138,1,180,2|8,3:2|0:0,0:0:0:0:
186,86,28201,1,0,0:0:0:0:
134,159,28441,5,0,0:0:0:0:
124,168,28561,2,8,P|78:164|35:177,1,90,0|0,0:0|0:0,0:0:0:0:
26,185,28921,1,8,0:0:0:0:
16,195,29041,1,0,0:0:0:0:
87,250,29281,2,0,P|143:286|188:336,1,135,0|0,0:0|3:0,0:0:0:0:
273,367,29881,2,0,P|319:321|310:257,1,135,10|0,0:0|0:0,0:0:0:0:
295,234,30361,2,0,L|248:243,2,45,2|8|0,0:0|0:0|3:0,0:0:0:0:
343,158,30841,6,0,P|352:92|305:48,1,135,10|0,0:0|0:0,0:0:0:0:
284,31,31321,2,0,L|461:62,1,180,2|8,3:2|0:0,0:0:0:0:
500,189,32161,1,0,0:0:0:0:
492,200,32281,1,0,0:0:0:0:
484,211,32401,2,0,L|468:299,1,90,2|2,0:0|0:0,0:0:0:0:
458,309,32761,1,8,0:0:0:0:
384,361,33001,6,0,P|337:360|296:344,2,90,0|0|2,0:0|3:0|3:2,0:0:0:0:
356,274,33721,1,10,0:2:0:0:
360,261,33841,1,0,0:2:0:0:
322,179,34081,1,2,0:2:0:0:
199,123,34441,5,0,3:0:0:0:
116,159,34681,1,8,0:0:0:0:
47,100,34921,2,0,L|63:12,2,90,0|0|0,0:0|3:0|0:0,0:0:0:0:
30,188,35641,1,8,0:0:0:0:
116,159,35881,2,0,P|202:168|252:239,1,180,0|0,0:0|3:0,0:0:0:0:
245,329,36601,1,8,0:0:0:0:
327,292,36841,1,8,0:3:0:0:
397,348,37081,5,0,3:0:0:0:
477,308,37321,1,0,3:0:0:0:
486,298,37441,1,0,3:0:0:0:
495,288,37561,2,0,L|484:230,1,45,12|0,0:0|3:0,0:0:0:0:
461,111,38041,5,8,0:0:0:0:
374,135,38281,1,0,3:0:0:0:
298,86,38521,1,8,0:3:0:0:
285,82,38641,1,8,0:3:0:0:
273,80,38761,1,4,0:3:0:0:
204,123,39001,6,0,P|239:195|260:273,2,161.999995056153,0|8|0,0:0|0:1|0:0,0:0:0:0:
42,108,40441,1,8,0:1:0:0:
161,217,40921,2,0,P|239:196|311:160,2,161.999995056153,0|8|0,0:0|0:1|0:0,0:0:0:0:
228,364,42361,1,8,0:1:0:0:
309,344,42601,5,0,0:0:0:0:
309,344,42841,2,0,P|357:282|331:207,1,161.999995056153,0|8,0:0|0:1,0:0:0:0:
257,239,43561,1,0,0:0:0:0:
249,248,43681,1,0,0:0:0:0:
241,257,43801,2,0,L|82:229,1,161.999995056153,0|8,0:0|0:1,0:0:0:0:
10,82,44761,2,0,P|71:33|146:59,1,161.999995056153,2|8,0:0|0:1,0:0:0:0:
207,108,45481,1,0,0:0:0:0:
218,103,45601,1,0,0:0:0:0:
229,99,45721,2,0,B|310:84|302:138|385:124,1,161.999995056153,2|8,0:0|0:1,0:0:0:0:
508,229,46681,6,0,P|532:302|483:363,1,161.999995056153,0|8,0:0|0:1,0:0:0:0:
407,336,47401,1,0,0:0:0:0:
399,327,47521,1,0,0:0:0:0:
391,318,47641,2,0,L|311:332,1,80.9999975280763
236,301,48121,2,0,P|235:260|249:223,1,80.9999975280763,8|0,0:1|0:0,0:0:0:0:
308,166,48601,6,0,P|332:92|283:31,1,161.999995056153,0|8,0:0|0:1,0:0:0:0:
208,62,49321,1,0,0:0:0:0:
200,71,49441,1,0,0:0:0:0:
190,79,49561,2,0,L|110:64,1,80.9999975280763
49,14,50041,1,8,0:1:0:0:
0,78,50281,1,0,0:0:0:0:
63,129,50521,6,0,P|77:166|75:206,1,80.9999975280763,2|2,0:0|0:0,0:0:0:0:
45,281,51001,2,0,P|43:321|57:358,1,80.9999975280763,8|0,0:1|0:0,0:0:0:0:
68,365,51361,1,2,0:0:0:0:
78,371,51481,2,0,L|158:356,1,80.9999975280763,0|2,0:0|0:0,0:0:0:0:
190,281,51961,2,0,L|150:273,2,40.4999987640381,8|0|0,0:1|0:0|0:0,0:0:0:0:
289,276,52441,6,0,P|287:303|276:330,2,49.5000015106202,8|8|8,0:0|0:3|0:3,0:0:0:0:
287,261,52801,1,8,0:3:0:0:
283,246,52921,1,8,0:3:0:0:
206,183,53161,1,0,3:0:0:0:
206,163,53281,1,0,3:0:0:0:
211,144,53401,1,8,0:0:0:0:
268,63,53641,1,8,0:3:0:0:
361,96,53881,1,4,0:3:0:0:
386,95,54001,1,4,0:3:0:0:
409,87,54121,1,4,0:3:0:0:
510,180,54361,6,0,L|492:278,1,99.0000030212403,4|0,3:2|0:0,0:0:0:0:
453,308,54721,2,0,L|444:356,2,49.5000015106202,2|8|2,0:3|0:0|0:3,0:0:0:0:
381,239,55201,2,0,P|332:235|287:255,1,99.0000030212403,2|2,0:3|0:3,0:0:0:0:
264,300,55561,1,0,3:0:0:0:
190,366,55801,1,8,0:0:0:0:
100,323,56041,5,2,0:3:0:0:
98,308,56161,1,0,0:3:0:0:
95,293,56281,1,2,3:3:0:0:
14,238,56521,1,0,3:0:0:0:
70,155,56761,1,10,0:0:0:0:
151,213,57001,1,0,0:0:0:0:
207,130,57241,2,0,P|203:81|223:36,1,99.0000030212403,2|0,0:0|3:0,0:0:0:0:
301,99,57721,1,10,0:0:0:0:
314,104,57841,1,0,0:0:0:0:
329,105,57961,1,0,0:0:0:0:
423,74,58201,6,0,L|440:171,1,99.0000030212403,2|0,3:3|0:0,0:0:0:0:
417,215,58561,2,0,P|393:214|368:223,2,49.5000015106202,2|8|2,0:3|0:0|0:3,0:0:0:0:
457,305,59041,2,0,P|412:325|363:321,1,99.0000030212403,2|2,0:3|0:3,0:0:0:0:
316,306,59401,1,0,3:0:0:0:
271,218,59641,5,8,0:0:0:0:
273,203,59761,1,0,0:0:0:0:
276,188,59881,1,2,0:3:0:0:
328,104,60121,1,2,3:3:0:0:
259,32,60361,1,0,3:0:0:0:
170,76,60601,1,10,0:0:0:0:
184,174,60841,1,0,0:0:0:0:
114,244,61081,2,0,P|65:240|20:260,1,99.0000030212403,2|0,0:0|3:0,0:0:0:0:
82,338,61561,1,10,0:0:0:0:
97,340,61681,1,8,0:3:0:0:
110,345,61801,1,8,0:3:0:0:
241,302,62041,6,0,P|221:257|225:208,1,99.0000030212403,4|0,3:2|0:0,0:0:0:0:
257,169,62401,2,0,L|306:177,2,49.5000015106202,2|8|2,0:3|0:0|0:3,0:0:0:0:
250,69,62881,2,0,L|347:86,1,99.0000030212403,2|2,0:3|0:3,0:0:0:0:
394,69,63241,1,0,3:0:0:0:
473,128,63481,1,8,0:0:0:0:
429,216,63721,5,2,0:3:0:0:
427,231,63841,1,0,0:0:0:0:
424,246,63961,1,2,3:3:0:0:
440,342,64201,1,0,3:0:0:0:
342,359,64441,1,10,0:0:0:0:
326,261,64681,1,0,0:0:0:0:
240,211,64921,2,0,P|220:166|224:117,1,99.0000030212403,2|0,0:0|3:0,0:0:0:0:
217,18,65401,1,10,0:0:0:0:
202,19,65521,1,0,0:0:0:0:
189,24,65641,1,0,0:0:0:0:
112,87,65881,6,0,L|129:184,1,99.0000030212403,2|0,3:3|0:0,0:0:0:0:
104,227,66241,2,0,P|80:226|55:235,2,49.5000015106202,2|8|2,0:3|0:0|0:3,0:0:0:0:
154,311,66721,1,0,0:0:0:0:
163,321,66841,1,2,0:0:0:0:
173,331,66961,2,0,L|270:348,1,99.0000030212403,0|2,0:0|0:0,0:0:0:0:
317,332,67321,1,8,0:0:0:0:
411,361,67561,5,8,0:0:0:0:
425,347,67681,1,8,0:3:0:0:
439,333,67801,2,0,L|431:284,3,49.5000015106202,4|4|4|4,0:3|0:3|0:3|0:3,0:0:0:0:
438,265,68281,1,8,0:0:0:0:
446,246,68401,1,0,3:0:0:0:
511,112,68761,6,0,P|467:93|418:96,1,99.0000030212403,10|8,0:0|0:3,0:0:0:0:
340,159,69241,1,4,0:3:0:0:
359,165,69361,1,4,0:3:0:0:
375,176,69481,1,4,0:3:0:0:
434,300,69721,6,0,B|333:277|347:356|246:332,1,198.000006042481,6|8,3:2|0:0,0:0:0:0:
221,326,70321,1,0,0:0:0:0:
199,313,70441,2,0,P|192:265|155:234,1,99.0000030212403,2|0,0:0|0:0,0:0:0:0:
72,180,70921,2,0,P|78:131|115:100,1,99.0000030212403,2|8,3:2|0:0,0:0:0:0:
139,106,71281,1,0,0:0:0:0:
163,111,71401,2,0,L|260:94,1,99.0000030212403,2|0,0:0|3:0,0:0:0:0:
317,12,71881,5,0,3:0:0:0:
398,68,72121,1,10,0:0:0:0:
398,68,72361,1,0,0:0:0:0:
342,150,72601,1,2,0:0:0:0:
342,150,72841,1,0,3:0:0:0:
423,206,73081,1,10,0:0:0:0:
431,229,73201,1,0,0:0:0:0:
433,253,73321,1,0,0:0:0:0:
385,340,73561,6,0,B|315:352|357:181|287:193,1,198.000006042481,2|8,3:2|0:0,0:0:0:0:
263,200,74161,1,0,0:0:0:0:
239,206,74281,2,0,P|191:199|160:162,1,99.0000030212403,2|0,0:0|0:0,0:0:0:0:
81,101,74761,2,0,P|33:109|3:147,1,99.0000030212403,2|8,3:2|0:0,0:0:0:0:
10,171,75121,1,0,0:0:0:0:
16,194,75241,2,0,L|-1:291,1,99.0000030212403,2|0,0:0|3:0,0:0:0:0:
63,367,75721,5,0,3:0:0:0:
145,311,75961,1,10,0:0:0:0:
145,311,76201,1,0,0:0:0:0:
244,342,76441,1,2,0:0:0:0:
244,342,76681,1,0,3:0:0:0:
326,286,76921,5,10,0:0:0:0:
337,264,77041,1,8,0:3:0:0:
344,240,77161,1,4,0:3:0:0:
345,215,77281,1,4,0:3:0:0:
341,191,77401,2,0,P|364:109|435:154,1,198.000006042481,6|8,3:2|0:0,0:0:0:0:
433,180,78001,1,0,0:0:0:0:
430,204,78121,2,0,P|436:251|473:283,1,99.0000030212403,2|0,0:0|0:0,0:0:0:0:
508,376,78601,2,0,L|411:359,1,99.0000030212403,2|8,3:2|0:0,0:0:0:0:
390,344,78961,1,0,0:0:0:0:
369,329,79081,2,0,L|272:346,1,99.0000030212403,2|0,0:0|3:0,0:0:0:0:
182,302,79561,5,0,3:0:0:0:
111,371,79801,1,10,0:0:0:0:
111,371,80041,1,0,0:0:0:0:
21,326,80281,1,2,0:0:0:0:
37,307,80401,2,0,P|57:262|53:213,1,99.0000030212403,0|2,0:0|0:0,0:0:0:0:
44,189,80761,1,8,0:0:0:0:
34,166,80881,2,0,P|82:169|127:149,1,99.0000030212403,0|2,0:0|0:0,0:0:0:0:
166,117,81241,1,0,3:0:0:0:
209,30,81481,1,2,0:0:0:0:
209,30,81721,1,8,0:0:0:0:
281,159,82081,5,0,0:0:0:0:
291,181,82201,2,0,L|274:278,1,99.0000030212403,2|0,0:0|3:0,0:0:0:0:
236,311,82561,2,0,P|212:310|187:319,2,49.5000015106202,2|8|0,0:0|0:0|0:0,0:0:0:0:
317,369,83041,1,2,0:0:0:0:
339,357,83161,2,0,P|387:359|432:339,1,99.0000030212403,0|8,3:0|0:3,0:0:0:0:
450,322,83521,1,4,0:3:0:0:
466,303,83641,1,8,0:3:0:0:
453,204,83881,5,4,0:3:0:0:
457,179,84001,1,0,3:0:0:0:
461,154,84121,2,0,P|484:150|507:137,2,49.5000015106202,2|8|8,0:0|0:0|0:3,0:0:0:0:
454,54,84601,2,0,P|463:31|463:5,2,49.5000015106202,8|8|4,0:0|0:3|0:3,0:0:0:0:
407,70,84961,1,2,3:0:0:0:
322,121,85201,5,0,3:0:0:0:
298,112,85321,2,0,P|248:110|204:130,1,99.0000030212403,8|0,0:0|3:0,0:0:0:0:
177,172,85681,1,4,0:3:0:0:
117,250,85921,1,0,3:0:0:0:
134,267,86041,2,0,L|182:276,3,49.5000015106202,8|8|8|8,0:0|0:3|0:3|0:3,0:0:0:0:
218,309,86521,1,8,0:3:0:0:
241,300,86641,1,8,0:3:0:0:
265,295,86761,1,4,0:3:0:0:
290,295,86881,1,4,0:3:0:0:
314,300,87001,1,4,3:2:0:0:
104,264,94677,6,0,P|175:314|260:293,1,180,4|0,3:2|3:0,0:0:0:0:
318,226,95396,1,2,0:3:0:0:
318,226,95636,2,0,L|334:138,1,90,0|2,3:0|0:3,0:0:0:0:
422,154,96115,2,0,L|406:242,1,90,0|2,3:0|0:3,0:0:0:0:
348,311,96594,6,0,B|254:306|280:378|185:371,1,180,0|0,3:0|3:0,0:0:0:0:
109,332,97313,1,2,0:3:0:0:
109,332,97553,2,0,P|108:285|92:244,1,90,0|2,3:0|0:3,0:0:0:0:
42,171,98032,2,0,P|42:124|58:83,1,90,0|2,3:0|0:3,0:0:0:0:
138,25,98511,5,8,0:0:0:0:
138,25,98752,1,0,3:0:0:0:
228,95,98994,1,8,0:0:0:0:
228,95,99236,1,8,0:0:0:0:
346,66,99478,1,8,0:0:0:0:
346,66,99720,1,8,0:0:0:0:
456,132,99962,2,0,L|488:126,3,33.0000010070801,8|8|8|12,0:3|0:3|0:3|3:2,0:0:0:0:
332,246,101401,5,8,0:0:0:0:
275,327,101641,1,8,0:3:0:0:
182,294,101881,1,4,0:3:0:0:
157,295,102001,1,4,0:3:0:0:
134,303,102121,1,4,0:3:0:0:
36,204,102361,6,0,L|20:105,1,99.0000030212403,4|0,3:2|0:0,0:0:0:0:
29,95,102721,1,2,0:3:0:0:
38,83,102841,2,0,B|139:60|125:139|226:115,1,198.000006042481,10|2,0:0|0:0,0:0:0:0:
240,110,103441,1,2,0:0:0:0:
254,105,103561,1,0,3:0:0:0:
308,22,103801,1,8,0:0:0:0:
398,65,104041,5,2,0:3:0:0:
400,80,104161,1,0,0:3:0:0:
403,95,104281,1,2,3:3:0:0:
484,150,104521,1,0,3:0:0:0:
428,233,104761,1,10,0:0:0:0:
347,175,105001,1,0,0:0:0:0:
291,258,105241,2,0,P|246:278|197:275,1,99.0000030212403,2|0,0:0|3:0,0:0:0:0:
114,329,105721,1,10,0:0:0:0:
100,329,105841,1,0,0:0:0:0:
85,325,105961,1,0,0:0:0:0:
27,244,106201,6,0,P|23:195|44:150,1,99.0000030212403,2|0,3:3|0:0,0:0:0:0:
80,117,106561,2,0,P|104:118|129:109,2,49.5000015106202,2|8|2,0:3|0:0|0:3,0:0:0:0:
40,27,107041,2,0,P|85:7|134:11,1,99.0000030212403,2|2,0:3|0:3,0:0:0:0:
181,26,107401,1,0,3:0:0:0:
226,114,107641,5,8,0:0:0:0:
224,129,107761,1,2,0:2:0:0:
221,144,107881,1,2,0:2:0:0:
219,159,108001,1,2,0:2:0:0:
216,174,108121,1,2,3:2:0:0:
165,260,108361,1,0,3:0:0:0:
232,333,108601,1,10,0:0:0:0:
322,293,108841,1,0,0:0:0:0:
311,201,109081,2,0,P|315:153|343:112,1,99.0000030212403,2|0,0:0|3:0,0:0:0:0:
398,29,109561,1,10,0:0:0:0:
383,27,109681,1,8,0:3:0:0:
370,22,109801,1,8,0:3:0:0:
246,85,110041,6,0,P|266:130|262:179,1,99.0000030212403,4|0,3:2|0:0,0:0:0:0:
257,192,110401,1,2,0:3:0:0:
252,206,110521,2,0,B|240:276|411:234|399:304,1,198.000006042481,10|2,0:0|0:0,0:0:0:0:
396,318,111121,1,2,0:0:0:0:
393,332,111241,1,0,3:0:0:0:
301,368,111481,1,8,0:0:0:0:
213,322,111721,5,2,0:3:0:0:
198,320,111841,1,0,0:0:0:0:
183,317,111961,1,2,3:3:0:0:
102,372,112201,1,0,3:0:0:0:
45,290,112441,1,10,0:0:0:0:
127,234,112681,1,0,0:0:0:0:
70,152,112921,2,0,P|66:103|86:58,1,99.0000030212403,2|0,0:0|3:0,0:0:0:0:
178,21,113401,1,10,0:0:0:0:
192,28,113521,1,0,0:0:0:0:
206,30,113641,1,0,0:0:0:0:
283,92,113881,6,0,L|380:109,1,99.0000030212403,2|0,3:3|0:0,0:0:0:0:
423,84,114241,2,0,P|422:60|431:35,2,49.5000015106202,2|8|2,0:3|0:0|0:3,0:0:0:0:
453,178,114721,1,0,0:0:0:0:
450,192,114841,1,2,0:0:0:0:
447,206,114961,2,0,L|464:303,1,99.0000030212403,0|2,0:0|0:0,0:0:0:0:
449,351,115321,1,8,0:0:0:0:
353,324,115561,5,0,0:0:0:0:
335,332,115681,1,0,0:0:0:0:
317,340,115801,2,0,P|268:344|223:324,1,99.0000030212403,8|0,3:2|0:0,0:0:0:0:
208,310,116161,1,8,0:3:0:0:
193,296,116281,1,8,3:2:0:0:
156,204,116521,1,4,0:3:0:0:
68,278,116761,5,2,3:2:0:0:
87,281,116881,1,4,0:3:0:0:
105,289,117001,1,4,0:3:0:0:
156,374,117241,1,8,0:0:0:0:
237,262,117481,5,0,3:0:0:0:
231,237,117601,1,0,3:0:0:0:
225,212,117721,2,0,L|242:115,1,99.0000030212403,4|8,3:2|0:0,0:0:0:0:
227,66,118081,1,4,3:2:0:0:
367,16,118441,2,0,P|416:18|458:43,1,99.0000030212403,4|8,3:2|0:0,0:0:0:0:
426,178,118921,2,0,B|325:154|339:233|238:210,1,198.000006042481,4|4,3:2|0:3,0:0:0:0:
215,198,119521,1,4,0:3:0:0:
193,186,119641,6,0,P|56:223|163:316,1,346.500010574341,4|0,3:2|0:0,0:0:0:0:
210,299,120601,1,8,0:0:0:0:
332,365,120841,1,4,3:2:0:0:
377,277,121081,1,8,0:3:0:0:
376,252,121201,1,8,0:3:0:0:
386,230,121321,1,4,0:3:0:0:
494,143,121561,6,0,L|347:117,1,148.50000453186,4|0,3:2|0:0,0:0:0:0:
301,134,122041,1,4,0:3:0:0:
232,62,122281,1,8,0:0:0:0:
146,111,122521,1,4,0:3:0:0:
77,39,122761,2,0,P|89:27|107:20,2,33.0000010070801,8|8|8,0:0|0:3|0:3,0:0:0:0:
51,60,123001,2,0,P|27:61|2:52,3,49.5000015106202,0|0|8|4,3:0|3:0|0:3|3:2,0:0:0:0:
3,52,124441,6,0,L|29:198,1,148.50000453186,4|0,3:2|0:0,0:0:0:0:
15,246,124921,2,0,P|62:243|100:275,1,99.0000030212403,4|8,3:2|0:0,0:0:0:0:
107,298,125281,1,8,0:0:0:0:
115,321,125401,6,0,L|211:338,1,99.0000030212403,4|8,3:2|0:0,0:0:0:0:
260,325,125761,1,4,3:2:0:0:
387,247,126112,2,0,P|383:295|415:331,1,99.0000030212403,4|0,3:2|3:0,0:0:0:0:
437,343,126472,1,8,0:0:0:0:
461,349,126592,1,0,3:0:0:0:
503,217,126832,5,0,3:0:0:0:
498,192,126952,1,0,3:0:0:0:
494,168,127072,1,8,0:3:0:0:
490,143,127192,1,8,0:3:0:0:
485,119,127312,2,0,P|436:123|391:103,1,99.0000030212403,4|0,3:2|0:0,0:0:0:0:
373,86,127672,1,8,0:0:0:0:
361,64,127792,1,8,0:0:0:0:
284,1,128032,1,0,3:0:0:0:
159,61,128272,5,8,0:3:0:0:
135,68,128392,1,4,0:3:0:0:
110,66,128512,2,0,P|26:107|35:199,1,198.000006042481,4|4,3:2|0:3,0:0:0:0:
54,215,129102,1,4,0:3:0:0:
77,223,129220,2,0,B|147:211|105:382|175:370,1,198.000006042481,4|8,3:2|0:3,0:0:0:0:
195,357,129820,1,8,0:3:0:0:
218,350,129940,1,4,0:3:0:0:
243,348,130060,1,4,0:3:0:0:
267,352,130180,1,8,0:0:0:0:
402,291,130540,5,4,3:2:0:0:
436,156,130780,1,4,3:2:0:0:
330,245,131020,2,0,B|251:272|93:216|205:133|233:207,1,247.500007553101,4|0,3:2|3:0,0:0:0:0:
133,317,131980,1,0,3:0:0:0:
110,305,132098,1,0,3:0:0:0:
39,236,132333,1,8,0:0:0:0:
45,212,132450,1,8,0:0:0:0:
51,188,132568,2,0,L|2:197,2,49.5000015106202,8|8|8,0:0|0:0|0:0,0:0:0:0:
57,164,132921,1,4,3:2:0:0:
57,164,133321,6,0,B|163:182|163:182|193:162|193:162|264:175|264:175|294:156|294:156|365:168|365:168|395:148|395:148|466:161|466:161|494:139,1,468,2|2,0:3|0:3,0:0:0:0:
