osu file format v14

[General]
AudioFilename: audio.mp3
AudioLeadIn: 0
PreviewTime: 52651
Countdown: 0
SampleSet: Soft
StackLeniency: 0.2
Mode: 0
LetterboxInBreaks: 0
WidescreenStoryboard: 1

[Editor]
DistanceSpacing: 6
BeatDivisor: 8
GridSize: 16
TimelineZoom: 2.400001

[Metadata]
Title:(RE)PLAY
TitleUnicode:(RE)PLAY
Artist:Eden & Trickstar
ArtistUnicode:Eden & Trickstar
Creator:Ascended
Version:OTOSAKA'S (RE)EXTRA
Source:あんさんぶるスターズ!!
Tags:Replay what's whats your scenario あんさんぶるスターズ!! -_ascended_- ascended AirinCat Yahuri Otosaka-Yu Suzuki_1112 ensemble stars!! enstars!! es!! enstars es jpop j-pop japanese japan pop jazz male vocals vocal vocalist gacha mobile phone video game videogame games idol seiyuu voice actor va basic music rhythm Eden & Trickstar COVER SONG SERIES 05 frontier works frontierworks happy elements cacalia studio MOMO"mocha"N UTA Daichi Miura 三浦大知 Takuya Sakai 酒井拓也 Arte Refact Jun Sazanami 漣ジュン Yuuma Yuma Yūma Uchida 内田雄馬 Hiyori Tomoe 巴日和 Natsuki Hanae 花江夏樹 Nagisa Ran 乱凪砂 Junichi Jun'ichi Suwabe 諏訪部順一 Ibara Saegusa 七種茨 Ryota Osaka Ryouta Oosaka Ōsaka Ryōta 逢坂良太 Hokuto Hidaka 氷鷹北斗 Tomoaki Maeno 前野智昭 Subaru Akehoshi 明星スバル Tetsuya Kakihara 柿原徹也 Mao Isara 衣更真緒 Kaji Yuuki Yuki 梶裕貴 Makoto Yuuki Yūki 遊木真 Showtarou Shoutarou Shōtarō Morikubo 森久保祥太郎 and
BeatmapID:4455056
BeatmapSetID:2095363

[Difficulty]
HPDrainRate:5
CircleSize:4.3
OverallDifficulty:8
ApproachRate:9.3
SliderMultiplier:2.7
SliderTickRate:1

[Events]
//Background and Video events
0,0,"otosakage.jpg",0,0
//Break Periods
//Storyboard Layer 0 (Background)
//Storyboard Layer 1 (Fail)
//Storyboard Layer 2 (Pass)
//Storyboard Layer 3 (Foreground)
//Storyboard Layer 4 (Overlay)
//Storyboard Sound Samples

[TimingPoints]
601,480,4,2,1,50,1,0
6361,-100,4,2,1,40,0,0
8041,-66.6666666666667,4,2,1,40,0,0
8281,-100,4,2,1,50,0,0
11881,-66.6666666666667,4,2,1,50,0,0
12061,-66.6666666666667,4,2,1,5,0,0
12121,-100,4,2,1,50,0,0
15721,-66.6666666666667,4,2,1,50,0,0
15901,-66.6666666666667,4,2,1,5,0,0
15961,-100,4,2,1,50,0,0
19561,-66.6666666666667,4,2,1,50,0,0
19741,-66.6666666666667,4,2,1,5,0,0
19801,-100,4,2,1,50,0,0
21601,-100,4,2,1,40,0,0
21961,-133.333333333333,4,2,1,40,0,0
23161,-66.6666666666667,4,2,1,40,0,0
23641,-76.9230769230769,4,2,1,40,0,0
24601,-76.9230769230769,4,2,1,60,0,0
24900,-76.9230769230769,4,2,1,5,0,0
24961,-76.9230769230769,4,2,1,60,0,0
25500,-76.9230769230769,4,2,1,5,0,0
25561,-76.9230769230769,4,2,1,60,0,0
27001,-100,4,2,1,60,0,0
27181,-100,4,2,1,5,0,0
27241,-100,4,2,1,60,0,0
27421,-100,4,2,1,5,0,0
27481,-100,4,2,1,60,0,0
28081,-83.3333333333333,4,2,1,60,0,0
28321,-71.4285714285714,4,2,1,60,0,0
28500,-71.4285714285714,4,2,1,5,0,0
28561,-71.4285714285714,4,2,1,60,0,0
29041,-66.6666666666667,4,2,1,60,0,0
29401,-100,4,2,1,60,0,0
29881,-133.333333333333,4,2,1,60,0,0
30361,-200,4,2,1,60,0,0
30841,-100,4,2,1,60,0,0
31021,-100,4,2,1,5,0,0
31081,-100,4,2,1,60,0,0
31141,-100,4,2,1,5,0,0
31201,-100,4,2,1,60,0,0
31261,-100,4,2,1,5,0,0
31321,-66.6666666666667,4,2,1,60,0,0
32281,-76.9230769230769,4,2,1,60,0,0
32341,-76.9230769230769,4,2,1,5,0,0
32401,-76.9230769230769,4,2,1,60,0,0
32701,-76.9230769230769,4,2,1,5,0,0
32761,-76.9230769230769,4,2,1,60,0,0
33420,-76.9230769230769,4,2,1,5,0,0
33481,-76.9230769230769,4,2,1,60,0,0
33660,-76.9230769230769,4,2,1,5,0,0
33721,-76.9230769230769,4,2,1,60,0,0
36361,-66.6666666666667,4,2,1,60,0,0
36421,-66.6666666666667,4,2,1,5,0,0
36481,-66.6666666666667,4,2,1,60,0,0
36781,-66.6666666666667,4,2,1,5,0,0
36841,-66.6666666666667,4,2,1,60,0,0
37681,-58.8235294117647,4,2,1,60,0,0
38761,-100,4,2,1,60,0,0
39001,-133.333333333333,4,2,1,40,0,0
44761,-100,4,2,1,40,0,0
46201,-66.6666666666667,4,2,1,40,0,0
46681,-100,4,2,1,45,0,0
52441,-50,4,2,1,55,0,0
53161,-66.6666666666667,4,2,1,55,0,0
53881,-58.8235294117647,4,2,1,55,0,0
54361,-66.6666666666667,4,2,1,65,0,0
54540,-66.6666666666667,4,2,1,5,0,0
54601,-66.6666666666667,4,2,1,65,0,0
54780,-66.6666666666667,4,2,1,5,0,0
54841,-66.6666666666667,4,2,1,65,0,0
55380,-66.6666666666667,4,2,1,5,0,0
55441,-66.6666666666667,4,2,1,65,0,0
55740,-66.6666666666667,4,2,1,5,0,0
55801,-66.6666666666667,4,2,1,65,0,0
56220,-66.6666666666667,4,2,1,5,0,0
56281,-66.6666666666667,4,2,1,65,0,0
56460,-66.6666666666667,4,2,1,5,0,0
56521,-66.6666666666667,4,2,1,65,0,0
56581,-66.6666666666667,4,2,1,5,0,0
56641,-66.6666666666667,4,2,1,65,0,0
56701,-66.6666666666667,4,2,1,5,0,0
56761,-66.6666666666667,4,2,1,65,0,0
56940,-66.6666666666667,4,2,1,5,0,0
57001,-66.6666666666667,4,2,1,65,0,0
57900,-66.6666666666667,4,2,1,5,0,0
57961,-66.6666666666667,4,2,1,65,0,0
59220,-66.6666666666667,4,2,1,5,0,0
59281,-66.6666666666667,4,2,1,65,0,0
60300,-66.6666666666667,4,2,1,5,0,0
60361,-66.6666666666667,4,2,1,65,0,0
60420,-66.6666666666667,4,2,1,5,0,0
60481,-66.6666666666667,4,2,1,65,0,0
60540,-66.6666666666667,4,2,1,5,0,0
60601,-66.6666666666667,4,2,1,65,0,0
60780,-66.6666666666667,4,2,1,5,0,0
60841,-66.6666666666667,4,2,1,65,0,0
61620,-66.6666666666667,4,2,1,5,0,0
61681,-66.6666666666667,4,2,1,65,0,0
61740,-66.6666666666667,4,2,1,5,0,0
61801,-100,4,2,1,65,0,0
62041,-66.6666666666667,4,2,1,65,0,0
62340,-66.6666666666667,4,2,1,5,0,0
62401,-66.6666666666667,4,2,1,65,0,0
63780,-66.6666666666667,4,2,1,5,0,0
63841,-66.6666666666667,4,2,1,65,0,0
63900,-66.6666666666667,4,2,1,5,0,0
63961,-66.6666666666667,4,2,1,65,0,0
64261,-66.6666666666667,4,2,1,5,0,0
64321,-66.6666666666667,4,2,1,65,0,0
64381,-66.6666666666667,4,2,1,5,0,0
64441,-66.6666666666667,4,2,1,65,0,0
64620,-66.6666666666667,4,2,1,5,0,0
64681,-66.6666666666667,4,2,1,65,0,0
65340,-66.6666666666667,4,2,1,5,0,0
65401,-66.6666666666667,4,2,1,65,0,0
65461,-66.6666666666667,4,2,1,5,0,0
65521,-66.6666666666667,4,2,1,65,0,0
66300,-66.6666666666667,4,2,1,5,0,0
66361,-66.6666666666667,4,2,1,65,0,0
66900,-66.6666666666667,4,2,1,5,0,0
66961,-66.6666666666667,4,2,1,65,0,0
67260,-66.6666666666667,4,2,1,5,0,0
67321,-66.6666666666667,4,2,1,65,0,0
67740,-66.6666666666667,4,2,1,5,0,0
67801,-66.6666666666667,4,2,1,65,0,0
68281,-200,4,2,1,65,0,0
68700,-200,4,2,1,5,0,0
68761,-50,4,2,1,65,0,0
69721,-66.6666666666667,4,2,1,75,0,0
70501,-66.6666666666667,4,2,1,5,0,0
70561,-66.6666666666667,4,2,1,75,0,0
71341,-66.6666666666667,4,2,1,5,0,0
71401,-66.6666666666667,4,2,1,75,0,0
71521,-66.6666666666667,4,2,1,75,0,0
71821,-66.6666666666667,4,2,1,5,0,0
71881,-66.6666666666667,4,2,1,75,0,0
71941,-66.6666666666667,4,2,1,5,0,0
72001,-66.6666666666667,4,2,1,75,0,0
72061,-66.6666666666667,4,2,1,5,0,0
72121,-66.6666666666667,4,2,1,75,0,0
73021,-66.6666666666667,4,2,1,5,0,0
73081,-66.6666666666667,4,2,1,75,0,0
73141,-66.6666666666667,4,2,1,5,0,0
73201,-66.6666666666667,4,2,1,75,0,0
73261,-66.6666666666667,4,2,1,5,0,0
73321,-66.6666666666667,4,2,1,75,0,0
74341,-66.6666666666667,4,2,1,5,0,0
74401,-66.6666666666667,4,2,1,75,0,0
75181,-66.6666666666667,4,2,1,5,0,0
75241,-66.6666666666667,4,2,1,75,0,0
75661,-66.6666666666667,4,2,1,5,0,0
75721,-66.6666666666667,4,2,1,75,0,0
75781,-66.6666666666667,4,2,1,5,0,0
75841,-66.6666666666667,4,2,1,75,0,0
75901,-66.6666666666667,4,2,1,5,0,0
75961,-66.6666666666667,4,2,1,75,0,0
76861,-66.6666666666667,4,2,1,5,0,0
76921,-66.6666666666667,4,2,1,75,0,0
76981,-66.6666666666667,4,2,1,5,0,0
77041,-133.333333333333,4,2,1,75,0,0
77101,-133.333333333333,4,2,1,5,0,0
77161,-133.333333333333,4,2,1,75,0,0
77221,-133.333333333333,4,2,1,5,0,0
77281,-133.333333333333,4,2,1,75,0,0
77341,-133.333333333333,4,2,1,5,0,0
77401,-66.6666666666667,4,2,1,75,0,0
78181,-66.6666666666667,4,2,1,5,0,0
78241,-66.6666666666667,4,2,1,75,0,0
78901,-66.6666666666667,4,2,1,5,0,0
78961,-66.6666666666667,4,2,1,75,0,0
79621,-66.6666666666667,4,2,1,5,0,0
79681,-66.6666666666667,4,2,1,75,0,0
79741,-66.6666666666667,4,2,1,5,0,0
79801,-66.6666666666667,4,2,1,75,0,0
79981,-66.6666666666667,4,2,1,5,0,0
80041,-66.6666666666667,4,2,1,75,0,0
80341,-66.6666666666667,4,2,1,5,0,0
80401,-66.6666666666667,4,2,1,75,0,0
82860,-66.6666666666667,4,2,1,5,0,0
82921,-66.6666666666667,4,2,1,75,0,0
83161,-55.5555555555556,4,2,1,75,0,0
84540,-55.5555555555556,4,2,1,5,0,0
84601,-55.5555555555556,4,2,1,75,0,0
84780,-55.5555555555556,4,2,1,5,0,0
84841,-55.5555555555556,4,2,1,75,0,0
84900,-55.5555555555556,4,2,1,5,0,0
84961,-55.5555555555556,4,2,1,75,0,0
85921,-66.6666666666667,4,2,1,75,0,0
87001,476.190476190476,4,2,1,50,1,0
87001,-100,4,2,1,50,0,0
89262,-58.8235294117647,4,2,1,50,0,0
89341,-58.8235294117647,4,2,1,5,0,0
89381,489.795918367347,4,2,1,50,1,0
89401,-58.8235294117647,4,2,1,50,0,0
89625,-58.8235294117647,4,2,1,50,0,0
89871,470.588235294118,4,2,1,50,1,0
89988,-133.333333333333,4,2,1,50,0,0
91301,487.80487804878,4,2,1,50,1,0
91301,-58.8235294117647,4,2,1,50,0,0
91788,480,4,2,1,50,1,0
91788,-100,4,2,1,50,0,0
92148,-71.4285714285714,4,2,1,50,0,0
92761,479.233226837061,4,2,1,50,1,0
92821,-71.4285714285714,4,2,1,5,0,0
92881,-62.5,4,2,1,50,0,0
93361,-100,4,2,1,50,0,0
93661,-100,4,2,1,5,0,0
93719,-66.6666666666667,4,2,1,50,0,0
95157,-100,4,2,1,50,0,0
95636,-76.9230769230769,4,2,1,50,0,0
96594,-50,4,2,1,50,0,0
98272,-66.6666666666667,4,2,1,50,0,0
98511,483.870967741935,4,2,1,50,1,0
98511,-66.6666666666667,4,2,1,50,0,0
100325,-48.661800486618,4,2,1,50,0,0
100441,480,4,2,1,50,1,0
100681,-33.3333333333333,4,2,1,50,0,0
100921,-50,4,2,1,50,0,0
100981,-50,4,2,1,5,0,0
101041,-50,4,2,1,50,0,0
101101,-50,4,2,1,5,0,0
101161,-50,4,2,1,50,0,0
101881,-58.8235294117647,4,2,1,50,0,0
102361,480,4,2,1,50,1,0
102361,-66.6666666666667,4,2,1,70,0,0
102780,-66.6666666666667,4,2,1,5,0,0
102841,-66.6666666666667,4,2,1,70,0,0
103261,-66.6666666666667,4,2,1,5,0,0
103321,-66.6666666666667,4,2,1,70,0,0
103381,-66.6666666666667,4,2,1,5,0,0
103441,-66.6666666666667,4,2,1,70,0,0
103980,-66.6666666666667,4,2,1,5,0,0
104041,-66.6666666666667,4,2,1,70,0,0
104581,-66.6666666666667,4,2,1,5,0,0
104641,-66.6666666666667,4,2,1,70,0,0
104701,-66.6666666666667,4,2,1,5,0,0
104761,-66.6666666666667,4,2,1,70,0,0
104940,-66.6666666666667,4,2,1,5,0,0
105001,-66.6666666666667,4,2,1,70,0,0
105780,-66.6666666666667,4,2,1,5,0,0
105841,-66.6666666666667,4,2,1,70,0,0
106980,-66.6666666666667,4,2,1,5,0,0
107041,-66.6666666666667,4,2,1,70,0,0
107220,-66.6666666666667,4,2,1,5,0,0
107281,-66.6666666666667,4,2,1,70,0,0
107821,-66.6666666666667,4,2,1,5,0,0
107881,-66.6666666666667,4,2,1,70,0,0
107940,-66.6666666666667,4,2,1,5,0,0
108001,-66.6666666666667,4,2,1,70,0,0
108060,-66.6666666666667,4,2,1,5,0,0
108121,-66.6666666666667,4,2,1,70,0,0
108180,-66.6666666666667,4,2,1,5,0,0
108361,-66.6666666666667,4,2,1,70,0,0
108420,-66.6666666666667,4,2,1,5,0,0
108481,-66.6666666666667,4,2,1,70,0,0
108540,-66.6666666666667,4,2,1,5,0,0
108601,-66.6666666666667,4,2,1,70,0,0
108780,-66.6666666666667,4,2,1,5,0,0
108841,-66.6666666666667,4,2,1,70,0,0
109020,-66.6666666666667,4,2,1,5,0,0
109081,-66.6666666666667,4,2,1,70,0,0
109620,-66.6666666666667,4,2,1,5,0,0
109681,-66.6666666666667,4,2,1,70,0,0
109740,-66.6666666666667,4,2,1,5,0,0
109801,-100,4,2,1,70,0,0
110041,-66.6666666666667,4,2,1,70,0,0
110941,-66.6666666666667,4,2,1,5,0,0
111001,-66.6666666666667,4,2,1,70,0,0
111060,-66.6666666666667,4,2,1,5,0,0
111121,-66.6666666666667,4,2,1,70,0,0
111660,-66.6666666666667,4,2,1,5,0,0
111721,-66.6666666666667,4,2,1,70,0,0
111900,-66.6666666666667,4,2,1,5,0,0
111961,-66.6666666666667,4,2,1,70,0,0
112140,-66.6666666666667,4,2,1,5,0,0
112201,-66.6666666666667,4,2,1,70,0,0
112261,-66.6666666666667,4,2,1,5,0,0
112321,-66.6666666666667,4,2,1,70,0,0
112381,-66.6666666666667,4,2,1,5,0,0
112441,-66.6666666666667,4,2,1,70,0,0
112620,-66.6666666666667,4,2,1,5,0,0
112681,-66.6666666666667,4,2,1,70,0,0
113340,-66.6666666666667,4,2,1,5,0,0
113401,-66.6666666666667,4,2,1,70,0,0
113461,-66.6666666666667,4,2,1,5,0,0
113521,-66.6666666666667,4,2,1,70,0,0
114300,-66.6666666666667,4,2,1,5,0,0
114361,-66.6666666666667,4,2,1,70,0,0
114781,-66.6666666666667,4,2,1,5,0,0
114841,-66.6666666666667,4,2,1,70,0,0
114900,-66.6666666666667,4,2,1,5,0,0
114961,-66.6666666666667,4,2,1,70,0,0
115860,-66.6666666666667,4,2,1,5,0,0
116041,-66.6666666666667,4,2,1,70,0,0
116281,-200,4,2,1,70,0,0
116700,-200,4,2,1,5,0,0
116761,-50,4,2,1,70,0,0
116821,-50,4,2,1,5,0,0
116881,-50,4,2,1,70,0,0
116941,-50,4,2,1,5,0,0
117001,-50,4,2,1,70,0,0
117420,-50,4,2,1,5,0,0
117481,-50,4,2,1,70,0,0
117601,-50,4,2,1,70,0,0
117721,-50,4,2,1,55,0,0
117900,-50,4,2,1,5,0,0
117961,-50,4,2,1,55,0,0
118020,-50,4,2,1,5,0,0
118081,-50,4,2,1,55,0,0
118140,-50,4,2,1,5,0,0
118201,-50,4,2,1,55,0,0
119641,-100,4,2,1,55,0,0
120841,-50,4,2,1,55,0,0
121020,-50,4,2,1,5,0,0
121081,-50,4,2,1,55,0,0
121201,-100,4,2,1,55,0,0
122041,-133.333333333333,4,2,1,55,0,0
122521,-66.6666666666667,4,2,1,55,0,0
123361,-50,4,2,1,55,0,0
123721,-333.333333333333,4,2,1,55,0,0
124441,-58.8235294117647,4,2,1,55,0,0
125461,-58.8235294117647,4,2,1,5,0,0
125521,-58.8235294117647,4,2,1,55,0,0
125581,-58.8235294117647,4,2,1,5,0,0
125641,-58.8235294117647,4,2,1,55,0,0
125701,-58.8235294117647,4,2,1,5,0,0
125761,-58.8235294117647,4,2,1,55,0,0
126112,480,4,2,1,55,1,0
126112,-58.8235294117647,4,2,1,55,0,0
127312,480,4,2,1,50,1,0
127312,-58.8235294117647,4,2,1,50,0,0
127792,-52.6315789473684,4,2,1,55,0,0
128512,472.44094488189,4,2,1,50,1,0
128512,-76.9230769230769,4,2,1,55,0,0
128984,-133.333333333333,4,2,1,55,0,0
129220,480,4,2,1,50,1,0
130118,-100,4,2,1,5,0,0
130178,-50,4,2,1,55,0,0
130238,-50,4,2,1,5,0,0
130298,-50,4,2,1,55,0,0
130598,-50,4,2,1,5,0,0
130778,-50,4,2,1,55,0,0
130838,-50,4,2,1,5,0,0
131018,-100,4,2,1,55,0,0
132098,470.588235294118,4,2,1,50,1,0
132921,-50,4,2,1,55,0,0
133081,480,4,2,1,50,1,0
133321,-100,4,2,1,34,0,0
134761,-50,4,2,1,34,0,0
134821,-50,4,2,1,5,0,0

[Colours]
Combo1 : 241,159,78
Combo2 : 239,198,152

[HitObjects]
32,192,601,5,4,3:0:0:0:
57,265,841,1,4,3:0:0:0:
93,119,1081,1,8,3:2:0:0:
112,192,1321,2,0,L|208:192,1,67.5,0|8,3:0|3:2,0:0:0:0:
257,244,1561,2,0,P|265:278|257:308,1,67.5,4|4,3:0|3:0,0:0:0:0:
255,18,1801,6,0,P|239:50|255:146,1,135,4|8,3:0|3:2,0:0:0:0:
253,144,2281,1,8,3:2:0:0:
313,82,2401,1,8,3:2:0:0:
191,81,2521,6,0,B|107:63|147:127|36:90,2,135,4|4|8,3:0|3:0|3:2,0:0:0:0:
148,271,3241,1,0,3:0:0:0:
143,300,3361,1,8,3:2:0:0:
74,280,3481,1,4,3:0:0:0:
69,309,3601,1,4,3:0:0:0:
219,260,3721,6,0,P|176:261|149:150,1,135,4|8,3:0|3:2,0:0:0:0:
305,258,4201,2,0,L|398:248,1,67.5,8|8,3:2|3:2,0:0:0:0:
480,192,4441,5,4,3:0:0:0:
455,265,4681,1,4,3:0:0:0:
419,119,4921,1,8,3:2:0:0:
400,192,5161,2,0,L|304:192,1,67.5,0|8,3:0|3:2,0:0:0:0:
255,244,5401,2,0,P|247:278|255:308,1,67.5,4|4,3:0|3:0,0:0:0:0:
257,18,5641,6,0,P|273:50|257:146,1,135,4|8,3:0|3:2,0:0:0:0:
259,144,6121,1,8,3:2:0:0:
195,82,6241,1,8,3:2:0:0:
321,81,6361,6,0,B|424:97|424:97|474:79,1,135,2|2,2:3|2:3,0:0:0:0:
452,86,6841,2,0,B|349:70|349:70|299:88,1,135,2|2,2:3|2:3,0:0:0:0:
512,14,7201,1,2,2:3:0:0:
452,86,7321,6,0,L|434:12,1,67.5,2|2,2:3|2:3,0:0:0:0:
428,4,7561,6,0,L|405:175,1,135,2|2,2:3|2:3,0:0:0:0:
395,147,8041,6,0,B|425:161|425:161|494:150,1,101.250003862381,2|0,2:3|0:0,0:0:0:0:
492,150,8281,6,0,P|474:225|507:284,1,135,0|0,3:0|3:0,0:0:0:0:
431,369,8761,1,8,2:0:0:0:
359,280,9001,5,0,3:0:0:0:
393,291,9121,1,8,2:0:0:0:
429,294,9241,1,0,3:0:0:0:
462,289,9361,1,0,3:0:0:0:
497,274,9481,1,0,3:0:0:0:
295,321,9721,6,0,P|229:307|162:314,1,135,8|0,2:0|3:0,0:0:0:0:
135,294,10081,1,0,3:0:0:0:
110,276,10201,6,0,P|63:300|41:379,2,135,0|0|8,3:0|3:0|2:0,0:0:0:0:
199,181,10921,2,0,L|240:113,1,67.5,0|8,3:0|2:0,0:0:0:0:
66,140,11161,2,0,L|120:198,1,67.5,0|0,3:0|3:0,0:0:0:0:
199,181,11401,6,0,P|246:157|268:78,1,135,0|8,3:0|2:0,0:0:0:0:
206,275,11881,6,0,B|223:303|223:303|310:298,1,101.250003862381,2|2,3:0|3:0,0:0:0:0:
294,213,12121,6,0,L|463:203,1,135,0|0,3:0|3:0,0:0:0:0:
469,115,12601,1,8,2:0:0:0:
429,206,12841,5,0,3:0:0:0:
415,236,12961,1,8,2:0:0:0:
413,270,13081,1,0,3:0:0:0:
422,302,13201,1,0,3:0:0:0:
440,330,13321,2,0,P|473:322|509:332,1,67.5,0|0,3:0|0:0,0:0:0:0:
329,326,13561,2,0,B|252:312|271:355|164:326,1,135,8|0,2:0|3:0,0:0:0:0:
121,322,13921,1,0,3:0:0:0:
121,322,14041,6,0,P|102:253|126:180,1,135,0|0,3:0|3:0,0:0:0:0:
166,43,14521,1,8,2:0:0:0:
69,129,14761,2,0,L|-6:137,1,67.5,0|8,3:0|2:0,0:0:0:0:
184,200,15001,2,0,L|116:192,1,67.5,0|0,3:0|3:0,0:0:0:0:
296,94,15241,1,0,3:0:0:0:
296,94,15361,1,0,3:0:0:0:
296,94,15481,6,0,L|181:105,1,67.5,8|0,2:0|0:0,0:0:0:0:
272,315,15721,6,0,B|247:293|247:293|267:208,1,101.250003862381,2|0,3:0|0:0,0:0:0:0:
365,154,15961,6,0,P|383:79|350:20,1,135,0|0,3:0|3:0,0:0:0:0:
223,0,16441,1,8,2:0:0:0:
90,106,16681,5,0,3:0:0:0:
124,117,16801,1,8,2:0:0:0:
160,120,16921,1,0,3:0:0:0:
193,115,17041,1,0,3:0:0:0:
228,100,17161,1,0,3:0:0:0:
395,220,17401,6,0,P|328:213|262:226,1,135,8|0,2:0|3:0,0:0:0:0:
192,199,17761,1,0,3:0:0:0:
192,199,17881,6,0,P|221:244|211:361,1,135,0|0,3:0|3:0,0:0:0:0:
305,141,18361,1,8,2:0:0:0:
160,256,18601,6,0,P|183:231|192:199,1,67.5,0|8,3:0|2:0,0:0:0:0:
86,297,18841,2,0,P|106:324|136:340,1,67.5,0|0,3:0|3:0,0:0:0:0:
41,384,19081,6,0,P|12:339|22:222,1,135,0|8,3:0|2:0,0:0:0:0:
178,88,19561,6,0,B|203:110|203:110|183:195,1,101.250003862381,2|0,3:0|0:0,0:0:0:0:
192,198,19801,6,0,L|23:208,1,135,0|0,3:0|3:0,0:0:0:0:
264,262,20281,1,8,2:0:0:0:
292,164,20521,5,0,3:0:0:0:
278,133,20641,1,8,2:0:0:0:
276,99,20761,1,0,3:0:0:0:
285,67,20881,1,0,3:0:0:0:
303,39,21001,1,0,3:0:0:0:
495,93,21241,2,0,B|423:75|437:129|364:108,1,135,8|0,2:0|3:0,0:0:0:0:
352,109,21601,1,0,3:0:0:0:
131,95,21961,6,0,P|137:138|62:170,1,101.250003862381,2|0,2:3|2:0,0:0:0:0:
79,177,22321,2,0,P|81:243|247:235,1,253.125009655953,2|0,2:3|0:0,0:0:0:0:
56,351,23161,6,0,B|181:361|103:288|271:240|233:376|396:281,1,303.750011587143,2|0,2:0|0:0,0:0:0:0:
349,324,23581,1,2,0:0:0:0:
355,341,23641,6,0,P|380:213|414:158,2,175.499991966248,4|0|8,3:2|0:0|2:0,0:0:0:0:
432,319,24241,1,0,0:0:0:0:
401,174,24361,2,0,P|386:108|361:64,1,87.749995983124
487,24,24601,5,2,2:0:0:0:
453,91,24721,1,2,2:0:0:0:
373,82,24841,1,2,3:2:0:0:
339,149,24961,1,2,2:2:0:0:
261,159,25081,5,8,2:0:0:0:
261,159,25201,2,0,B|267:183|267:183|98:167,1,175.499991966248,2|2,2:0|2:0,0:0:0:0:
91,98,25561,6,0,B|142:112|135:169|34:150|114:308,1,175.499991966248,0|2,3:2|3:2,0:0:0:0:
27,53,26041,5,8,2:0:0:0:
195,70,26161,2,0,B|123:84|107:219|220:153|192:273|151:325,1,263.249987949372,0|0,2:0|2:0,0:0:0:0:
166,299,26761,2,0,P|113:296|95:239,1,87.749995983124,0|0,3:0|0:0,0:0:0:0:
29,220,27001,6,0,B|62:193|62:193|37:400,1,202.5,10|0,2:0|0:0,0:0:0:0:
29,220,27481,5,2,3:2:0:0:
236,232,27721,2,0,P|267:222|308:222,1,67.5
280,302,27961,5,8,2:0:0:0:
294,146,28081,2,0,P|361:172|384:227,2,80.9999975280763
397,246,28441,5,2,2:0:0:0:
397,246,28561,2,0,L|386:364,2,94.4999971160889,2|0|2,2:0|3:0|2:0,0:0:0:0:
435,5,28921,5,8,2:0:0:0:
384,65,29041,2,0,P|328:102|160:116,1,202.500007724762,2|2,2:0|2:0,0:0:0:0:
466,79,29401,6,0,B|494:100|495:139|495:139|469:120|422:122,1,135,0|0,3:2|3:2,0:0:0:0:
165,207,29881,6,0,L|-3:227,1,151.875005793572,8|0,2:0|2:0,0:0:0:0:
218,203,30361,6,0,L|161:191,1,33.75,0|8,3:0|2:0,0:0:0:0:
90,173,30601,2,0,L|33:161,1,33.75,0|0,3:0|0:0,0:0:0:0:
436,191,30841,6,0,L|189:224,1,202.5,10|2,2:0|3:0,0:0:0:0:
370,121,31321,6,0,B|485:106|485:106|435:329,1,303.750011587143,6|0,3:2|0:0,0:0:0:0:
428,364,31801,1,8,2:0:0:0:
302,82,32161,1,0,0:0:0:0:
370,121,32281,5,2,2:0:0:0:
299,166,32401,2,0,P|254:144|203:142,1,87.749995983124,2|0,2:0|3:0,0:0:0:0:
452,95,32641,2,0,P|407:117|356:119,1,87.749995983124,2|8,2:0|2:0,0:0:0:0:
230,290,32881,1,0,0:0:0:0:
298,248,33001,6,0,P|324:174|282:56,1,175.499991966248,2|0,2:0|3:2,0:0:0:0:
435,364,33481,1,2,3:2:0:0:
511,351,33601,1,0,0:0:0:0:
437,327,33721,5,8,2:0:0:0:
357,334,33841,2,0,L|232:313,1,87.749995983124,2|0,2:0|2:0,0:0:0:0:
295,178,34081,1,2,2:0:0:0:
295,178,34201,2,0,L|381:192,1,87.749995983124,0|0,2:0|0:0,0:0:0:0:
168,230,34441,2,0,B|75:211|75:211|100:262|61:344,2,175.499991966248,2|10|2,3:2|2:0|2:0,0:0:0:0:
4,262,35161,5,0,3:2:0:0:
178,311,35401,2,0,B|201:184|201:184|136:103,1,175.499991966248,0|10,0:0|2:0,0:0:0:0:
211,80,35761,2,0,B|286:159|286:159|351:149,1,175.499991966248,2|0,2:0|2:0,0:0:0:0:
428,133,36121,5,0,2:0:0:0:
326,338,36361,2,0,P|289:285|381:302,1,202.500007724762,2|8,3:2|2:0,0:0:0:0:
401,364,36721,1,0,2:0:0:0:
236,360,36841,2,0,P|171:340|123:337,1,101.250003862381,10|0,2:3|2:0,0:0:0:0:
16,341,37081,5,2,3:2:0:0:
132,323,37201,1,2,0:0:0:0:
232,272,37321,2,0,P|277:249|317:218,1,101.250003862381,0|0,3:2|3:2,0:0:0:0:
157,34,37561,5,12,2:0:0:0:
316,105,37681,2,0,P|250:174|70:228,1,229.500004377365,0|0,3:0|2:0,0:0:0:0:
69,175,38041,5,8,0:0:0:0:
375,158,38281,1,0,3:0:0:0:
118,84,38521,5,8,2:3:0:0:
138,59,38641,1,8,2:3:0:0:
157,34,38761,2,0,B|172:44|172:44|181:126,1,67.5,4|0,2:3|0:0,0:0:0:0:
62,357,39001,6,0,P|60:304|200:291,1,202.500007724762,2|8,2:0|2:1,0:0:0:0:
181,268,39721,2,0,L|172:337,1,50.6250019311906
257,266,39961,6,0,L|247:334,1,50.6250019311906,2|0,2:0|0:0,0:0:0:0:
324,314,40201,2,0,L|462:305,1,101.250003862381,2|8,2:0|2:1,0:0:0:0:
495,276,40921,6,0,P|497:223|357:210,1,202.500007724762,2|8,2:0|2:1,0:0:0:0:
375,187,41641,2,0,L|384:255,1,50.6250019311906
300,185,41881,6,0,L|309:253,1,50.6250019311906,2|0,2:0|0:0,0:0:0:0:
233,233,42121,2,0,L|95:224,1,101.250003862381,2|8,0:0|2:1,0:0:0:0:
196,41,42601,1,0,2:0:0:0:
84,288,42841,6,0,B|44:250|44:250|74:150,1,151.875005793572,2|0,2:0|0:0,0:0:0:0:
61,137,43321,1,8,2:1:0:0:
190,115,43561,2,0,L|121:122,1,50.6250019311906
196,41,43801,6,0,L|127:48,1,50.6250019311906,2|0,2:0|0:0,0:0:0:0:
263,81,44041,1,2,2:0:0:0:
342,8,44161,1,2,2:0:0:0:
327,12,44221,1,2,2:0:0:0:
315,21,44281,5,8,2:1:0:0:
275,85,44401,1,2,2:0:0:0:
346,91,44521,5,2,2:0:0:0:
362,164,44641,1,2,2:0:0:0:
421,110,44761,6,0,B|464:102|464:102|441:128,1,67.5,2|2,2:0|2:0,0:0:0:0:
406,37,45001,1,0,0:0:0:0:
448,119,45121,6,0,B|378:107|378:107|510:161,1,202.5,2|2,2:0|2:0,0:0:0:0:
499,156,45721,6,0,B|486:133|448:120|448:120|418:156|369:138,1,135,0|0,0:0|2:0,0:0:0:0:
228,207,46081,1,0,0:0:0:0:
370,145,46201,6,0,B|259:181|280:83|143:113|195:201|58:160,1,303.750011587143,8|0,2:1|0:0,0:0:0:0:
70,176,46681,6,0,P|37:116|142:85,1,202.5,2|0,2:0|0:0,0:0:0:0:
234,256,47161,2,0,B|180:247|156:199|156:199|166:269|99:305,1,202.5,8|0,2:1|0:0,0:0:0:0:
27,252,47641,6,0,B|21:306|64:324|64:324|184:340,1,202.5,2|0,2:0|0:0,0:0:0:0:
258,155,48121,2,0,B|249:224|249:224|267:276|267:276|257:353,1,202.5,8|0,2:1|0:0,0:0:0:0:
403,170,48601,6,0,B|459:230|459:230|315:215,1,202.5,2|0,2:0|0:0,0:0:0:0:
414,83,49081,2,0,L|527:190,1,135,8|0,2:1|0:0,0:0:0:0:
417,3,49441,1,0,0:0:0:0:
414,83,49561,6,0,P|367:87|309:67,1,67.5,2|0,2:0|0:0,0:0:0:0:
512,78,49801,2,0,P|478:73|445:78,1,67.5,2|0,2:0|0:0,0:0:0:0:
276,60,50041,2,0,P|305:143|379:151,1,135,8|0,2:1|2:0,0:0:0:0:
255,128,50401,1,0,0:0:0:0:
179,149,50521,5,2,2:0:0:0:
256,192,50641,12,0,52321,0:0:0:0:
96,287,52441,5,8,2:0:0:0:
118,273,52501,1,8,2:3:0:0:
130,251,52561,1,8,2:3:0:0:
59,216,52681,1,8,2:3:0:0:
110,311,52801,6,0,P|148:280|164:244,2,67.5,4|4|4,2:3|2:3|2:3,0:0:0:0:
9,158,53041,1,8,2:0:0:0:
77,384,53161,6,0,P|126:321|240:229,1,202.500007724762,0|8,3:0|2:0,0:0:0:0:
19,23,53641,1,8,2:3:0:0:
295,366,53881,5,4,2:3:0:0:
456,293,54001,1,4,2:3:0:0:
314,194,54121,2,0,P|302:251|366:296,1,114.750002188683,4|0,2:3|0:0,0:0:0:0:
30,307,54361,6,0,P|119:309|279:331,1,202.500007724762,4|0,3:1|2:0,0:0:0:0:
295,366,54721,2,0,P|335:342|335:287,1,101.250003862381,2|8,2:3|2:0,0:0:0:0:
182,197,54961,2,0,B|95:172|95:172|147:335,1,202.500007724762,2|2,2:3|2:3,0:0:0:0:
129,96,55321,6,0,P|34:111|82:250,1,202.500007724762,0|0,3:0|3:0,0:0:0:0:
182,197,55681,1,2,2:3:0:0:
203,78,55801,5,8,2:0:0:0:
268,191,55921,1,0,0:0:0:0:
259,134,56041,1,0,2:0:0:0:
339,153,56161,1,2,2:3:0:0:
419,153,56281,6,0,B|299:126|344:230|173:165,1,202.500007724762,2|2,3:0|3:0,0:0:0:0:
347,358,56641,2,0,B|367:339|367:339|375:252,1,101.250003862381,2|8,2:3|2:0,0:0:0:0:
471,56,56881,2,0,L|448:312,1,202.500007724762,2|0,0:3|2:0,0:0:0:0:
198,269,57241,6,0,P|251:266|303:235,1,101.250003862381,2|0,2:3|2:0,0:0:0:0:
471,56,57481,2,0,P|426:33|375:31,1,101.250003862381,2|0,3:1|0:0,0:0:0:0:
124,120,57721,5,8,2:0:0:0:
201,115,57841,1,2,2:3:0:0:
274,110,57961,1,2,2:3:0:0:
274,110,58201,6,0,P|204:134|177:26,1,202.500007724762,0|0,3:0|2:0,0:0:0:0:
183,240,58561,1,2,2:3:0:0:
278,272,58681,6,0,B|248:274|225:260|225:260|172:277|172:277|98:244|-2:274,1,202.500007724762,8|0,2:0|0:0,0:0:0:0:
274,110,59161,2,0,B|304:112|327:98|327:98|380:115|380:115|454:82|554:112,1,202.500007724762,2|0,2:3|3:0,0:0:0:0:
371,66,59521,1,2,2:3:0:0:
434,14,59641,5,8,2:0:0:0:
407,140,59761,2,0,P|390:208|274:185,1,202.500007724762,2|2,2:3|2:3,0:0:0:0:
92,176,60121,6,0,P|130:231|123:300,1,101.250003862381,2|0,3:0|0:0,0:0:0:0:
314,344,60361,2,0,P|339:300|338:250,1,101.250003862381,0|0,3:0|2:0,0:0:0:0:
80,330,60601,6,0,P|184:275|272:285,1,202.500007724762,8|0,2:0|2:0,0:0:0:0:
279,195,60961,1,0,3:0:0:0:
439,241,61081,6,0,P|363:251|320:247,1,101.250003862381,2|0,2:3|2:0,0:0:0:0:
218,128,61321,2,0,P|142:118|99:122,1,101.250003862381,0|0,3:0|2:0,0:0:0:0:
397,14,61561,1,8,2:0:0:0:
394,36,61681,1,8,2:3:0:0:
391,59,61801,6,0,L|483:48,1,67.5,8|0,2:3|0:0,0:0:0:0:
317,154,62041,6,0,P|217:106|246:8,1,202.500007724762,4|2,3:2|2:3,0:0:0:0:
230,225,62401,2,0,P|247:282|243:350,1,101.250003862381,2|8,2:3|2:0,0:0:0:0:
426,230,62641,2,0,P|409:173|413:105,1,101.250003862381,2|0,0:3|2:0,0:0:0:0:
62,347,62881,1,2,0:3:0:0:
140,344,63001,6,0,P|242:346|376:373,1,202.500007724762,2|2,2:3|3:3,0:0:0:0:
362,282,63361,1,0,2:0:0:0:
161,262,63481,6,0,P|263:264|397:291,1,202.500007724762,8|2,2:0|2:3,0:0:0:0:
383,200,63841,1,2,2:3:0:0:
454,257,63961,5,0,3:0:0:0:
454,257,64201,2,0,B|471:281|471:281|461:369,1,101.250003862381,0|0,3:0|2:0,0:0:0:0:
405,77,64441,1,8,2:0:0:0:
501,129,64561,2,0,L|261:96,1,202.500007724762,0|0,0:0|2:0,0:0:0:0:
243,6,64921,6,0,B|222:142|310:73|254:276,2,202.500007724762,0|2|8,2:0|3:3|2:2,0:0:0:0:
196,167,65521,1,2,2:3:0:0:
317,43,65641,2,0,B|375:48|375:48|400:54|407:85,1,101.250003862381,0|2,2:0|2:3,0:0:0:0:
196,167,65881,6,0,B|66:156|66:156|22:153|9:104,1,202.500007724762,2|0,3:3|2:0,0:0:0:0:
248,236,66241,1,0,2:0:0:0:
65,300,66361,2,0,L|178:280,2,101.250003862381,8|0|0,2:0|0:0|2:0,0:0:0:0:
264,236,66721,1,0,0:0:0:0:
257,358,66841,5,2,2:3:0:0:
173,270,66961,2,0,L|163:393,1,101.250003862381,2|0,2:3|3:0,0:0:0:0:
369,182,67201,2,0,L|379:305,1,101.250003862381,2|8,2:3|2:0,0:0:0:0:
45,150,67441,1,0,2:0:0:0:
123,103,67561,2,0,L|113:226,1,101.250003862381,8|10,2:0|2:3,0:0:0:0:
194,159,67801,5,4,2:3:0:0:
123,103,67921,1,4,2:3:0:0:
227,84,68041,5,4,2:3:0:0:
196,76,68161,1,4,2:3:0:0:
242,5,68281,6,0,L|212:6,5,22.5,12|2|2|2|2|0,2:0|0:0|0:0|0:0|0:0|0:0,0:0:0:0:
264,6,68761,6,0,P|229:120|58:62,2,270,8|8|4,2:0|2:3|2:3,0:0:0:0:
269,155,69361,1,4,2:3:0:0:
240,118,69481,1,4,2:3:0:0:
247,265,69601,1,4,0:3:0:0:
354,243,69721,6,0,L|60:236,1,202.500007724762,4|0,3:1|0:0,0:0:0:0:
388,317,70081,2,0,P|426:276|424:210,1,101.250003862381,0|8,0:0|2:0,0:0:0:0:
431,87,70321,2,0,P|393:128|395:194,1,101.250003862381,0|2,2:0|2:1,0:0:0:0:
442,374,70561,6,0,P|340:321|217:344,1,202.500007724762,0|0,2:0|2:0,0:0:0:0:
178,352,70921,2,0,B|150:360|150:360|44:350,1,101.250003862381,0|0,3:0|2:0,0:0:0:0:
202,284,71161,1,8,2:0:0:0:
177,36,71401,6,0,P|218:60|224:95,1,67.5000025749207,2|2,2:1|0:0,0:0:0:0:
156,104,71561,1,2,0:0:0:0:
88,47,71641,6,0,P|146:123|255:172,1,202.500007724762,0|2,3:0|3:0,0:0:0:0:
42,200,72001,2,0,P|148:169|267:174,1,202.500007724762,2|0,2:3|2:0,0:0:0:0:
317,198,72361,2,0,L|442:244,1,101.250003862381,2|0,2:0|2:0,0:0:0:0:
395,116,72601,6,0,P|445:74|477:27,1,101.250003862381,2|0,2:3|2:0,0:0:0:0:
252,254,72841,2,0,P|263:318|288:369,1,101.250003862381,2|0,3:1|0:0,0:0:0:0:
204,62,73081,2,0,P|142:39|85:35,1,101.250003862381,8|0,2:0|2:0,0:0:0:0:
99,222,73321,6,0,P|124:188|128:158,1,67.5000025749207,2|2,2:0|0:0,0:0:0:0:
24,216,73481,1,2,2:0:0:0:
60,122,73561,6,0,P|152:154|171:249,1,202.500007724762,0|0,3:0|0:0,0:0:0:0:
34,318,73921,2,0,B|80:305|80:305|157:326,1,101.250003862381,0|8,0:0|2:0,0:0:0:0:
264,127,74161,2,0,L|255:239,2,101.250003862381,0|2|0,2:0|2:1|2:0,0:0:0:0:
249,361,74521,5,0,0:0:0:0:
249,361,74761,2,0,B|219:369|219:369|324:383|364:260,1,202.500007724762,0|8,3:1|2:0,0:0:0:0:
445,193,75121,1,0,0:0:0:0:
363,273,75241,2,0,P|388:236|440:197,1,101.250003862381,0|0,2:0|2:0,0:0:0:0:
490,247,75481,6,0,B|460:262|460:262|482:78,1,202.500007724762,0|2,3:0|3:0,0:0:0:0:
488,15,75841,1,2,2:0:0:0:
334,199,75961,6,0,B|397:187|397:187|442:204,1,101.250003862381,8|0,2:0|2:0,0:0:0:0:
213,64,76201,2,0,B|276:76|276:76|321:59,1,101.250003862381,2|0,2:3|2:0,0:0:0:0:
176,215,76441,5,2,2:3:0:0:
176,215,76681,6,0,B|195:241|195:241|3:226,1,202.500007724762,0|8,3:0|2:0,0:0:0:0:
38,155,77041,1,8,2:3:0:0:
99,272,77161,6,0,P|105:303|95:348,1,50.6250019311906,4|4,2:3|2:3,0:0:0:0:
103,321,77401,6,0,P|128:224|109:126,1,202.500007724762,4|0,3:2|0:0,0:0:0:0:
51,48,77761,2,0,B|90:18|90:18|140:34,1,101.250003862381,0|8,0:0|2:0,0:0:0:0:
283,176,78001,2,0,B|233:192|233:192|194:161,1,101.250003862381,0|2,2:0|2:1,0:0:0:0:
228,2,78241,2,0,L|251:150,1,101.250003862381,0|0,2:0|0:0,0:0:0:0:
314,273,78481,5,0,2:0:0:0:
232,278,78601,2,0,P|307:193|388:230,1,202.500007724762,0|8,3:0|2:0,0:0:0:0:
182,337,79081,2,0,P|231:354|262:350,1,67.5000025749207,2|2,0:0|0:0,0:0:0:0:
155,263,79241,1,2,0:0:0:0:
103,321,79321,6,0,P|128:224|109:126,1,202.500007724762,2|2,3:3|3:0,0:0:0:0:
109,126,79681,2,0,P|77:153|4:177,1,101.250003862381,2|8,2:3|2:0,0:0:0:0:
211,6,79921,1,0,0:0:0:0:
204,121,80041,2,0,P|196:79|212:4,1,101.250003862381,2|0,2:3|2:0,0:0:0:0:
264,264,80281,5,2,2:3:0:0:
167,199,80401,2,0,P|206:213|263:264,2,101.250003862381,0|0|2,2:3|3:0|2:3,0:0:0:0:
275,145,80761,5,8,2:0:0:0:
275,145,80881,2,0,L|257:368,1,202.500007724762,2|2,2:3|2:3,0:0:0:0:
247,356,81241,6,0,P|321:349|290:196,1,202.500007724762,2|0,3:0|2:0,0:0:0:0:
275,145,81601,2,0,L|145:158,1,101.250003862381,0|8,3:0|2:0,0:0:0:0:
217,24,81841,1,0,2:0:0:0:
328,168,81961,6,0,L|91:188,1,202.500007724762,2|2,2:3|2:3,0:0:0:0:
361,102,82321,1,0,0:0:0:0:
350,238,82441,6,0,P|389:273|457:265,1,101.250003862381,0|2,3:0|2:3,0:0:0:0:
483,16,82681,1,8,2:0:0:0:
483,16,82801,2,0,P|415:163|415:229,1,202.500007724762,2|0,2:3|2:0,0:0:0:0:
512,330,83161,6,0,B|475:329|431:314|431:314|374:349|374:349|328:328|255:331,1,242.999992584229,4|10,3:2|3:0,0:0:0:0:
27,332,83521,1,0,2:0:0:0:
91,370,83641,6,0,B|69:338|69:338|96:231,1,121.499996292114,10|0,3:0|2:0,0:0:0:0:
80,59,83881,2,0,B|118:55|118:55|197:132,1,121.499996292114,10|0,3:0|2:0,0:0:0:0:
316,322,84121,5,8,3:2:0:0:
284,202,84241,2,0,L|133:222,2,121.499996292114,8|8|0,3:0|3:0|2:0,0:0:0:0:
179,114,84601,5,8,2:0:0:0:
148,233,84721,2,0,L|27:217,2,121.499996292114,4|4|4,2:3|2:3|2:3,0:0:0:0:
21,301,85081,5,0,0:0:0:0:
11,206,85201,1,0,3:0:0:0:
0,113,85321,2,0,B|110:95|170:146|170:146|108:163|70:137,1,242.999992584229,8|0,2:0|3:0,0:0:0:0:
77,74,85681,5,8,2:3:0:0:
102,63,85741,1,0,3:0:0:0:
127,64,85801,1,0,3:0:0:0:
225,80,85921,1,0,3:0:0:0:
148,233,86041,5,8,2:0:0:0:
248,249,86161,2,0,P|268:249|314:233,1,50.6250019311906,8|8,2:3|2:3,0:0:0:0:
225,80,86281,1,8,2:3:0:0:
214,170,86401,1,8,2:3:0:0:
399,234,86521,5,4,2:3:0:0:
416,156,86641,1,4,2:3:0:0:
479,258,86761,5,4,2:3:0:0:
468,97,86881,1,4,2:3:0:0:
344,182,87001,6,0,B|400:165|400:165|372:311|372:311|309:254,1,270,4|0,3:2|3:0,0:0:0:0:
138,192,87953,2,0,B|211:176|190:230|282:213,1,135,0|0,3:0|0:0,0:0:0:0:
52,204,88429,5,0,3:0:0:0:
138,192,88548,1,0,0:0:0:0:
187,116,88667,2,0,P|200:75|194:47,1,67.5,0|0,2:0|2:0,0:0:0:0:
192,41,88905,6,0,L|43:31,1,135,0|0,3:0|2:0,0:0:0:0:
267,215,89262,6,0,B|320:198|320:198|379:216,1,114.750002188683,0|0,2:0|3:0,0:0:0:0:
512,216,89503,1,0,2:0:0:0:
376,215,89625,6,0,B|323:232|323:232|267:216|267:216|283:365,1,229.500004377365,0|8,0:0|2:0,0:0:0:0:
313,145,89988,6,0,B|309:102|309:102|315:110|315:110|308:51,1,101.250003862381,8|8,2:0|2:3,0:0:0:0:
432,267,90341,2,0,B|428:310|428:310|434:302|434:302|427:361,1,101.250003862381,4|4,2:3|2:3,0:0:0:0:
428,349,90635,1,4,2:3:0:0:
428,349,90694,1,4,2:3:0:0:
354,362,90812,5,4,2:3:0:0:
383,44,91047,1,4,2:3:0:0:
106,192,91301,5,12,2:0:0:0:
51,130,91422,2,0,B|5:190|5:190|37:244|37:244|22:353,1,229.500004377365,0|0,2:0|0:0,0:0:0:0:
16,354,91788,6,0,P|100:353|126:299,1,135,0|0,3:0|2:0,0:0:0:0:
198,303,92148,6,0,B|242:319|242:319|304:297,1,94.4999971160889,0|0,2:0|3:0,0:0:0:0:
242,239,92388,1,0,2:0:0:0:
300,295,92508,6,0,B|344:279|344:279|406:301,1,94.4999971160889,0|0,2:0|0:0,0:0:0:0:
344,359,92761,1,0,3:0:0:0:
407,215,92881,6,0,B|420:88|420:88|444:165,1,162,0|0,2:0|0:0,0:0:0:0:
479,236,93121,2,0,B|492:363|492:363|516:286,1,162,0|0,2:0|0:0,0:0:0:0:
430,120,93361,6,0,L|338:108,2,67.5,0|0|2,2:0|2:0|2:0,0:0:0:0:
497,1,93719,6,0,B|486:-5|467:16|485:48|497:29|497:68|493:100,1,101.250003862381,2|2,3:2|2:2,0:0:0:0:
482,196,93959,2,0,B|493:190|512:211|494:243|482:224|482:263|486:295,1,101.250003862381,2|2,2:2|2:2,0:0:0:0:
363,111,94198,2,0,B|352:105|333:126|351:158|363:139|363:178|359:210,2,101.250003862381,2|2|2,3:2|2:2|2:2,0:0:0:0:
419,342,94558,6,0,B|519:395|566:284|390:260|491:363|278:335,1,303.750011587143,6|2,2:2|2:2,0:0:0:0:
206,329,95037,1,2,2:2:0:0:
287,340,95157,2,0,P|243:325|192:329,2,67.5,2|0|2,3:2|2:0|2:2,0:0:0:0:
237,135,95516,1,0,2:0:0:0:
222,324,95636,6,0,B|215:211|257:268|241:131,1,175.499991966248,2|2,3:2|2:2,0:0:0:0:
173,88,95995,1,0,2:0:0:0:
95,134,96115,6,0,P|146:127|184:84,3,87.749995983124,2|2|2|2,3:2|2:2|2:2|2:2,0:0:0:0:
12,49,96594,6,0,L|19:116,1,67.5,2|0,3:2|0:0,0:0:0:0:
87,66,96714,2,0,L|94:133,1,67.5,2|0,2:2|0:0,0:0:0:0:
163,78,96834,6,0,L|170:145,1,67.5,2|0,0:0|0:0,0:0:0:0:
238,95,96954,2,0,L|245:162,1,67.5,2|0,2:0|0:0,0:0:0:0:
242,236,97074,6,0,L|249:168,1,67.5,2|0,3:0|0:0,0:0:0:0:
317,219,97193,2,0,L|324:151,1,67.5,2|0,2:0|0:0,0:0:0:0:
393,207,97313,6,0,L|400:139,1,67.5,2|0,2:0|0:0,0:0:0:0:
468,190,97433,2,0,L|475:122,1,67.5,2|0,2:0|0:0,0:0:0:0:
500,22,97553,6,0,B|450:-3|425:108|515:90|453:161,1,135,2|2,3:0|2:0,0:0:0:0:
366,307,97792,2,0,B|416:332|441:221|351:239|413:168,1,135,2|2,2:0|2:0,0:0:0:0:
440,358,98032,5,2,3:0:0:0:
286,301,98152,1,2,2:0:0:0:
366,307,98272,2,0,P|352:339|351:374,2,67.5000025749207,2|2|2,2:0|0:0|0:0,0:0:0:0:
214,330,98511,5,0,3:0:0:0:
161,339,98591,1,0,3:3:0:0:
113,317,98672,1,0,3:3:0:0:
86,271,98752,1,0,3:3:0:0:
91,218,98833,1,0,3:3:0:0:
125,177,98914,1,0,3:3:0:0:
202,186,98994,6,0,L|-49:177,1,202.500007724762,0|0,3:0|3:0,0:0:0:0:
310,198,99478,2,0,L|561:207,1,202.500007724762,0|0,3:0|3:0,0:0:0:0:
361,56,99841,1,0,3:0:0:0:
361,56,99961,5,6,2:3:0:0:
356,109,100043,1,2,0:3:0:0:
383,154,100123,1,2,0:3:0:0:
432,177,100204,2,0,P|443:130|470:100,1,50.6250019311906,4|0,2:2|0:0,0:0:0:0:
512,55,100325,6,0,P|344:103|226:88,1,270
346,268,100681,6,0,B|332:245|332:245|343:200,4,50.6250019311906,2|0|2|0|2,2:3|2:0|2:3|2:0|2:3,0:0:0:0:
512,261,100921,6,0,P|462:239|432:235,2,67.5,2|0|2,2:3|2:0|2:3,0:0:0:0:
329,375,101161,2,0,P|400:354|493:356,1,135,2|0,2:3|0:0,0:0:0:0:
217,366,101401,5,8,2:0:0:0:
295,17,101641,1,8,2:3:0:0:
217,366,101881,5,8,2:3:0:0:
56,293,102001,1,8,2:3:0:0:
198,194,102121,2,0,P|210:251|146:296,1,114.750002188683,4|0,2:3|0:0,0:0:0:0:
100,153,102361,6,0,L|318:180,1,202.500007724762,4|0,3:1|2:0,0:0:0:0:
87,71,102721,1,0,2:0:0:0:
20,127,102841,5,8,2:2:0:0:
158,212,102961,2,0,P|175:131|62:76,1,202.500007724762
5,297,103321,6,0,L|90:289,1,50.6250019311906,2|0,2:3|2:0,0:0:0:0:
107,316,103441,2,0,L|56:311,1,50.6250019311906,2|0,2:3|0:0,0:0:0:0:
57,330,103561,6,0,L|65:198,1,101.250003862381,0|2,3:0|2:3,0:0:0:0:
86,70,103801,1,8,2:0:0:0:
72,203,103921,2,0,L|78:304,1,101.250003862381,2|0,2:3|3:3,0:0:0:0:
273,313,104161,1,2,2:3:0:0:
181,266,104281,6,0,B|303:240|238:336|435:269,1,202.500007724762,2|2,3:3|3:3,0:0:0:0:
383,194,104641,2,0,B|401:147|401:147|375:64,1,101.250003862381,2|8,2:3|2:0,0:0:0:0:
473,331,104881,2,0,B|455:284|455:284|481:201,1,101.250003862381,0|2,0:0|2:3,0:0:0:0:
365,383,105121,1,0,2:0:0:0:
385,98,105241,6,0,P|444:124|512:127,1,101.250003862381,2|0,2:3|2:0,0:0:0:0:
180,162,105481,2,0,P|229:170|275:192,1,101.250003862381,2|0,3:3|2:0,0:0:0:0:
51,39,105721,1,8,2:0:0:0:
57,112,105841,1,2,2:3:0:0:
64,186,105961,2,0,L|71:301,1,101.250003862381,0|0,0:0|2:0,0:0:0:0:
20,359,106201,6,0,B|133:350|133:350|34:251,1,202.500007724762,0|0,3:0|2:0,0:0:0:0:
195,305,106561,2,0,P|241:303|282:246,1,101.250003862381,0|8,2:0|2:0,0:0:0:0:
403,153,106801,2,0,P|353:156|320:192,1,101.250003862381,0|0,2:0|2:0,0:0:0:0:
503,303,107041,1,2,2:3:0:0:
503,303,107101,1,2,2:3:0:0:
503,303,107161,5,2,2:3:0:0:
441,246,107281,2,0,P|415:170|449:35,1,202.500007724762,2|0,2:3|2:0,0:0:0:0:
421,321,107641,5,8,0:0:0:0:
441,246,107761,1,2,2:3:0:0:
349,345,107881,5,2,2:3:0:0:
320,191,108001,1,2,2:3:0:0:
286,376,108121,6,0,P|225:323|87:304,1,202.500007724762,2|2,3:0|3:0,0:0:0:0:
219,199,108481,2,0,B|233:249|233:249|209:313,1,101.250003862381,2|8,2:3|2:0,0:0:0:0:
249,104,108721,2,0,B|235:54|235:54|259:-10,1,101.250003862381,0|0,0:0|2:0,0:0:0:0:
491,72,108961,1,2,2:3:0:0:
416,80,109081,6,0,P|362:72|290:31,1,101.250003862381,2|0,2:3|2:0,0:0:0:0:
215,295,109321,2,0,P|248:252|320:210,1,101.250003862381,10|0,0:3|2:0,0:0:0:0:
126,13,109561,5,10,2:0:0:0:
144,60,109681,1,10,2:3:0:0:
150,109,109801,2,0,P|144:167|123:211,1,67.5,8|0,2:3|2:0,0:0:0:0:
28,205,110041,6,0,L|295:196,1,202.500007724762,4|0,3:2|0:0,0:0:0:0:
437,77,110521,6,0,B|438:55|420:18|420:18|428:113|389:180|389:180|417:115|398:68,1,303.750011587143,8|0,2:0|0:0,0:0:0:0:
486,142,111001,5,2,2:3:0:0:
405,108,111121,2,0,B|380:93|333:96|333:96|360:116|406:89,1,101.250003862381,2|0,2:3|3:0,0:0:0:0:
442,236,111361,2,0,P|472:286|491:361,1,101.250003862381,2|8,2:3|2:0,0:0:0:0:
358,104,111601,2,0,P|374:56|401:13,2,101.250003862381,2|0|2,2:3|2:0|2:3,0:0:0:0:
361,318,111961,6,0,B|228:300|228:300|313:414,1,202.500007724762,0|2,3:0|3:3,0:0:0:0:
272,138,112321,2,0,B|288:151|288:151|300:261,1,101.250003862381,2|8,2:3|2:0,0:0:0:0:
383,12,112561,2,0,B|367:25|367:25|355:135,1,101.250003862381,0|2,0:0|2:3,0:0:0:0:
79,74,112801,1,0,2:0:0:0:
156,84,112921,6,0,L|443:114,2,202.500007724762,2|2|8,2:3|3:1|2:0,0:0:0:0:
422,164,113641,2,0,P|440:124|425:49,1,101.250003862381,0|0,2:0|2:0,0:0:0:0:
361,10,113881,6,0,P|314:113|348:215,1,202.500007724762,0|0,3:0|2:0,0:0:0:0:
422,164,114241,1,0,2:0:0:0:
297,124,114361,2,0,P|265:91|197:65,1,101.250003862381,8|0,2:2|0:0,0:0:0:0:
74,263,114601,2,0,B|201:260|117:177|310:193,1,202.500007724762,0|2,2:0|2:3,0:0:0:0:
246,383,114961,6,0,P|262:332|261:284,1,101.250003862381,2|0,2:3|3:0,0:0:0:0:
250,99,115201,2,0,P|250:48|265:1,1,101.250003862381,2|8,2:3|2:0,0:0:0:0:
360,301,115441,2,0,L|261:284,1,101.250003862381,2|0,2:3|2:0,0:0:0:0:
256,192,115681,1,2,2:3:0:0:
150,81,115801,6,0,L|250:99,1,101.250003862381,8|0,2:0|0:0,0:0:0:0:
0,192,116161,1,8,2:3:0:0:
80,256,116281,6,0,L|50:255,2,22.5,10|2|2,2:0|0:0|0:0,0:0:0:0:
57,128,116521,2,0,L|80:128,2,22.5,2|2|2,0:0|0:0|0:0,0:0:0:0:
49,367,116761,5,8,0:0:0:0:
123,332,116881,2,0,B|193:281|193:281|147:47,1,270,10|0,0:3|0:0,0:0:0:0:
512,249,117241,2,0,B|338:277|438:101|170:208,1,270,8|4,2:0|2:3,0:0:0:0:
394,26,117561,2,0,P|431:73|423:114,1,90,2|2,0:0|0:0,0:0:0:0:
331,352,117721,6,0,P|372:246|537:279,1,270,4|8,3:2|2:0,0:0:0:0:
364,99,118081,2,0,P|454:114|503:182,1,135,8|0,2:0|2:0,0:0:0:0:
511,248,118321,1,0,0:0:0:0:
483,142,118441,6,0,L|207:156,1,270,4|8,3:2|2:0,0:0:0:0:
214,155,118921,6,0,B|218:70|218:70|300:117|300:117|212:273|212:273|294:320|294:320|298:234,1,540,4|4,3:2|2:3,0:0:0:0:
246,305,119521,1,4,2:3:0:0:
194,380,119641,6,0,B|256:388|307:344|329:252|256:192|256:192|177:121|183:5|292:-36|371:37,1,540,4|8,3:2|2:0,0:0:0:0:
315,6,120841,6,0,B|347:54|347:54|75:24,1,270,4|8,3:2|2:3,0:0:0:0:
184,148,121201,6,0,B|40:160|40:160|72:112,1,202.5,8|0,2:3|3:0,0:0:0:0:
256,192,121801,1,0,3:0:0:0:
328,236,122041,6,0,P|337:270|313:332,1,101.250003862381,0|8,3:0|2:0,0:0:0:0:
256,192,122401,1,0,2:0:0:0:
329,152,122521,6,0,P|384:166|423:309,1,202.500007724762,0|0,3:0|3:0,0:0:0:0:
422,251,122841,1,4,0:3:0:0:
435,208,122921,1,4,0:3:0:0:
473,182,123001,5,4,2:3:0:0:
491,339,123121,1,8,2:3:0:0:
345,286,123241,5,8,2:3:0:0:
345,286,123301,1,8,0:3:0:0:
345,286,123361,2,0,L|199:282,1,135,4|0,2:0|0:0,0:0:0:0:
210,282,123721,6,0,L|218:324,2,40.4999987640381
314,330,124441,6,0,P|216:326|258:98,1,344.250006566048,4|0,3:2|0:0,0:0:0:0:
118,340,124921,2,0,B|33:374|33:374|78:193,1,229.500004377365,4|8,3:2|2:0,0:0:0:0:
19,179,125281,1,8,2:0:0:0:
66,240,125401,6,0,L|234:223,1,114.750002188683,4|2,3:2|2:3,0:0:0:0:
195,123,125641,1,8,2:2:0:0:
180,228,125761,6,0,L|294:239,1,114.750002188683,4|0,3:2|0:0,0:0:0:0:
308,345,126001,1,0,2:0:0:0:
294,239,126112,6,0,L|408:227,1,114.750002188683,4|0,3:2|2:0,0:0:0:0:
463,115,126352,1,0,3:0:0:0:
454,125,126412,1,4,0:3:0:0:
447,134,126472,1,8,2:0:0:0:
408,227,126592,6,0,P|421:107|459:3,1,229.500004377365,4|8,3:2|2:3,0:0:0:0:
457,5,126892,1,8,2:3:0:0:
457,5,126952,1,8,2:3:0:0:
457,5,127012,1,8,2:3:0:0:
471,19,127072,6,0,P|437:33|396:37,1,57.3750010943413,4|4,2:3|2:3,0:0:0:0:
322,147,127192,2,0,P|288:132|247:128,1,57.3750010943413,4|4,2:3|2:3,0:0:0:0:
344,73,127312,6,0,B|201:47|274:146|105:107,1,229.500004377365,4|8,3:2|2:3,0:0:0:0:
43,110,127632,1,8,2:3:0:0:
51,80,127712,1,8,2:3:0:0:
0,23,127792,6,0,P|28:186|26:242,2,170.999995433807,0|8|8,3:0|0:3|0:3,0:0:0:0:
65,311,128272,1,4,2:3:0:0:
53,297,128352,1,4,0:3:0:0:
41,284,128432,1,4,0:3:0:0:
2,346,128512,6,0,B|-21:221|99:180|127:350,1,263.249987949372,4|0,3:2|0:0,0:0:0:0:
195,306,128984,2,0,P|219:298|248:266,1,50.6250019311906,4|4,2:3|2:3,0:0:0:0:
123,332,129220,6,0,B|290:318|214:380|420:352,1,270,4|8,3:2|2:0,0:0:0:0:
319,368,129820,1,8,2:3:0:0:
250,364,129940,2,0,P|204:374|172:399,1,67.5,8|0,2:3|0:0,0:0:0:0:
412,282,130180,6,0,P|425:207|447:133,1,135,8|2,2:0|2:3,0:0:0:0:
421,281,130540,6,0,P|434:206|456:132,1,135,4|0,3:2|0:0,0:0:0:0:
372,0,130780,2,0,P|359:75|337:149,1,135,4|0,3:2|0:0,0:0:0:0:
271,291,131020,6,0,B|223:330|223:330|499:295,1,337.5,4|0,3:2|3:0,0:0:0:0:
496,295,132098,5,0,3:0:0:0:
419,235,132215,1,0,3:0:0:0:
347,252,132333,1,8,3:2:0:0:
276,268,132450,1,8,3:2:0:0:
275,175,132568,5,8,2:0:0:0:
244,348,132686,1,8,2:0:0:0:
159,340,132803,1,8,2:0:0:0:
77,331,132921,6,0,B|9:327|9:327|154:259,1,135,4|0,3:2|0:0,0:0:0:0:
69,298,133321,6,0,B|137:302|137:302|-8:370,1,135,2|0,2:3|2:0,0:0:0:0:
142,228,133681,2,0,B|74:224|74:224|219:156,1,135,2|0,2:3|2:0,0:0:0:0:
134,195,134041,2,0,B|202:199|202:199|57:267,1,135,2|0,2:3|2:0,0:0:0:0:
223,117,134401,2,0,B|155:113|155:113|300:45,1,135,2|0,2:3|2:0,0:0:0:0:
215,84,134761,6,0,B|283:88|283:88|138:156,1,135,2|0,2:3|0:0,0:0:0:0:
