osu file format v14

[General]
AudioFilename: audio.mp3
AudioLeadIn: 0
PreviewTime: 52651
Countdown: 0
SampleSet: Soft
StackLeniency: 0.8
Mode: 0
LetterboxInBreaks: 0
WidescreenStoryboard: 1

[Editor]
Bookmarks: 8281,22321,23641,39001,54361,69721,87001,102361,117721,133081
DistanceSpacing: 6
BeatDivisor: 4
GridSize: 4
TimelineZoom: 2.100001

[Metadata]
Title:(RE)PLAY
TitleUnicode:(RE)PLAY
Artist:Eden & Trickstar
ArtistUnicode:Eden & Trickstar
Creator:Ascended
Version:AIRIN'S (RE)INSANE
Source:あんさんぶるスターズ!!
Tags:Replay what's whats your scenario あんさんぶるスターズ!! -_ascended_- ascended AirinCat Yahuri Otosaka-Yu Suzuki_1112 ensemble stars!! enstars!! es!! enstars es jpop j-pop japanese japan pop jazz male vocals vocal vocalist gacha mobile phone video game videogame games idol seiyuu voice actor va basic music rhythm Eden & Trickstar COVER SONG SERIES 05 frontier works frontierworks happy elements cacalia studio MOMO"mocha"N UTA Daichi Miura 三浦大知 Takuya Sakai 酒井拓也 Arte Refact Jun Sazanami 漣ジュン Yuuma Yuma Yūma Uchida 内田雄馬 Hiyori Tomoe 巴日和 Natsuki Hanae 花江夏樹 Nagisa Ran 乱凪砂 Junichi Jun'ichi Suwabe 諏訪部順一 Ibara Saegusa 七種茨 Ryota Osaka Ryouta Oosaka Ōsaka Ryōta 逢坂良太 Hokuto Hidaka 氷鷹北斗 Tomoaki Maeno 前野智昭 Subaru Akehoshi 明星スバル Tetsuya Kakihara 柿原徹也 Mao Isara 衣更真緒 Kaji Yuuki Yuki 梶裕貴 Makoto Yuuki Yūki 遊木真 Showtarou Shoutarou Shōtarō Morikubo 森久保祥太郎 and
BeatmapID:4446988
BeatmapSetID:2095363

[Difficulty]
HPDrainRate:5
CircleSize:3.2
OverallDifficulty:7
ApproachRate:9
SliderMultiplier:2
SliderTickRate:1

[Events]
//Background and Video events
0,0,"iiiii hiyori.jpg",0,0
//Break Periods
//Storyboard Layer 0 (Background)
//Storyboard Layer 1 (Fail)
//Storyboard Layer 2 (Pass)
//Storyboard Layer 3 (Foreground)
//Storyboard Layer 4 (Overlay)
//Storyboard Sound Samples

[TimingPoints]
601,480,4,2,1,50,1,0
6361,-100,4,2,1,40,0,0
8281,-100,4,2,1,50,0,0
12061,-100,4,2,1,5,0,0
12121,-100,4,2,1,50,0,0
15901,-100,4,2,1,5,0,0
15961,-100,4,2,1,50,0,0
19741,-100,4,2,1,5,0,0
19801,-100,4,2,1,50,0,0
21601,-100,4,2,1,40,0,0
21961,-133.333333333333,4,2,1,40,0,0
23161,-125,4,2,1,40,0,0
23641,-55.5555555555556,4,2,1,40,0,0
24601,-55.5555555555556,4,2,1,60,0,0
24900,-55.5555555555556,4,2,1,5,0,0
24961,-55.5555555555556,4,2,1,60,0,0
25500,-55.5555555555556,4,2,1,5,0,0
25561,-55.5555555555556,4,2,1,60,0,0
26161,-100,4,2,1,60,0,0
27181,-100,4,2,1,5,0,0
27241,-100,4,2,1,60,0,0
27421,-100,4,2,1,5,0,0
27481,-55.5555555555556,4,2,1,60,0,0
28500,-55.5555555555556,4,2,1,5,0,0
28561,-55.5555555555556,4,2,1,60,0,0
30841,-100,4,2,1,60,0,0
31021,-100,4,2,1,5,0,0
31081,-100,4,2,1,60,0,0
31141,-100,4,2,1,5,0,0
31201,-100,4,2,1,60,0,0
31261,-100,4,2,1,5,0,0
31321,-55.5555555555556,4,2,1,60,0,0
32341,-55.5555555555556,4,2,1,5,0,0
32401,-55.5555555555556,4,2,1,60,0,0
32701,-55.5555555555556,4,2,1,5,0,0
32761,-55.5555555555556,4,2,1,60,0,0
33420,-55.5555555555556,4,2,1,5,0,0
33481,-55.5555555555556,4,2,1,60,0,0
33660,-55.5555555555556,4,2,1,5,0,0
33721,-55.5555555555556,4,2,1,60,0,0
36421,-55.5555555555556,4,2,1,5,0,0
36481,-55.5555555555556,4,2,1,60,0,0
36781,-55.5555555555556,4,2,1,5,0,0
36841,-55.5555555555556,4,2,1,60,0,0
39001,-222.222222222221,4,2,1,40,0,0
43801,-200,4,2,1,40,0,0
46681,-125,4,2,1,45,0,0
48121,-100,4,2,1,45,0,0
50521,-90.9090909090909,4,2,1,45,0,0
52441,-76.9230769230769,4,2,1,55,0,0
53401,-55.5555555555556,4,2,1,55,0,0
53881,-66.6666666666667,4,2,1,55,0,0
54361,-100,4,2,1,65,0,1
54540,-166.666666666667,4,2,1,5,0,1
54601,-166.666666666667,4,2,1,65,0,1
54721,-83.3333333333333,4,2,1,65,0,0
54780,-83.3333333333333,4,2,1,5,0,0
54841,-83.3333333333333,4,2,1,65,0,0
55380,-83.3333333333333,4,2,1,5,0,0
55441,-83.3333333333333,4,2,1,65,0,0
55740,-83.3333333333333,4,2,1,5,0,0
55801,-83.3333333333333,4,2,1,65,0,0
56220,-83.3333333333333,4,2,1,5,0,0
56281,-83.3333333333333,4,2,1,65,0,0
56460,-83.3333333333333,4,2,1,5,0,0
56521,-66.6666666666667,4,2,1,65,0,0
56581,-66.6666666666667,4,2,1,5,0,0
56641,-66.6666666666667,4,2,1,65,0,0
56701,-66.6666666666667,4,2,1,5,0,0
56761,-66.6666666666667,4,2,1,65,0,0
56821,-66.6666666666667,4,2,1,5,0,0
56940,-66.6666666666667,4,2,1,5,0,0
57001,-76.9230769230769,4,2,1,65,0,0
57061,-66.6666666666667,4,2,1,5,0,0
57241,-55.5555555555556,4,2,1,65,0,0
57900,-55.5555555555556,4,2,1,5,0,0
57961,-55.5555555555556,4,2,1,65,0,0
59041,-76.9230769230769,4,2,1,65,0,0
59220,-76.9230769230769,4,2,1,5,0,0
59281,-76.9230769230769,4,2,1,65,0,0
60300,-76.9230769230769,4,2,1,5,0,0
60361,-76.9230769230769,4,2,1,65,0,0
60420,-76.9230769230769,4,2,1,5,0,0
60481,-76.9230769230769,4,2,1,65,0,0
60540,-76.9230769230769,4,2,1,5,0,0
60601,-76.9230769230769,4,2,1,65,0,0
60661,-76.9230769230769,4,2,1,5,0,0
60780,-76.9230769230769,4,2,1,5,0,0
60841,-76.9230769230769,4,2,1,65,0,0
60901,-76.9230769230769,4,2,1,5,0,0
61081,-55.5555555555556,4,2,1,65,0,0
61620,-55.5555555555556,4,2,1,5,0,0
61681,-55.5555555555556,4,2,1,65,0,0
61740,-55.5555555555556,4,2,1,5,0,0
61801,-55.5555555555556,4,2,1,65,0,0
62281,-83.3333333333333,4,2,1,65,0,0
62340,-83.3333333333333,4,2,1,5,0,0
62401,-83.3333333333333,4,2,1,65,0,0
63001,-83.3333333333333,4,2,1,65,0,0
63780,-83.3333333333333,4,2,1,5,0,0
63841,-83.3333333333333,4,2,1,65,0,0
63900,-83.3333333333333,4,2,1,5,0,0
63961,-83.3333333333333,4,2,1,65,0,0
64201,-66.6666666666667,4,2,1,65,0,0
64261,-66.6666666666667,4,2,1,5,0,0
64321,-66.6666666666667,4,2,1,65,0,0
64381,-66.6666666666667,4,2,1,5,0,0
64441,-66.6666666666667,4,2,1,65,0,0
64501,-66.6666666666667,4,2,1,5,0,0
64620,-66.6666666666667,4,2,1,5,0,0
64681,-76.9230769230769,4,2,1,65,0,0
64741,-55.5555555555556,4,2,1,5,0,0
64921,-55.5555555555556,4,2,1,65,0,0
65340,-55.5555555555556,4,2,1,5,0,0
65401,-55.5555555555556,4,2,1,65,0,0
65461,-55.5555555555556,4,2,1,5,0,0
65521,-55.5555555555556,4,2,1,65,0,0
66300,-55.5555555555556,4,2,1,5,0,0
66361,-55.5555555555556,4,2,1,65,0,0
66900,-76.9230769230769,4,2,1,5,0,0
66961,-76.9230769230769,4,2,1,65,0,0
67260,-76.9230769230769,4,2,1,5,0,0
67321,-76.9230769230769,4,2,1,65,0,0
67740,-76.9230769230769,4,2,1,5,0,0
67801,-76.9230769230769,4,2,1,65,0,0
68281,-55.5555555555556,4,2,1,65,0,0
68700,-55.5555555555556,4,2,1,5,0,0
68761,-66.6666666666667,4,2,1,65,0,0
69241,-83.3333333333333,4,2,1,65,0,0
69721,-50,4,2,1,75,0,1
70441,-66.6666666666667,4,2,1,75,0,0
70501,-66.6666666666667,4,2,1,5,0,0
70561,-66.6666666666667,4,2,1,75,0,0
71341,-66.6666666666667,4,2,1,5,0,0
71401,-66.6666666666667,4,2,1,75,0,0
71461,-66.6666666666667,4,2,1,5,0,0
71521,-66.6666666666667,4,2,1,75,0,0
71821,-66.6666666666667,4,2,1,5,0,0
71881,-66.6666666666667,4,2,1,75,0,0
71941,-66.6666666666667,4,2,1,5,0,0
72001,-66.6666666666667,4,2,1,5,0,0
72121,-58.8235294117647,4,2,1,75,0,0
72241,-66.6666666666667,4,2,1,5,0,0
72361,-58.8235294117647,4,2,1,75,0,0
72481,-66.6666666666667,4,2,1,5,0,0
72601,-66.6666666666667,4,2,1,75,0,0
73021,-66.6666666666667,4,2,1,5,0,0
73081,-100,4,2,1,75,0,0
73141,-66.6666666666667,4,2,1,5,0,0
73201,-66.6666666666667,4,2,1,75,0,0
73261,-66.6666666666667,4,2,1,5,0,0
73321,-66.6666666666667,4,2,1,75,0,0
73561,-47.6190476190476,4,2,1,75,0,1
74281,-66.6666666666667,4,2,1,75,0,0
74341,-66.6666666666667,4,2,1,5,0,0
74401,-66.6666666666667,4,2,1,75,0,0
75181,-66.6666666666667,4,2,1,5,0,0
75241,-66.6666666666667,4,2,1,75,0,0
75661,-66.6666666666667,4,2,1,5,0,0
75721,-66.6666666666667,4,2,1,75,0,0
75781,-66.6666666666667,4,2,1,5,0,0
75901,-66.6666666666667,4,2,1,5,0,0
75961,-66.6666666666667,4,2,1,75,0,0
76081,-66.6666666666667,4,2,1,5,0,0
76201,-66.6666666666667,4,2,1,75,0,0
76321,-66.6666666666667,4,2,1,5,0,0
76441,-66.6666666666667,4,2,1,75,0,0
76861,-66.6666666666667,4,2,1,5,0,0
76921,-66.6666666666667,4,2,1,75,0,0
76981,-66.6666666666667,4,2,1,5,0,0
77041,-66.6666666666667,4,2,1,75,0,0
77101,-66.6666666666667,4,2,1,5,0,0
77161,-66.6666666666667,4,2,1,75,0,0
77221,-66.6666666666667,4,2,1,5,0,0
77281,-66.6666666666667,4,2,1,75,0,0
77341,-66.6666666666667,4,2,1,5,0,0
77401,-47.6190476190476,4,2,1,75,0,1
78121,-66.6666666666667,4,2,1,75,0,0
78181,-66.6666666666667,4,2,1,5,0,0
78241,-66.6666666666667,4,2,1,75,0,0
78901,-66.6666666666667,4,2,1,5,0,0
78961,-66.6666666666667,4,2,1,75,0,0
79681,-66.6666666666667,4,2,1,5,0,0
79801,-58.8235294117647,4,2,1,75,0,0
79921,-58.8235294117647,4,2,1,5,0,0
80041,-62.5,4,2,1,75,0,0
80161,-66.6666666666667,4,2,1,5,0,0
80281,-66.6666666666667,4,2,1,75,0,0
80341,-66.6666666666667,4,2,1,5,0,0
80401,-66.6666666666667,4,2,1,75,0,0
81721,-76.9230769230769,4,2,1,75,0,0
82860,-76.9230769230769,4,2,1,5,0,0
82921,-76.9230769230769,4,2,1,75,0,0
83401,-83.3333333333333,4,2,1,75,0,0
84180,-83.3333333333333,4,2,1,5,0,0
84241,-83.3333333333333,4,2,1,75,0,0
84540,-83.3333333333333,4,2,1,5,0,0
84601,-83.3333333333333,4,2,1,75,0,0
84780,-83.3333333333333,4,2,1,5,0,0
84841,-83.3333333333333,4,2,1,75,0,0
84900,-83.3333333333333,4,2,1,5,0,0
84961,-83.3333333333333,4,2,1,75,0,0
85321,-58.8235294117647,4,2,1,75,0,0
87001,476.190476190476,4,2,1,50,1,0
87001,-83.3333333333333,4,2,1,50,0,0
87601,-200,4,2,1,50,0,0
89341,-200,4,2,1,5,0,0
89381,489.795918367347,4,2,1,50,1,0
89381,-200,4,2,1,50,0,0
89871,470.588235294118,4,2,1,50,1,0
89871,-200,4,2,1,50,0,0
91301,487.80487804878,4,2,1,50,1,0
91301,-200,4,2,1,50,0,0
91441,-133.333333333333,4,2,1,50,0,0
91788,480,4,2,1,50,1,0
92761,479.233226837061,4,2,1,50,1,0
92821,-133.333333333333,4,2,1,5,0,0
92881,-133.333333333333,4,2,1,50,0,0
93661,-133.333333333333,4,2,1,5,0,0
93721,-133.333333333333,4,2,1,50,0,0
98511,483.870967741935,4,2,1,50,1,0
98581,-66.6666666666667,4,2,1,50,0,0
100204,-65.7894736842105,4,2,1,50,0,0
100441,480,4,2,1,50,1,0
100981,-66.6666666666667,4,2,1,5,0,0
101041,-66.6666666666667,4,2,1,50,0,0
101101,-66.6666666666667,4,2,1,5,0,0
101161,-66.6666666666667,4,2,1,50,0,0
102361,480,4,2,1,50,1,0
102361,-100,4,2,1,70,0,1
102721,-71.4285714285714,4,2,1,70,0,0
102780,-71.4285714285714,4,2,1,5,0,0
102841,-52.6315789473684,4,2,1,70,0,0
103261,-58.8235294117647,4,2,1,5,0,0
103321,-58.8235294117647,4,2,1,70,0,0
103381,-58.8235294117647,4,2,1,5,0,0
103441,-71.4285714285714,4,2,1,70,0,0
103980,-71.4285714285714,4,2,1,5,0,0
104041,-71.4285714285714,4,2,1,70,0,0
104521,-66.6666666666667,4,2,1,70,0,0
104581,-66.6666666666667,4,2,1,5,0,0
104641,-66.6666666666667,4,2,1,70,0,0
104701,-66.6666666666667,4,2,1,5,0,0
104761,-66.6666666666667,4,2,1,70,0,0
104821,-66.6666666666667,4,2,1,5,0,0
105001,-76.9230769230769,4,2,1,70,0,0
105061,-66.6666666666667,4,2,1,5,0,0
105241,-55.5555555555556,4,2,1,70,0,0
105780,-55.5555555555556,4,2,1,5,0,0
105841,-55.5555555555556,4,2,1,70,0,0
106980,-55.5555555555556,4,2,1,5,0,0
107041,-76.9230769230769,4,2,1,70,0,0
107220,-76.9230769230769,4,2,1,5,0,0
107281,-76.9230769230769,4,2,1,70,0,0
107641,-90.9090909090909,4,2,1,70,0,0
107821,-90.9090909090909,4,2,1,5,0,0
107881,-71.4285714285714,4,2,1,70,0,0
107940,-71.4285714285714,4,2,1,5,0,0
108001,-71.4285714285714,4,2,1,70,0,0
108060,-71.4285714285714,4,2,1,5,0,0
108121,-71.4285714285714,4,2,1,70,0,0
108180,-71.4285714285714,4,2,1,5,0,0
108361,-76.9230769230769,4,2,1,70,0,0
108420,-76.9230769230769,4,2,1,5,0,0
108481,-76.9230769230769,4,2,1,70,0,0
108540,-76.9230769230769,4,2,1,5,0,0
108601,-76.9230769230769,4,2,1,70,0,0
108661,-76.9230769230769,4,2,1,5,0,0
108841,-76.9230769230769,4,2,1,70,0,0
108901,-76.9230769230769,4,2,1,5,0,0
109081,-55.5555555555556,4,2,1,70,0,0
109620,-55.5555555555556,4,2,1,5,0,0
109681,-55.5555555555556,4,2,1,70,0,0
109740,-55.5555555555556,4,2,1,5,0,0
109801,-55.5555555555556,4,2,1,70,0,0
110041,-66.6666666666667,4,2,1,70,0,0
110521,-66.6666666666667,4,2,1,70,0,0
110941,-50,4,2,1,5,0,0
111001,-83.3333333333333,4,2,1,70,0,0
111060,-83.3333333333333,4,2,1,5,0,0
111121,-83.3333333333333,4,2,1,70,0,0
111660,-83.3333333333333,4,2,1,5,0,0
111721,-83.3333333333333,4,2,1,70,0,0
111900,-83.3333333333333,4,2,1,5,0,0
111961,-83.3333333333333,4,2,1,70,0,0
112140,-83.3333333333333,4,2,1,5,0,0
112201,-66.6666666666667,4,2,1,70,0,0
112261,-66.6666666666667,4,2,1,5,0,0
112321,-66.6666666666667,4,2,1,70,0,0
112381,-66.6666666666667,4,2,1,5,0,0
112441,-66.6666666666667,4,2,1,70,0,0
112501,-66.6666666666667,4,2,1,5,0,0
112681,-66.6666666666667,4,2,1,70,0,0
112741,-66.6666666666667,4,2,1,5,0,0
112921,-55.5555555555556,4,2,1,70,0,0
113340,-55.5555555555556,4,2,1,5,0,0
113401,-55.5555555555556,4,2,1,70,0,0
113461,-55.5555555555556,4,2,1,5,0,0
113521,-55.5555555555556,4,2,1,70,0,0
114300,-55.5555555555556,4,2,1,5,0,0
114361,-76.9230769230769,4,2,1,70,0,0
114781,-50,4,2,1,5,0,0
114841,-76.9230769230769,4,2,1,70,0,0
114900,-76.9230769230769,4,2,1,5,0,0
114961,-76.9230769230769,4,2,1,70,0,0
115860,-76.9230769230769,4,2,1,5,0,0
116041,-76.9230769230769,4,2,1,70,0,0
116281,-55.5555555555556,4,2,1,70,0,0
116700,-55.5555555555556,4,2,1,5,0,0
116761,-66.6666666666667,4,2,1,70,0,0
116821,-66.6666666666667,4,2,1,5,0,0
116881,-66.6666666666667,4,2,1,70,0,0
116941,-66.6666666666667,4,2,1,5,0,0
117001,-66.6666666666667,4,2,1,70,0,0
117241,-125,4,2,1,70,0,0
117420,-83.3333333333333,4,2,1,5,0,0
117481,-83.3333333333333,4,2,1,70,0,0
117540,-83.3333333333333,4,2,1,5,0,0
117601,-83.3333333333333,4,2,1,70,0,0
117660,-83.3333333333333,4,2,1,5,0,0
117721,-71.4285714285714,4,2,1,55,0,0
117900,-83.3333333333333,4,2,1,5,0,0
117961,-83.3333333333333,4,2,1,55,0,0
118020,-83.3333333333333,4,2,1,5,0,0
118081,-83.3333333333333,4,2,1,55,0,0
118140,-83.3333333333333,4,2,1,5,0,0
118201,-83.3333333333333,4,2,1,55,0,0
118921,-71.4285714285714,4,2,1,55,0,0
121020,-71.4285714285714,4,2,1,5,0,0
121081,-71.4285714285714,4,2,1,55,0,0
121561,-111.111111111111,4,2,1,55,0,0
124441,-52.6315789473684,4,2,1,55,0,0
124921,-45.4545454545455,4,2,1,55,0,0
125401,-66.6666666666667,4,2,1,55,0,0
125461,-66.6666666666667,4,2,1,5,0,0
125521,-66.6666666666667,4,2,1,55,0,0
125581,-66.6666666666667,4,2,1,5,0,0
125641,-66.6666666666667,4,2,1,55,0,0
125701,-66.6666666666667,4,2,1,5,0,0
125761,-83.3333333333333,4,2,1,55,0,0
126112,480,4,2,1,55,1,0
126112,-66.6666666666667,4,2,1,55,0,0
127312,480,4,2,1,50,1,0
127312,-66.6666666666667,4,2,1,50,0,0
128512,472.44094488189,4,2,1,50,1,0
128512,-66.6666666666667,4,2,1,50,0,0
129220,480,4,2,1,50,1,0
129220,-58.8235294117647,4,2,1,55,0,0
129698,-66.6666666666667,4,2,1,55,0,0
129938,-100,4,2,1,55,0,0
130118,-100,4,2,1,5,0,0
130178,-100,4,2,1,55,0,0
130238,-100,4,2,1,5,0,0
130298,-100,4,2,1,55,0,0
130598,-100,4,2,1,5,0,0
130778,-100,4,2,1,55,0,0
130838,-100,4,2,1,5,0,0
131018,-500,4,2,1,55,0,0
132098,470.588235294118,4,2,1,50,1,0
132098,-100,4,2,1,55,0,0
133081,480,4,2,1,50,1,0
133321,-333.333333333333,4,2,1,34,0,0

[Colours]
Combo1 : 159,193,227
Combo2 : 179,223,184
Combo3 : 131,205,175

[HitObjects]
105,261,8281,6,0,L|2:283,1,100,0|0,3:0|3:0,0:0:0:0:
163,48,8761,2,0,P|208:106|217:180,1,150,8|8,2:0|2:0,0:0:0:0:
218,181,9241,2,0,L|334:144,1,100,0|0,3:0|3:0,0:0:0:0:
512,365,9721,6,0,L|406:342,1,100,8|0,2:0|3:0,0:0:0:0:
313,363,10081,1,0,3:0:0:0:
313,363,10201,2,0,L|341:251,1,100,0|0,3:0|3:0,0:0:0:0:
438,6,10681,2,0,L|473:117,1,100,8|0,2:0|3:0,0:0:0:0:
366,177,11041,1,8,2:0:0:0:
366,177,11161,2,0,L|482:212,1,100,0|0,3:0|3:0,0:0:0:0:
468,101,11641,1,8,2:0:0:0:
313,309,11881,6,2,L|203:338,1,100,2|0,3:3|3:0,0:1:0:0:
103,200,12361,2,0,L|240:240,1,100,0|8,3:0|2:0,0:0:0:0:
216,334,12841,2,0,L|155:349,1,50,0|8,3:0|2:0,0:0:0:0:
198,228,13081,2,0,L|223:122,1,100,0|0,3:0|3:0,0:0:0:0:
0,0,13561,6,0,L|23:97,1,100,8|0,2:0|3:0,0:0:0:0:
133,88,13921,1,0,3:0:0:0:
133,88,14041,2,0,L|108:185,1,100,0|0,3:0|3:0,0:0:0:0:
7,335,14521,1,8,2:0:0:0:
7,335,14761,2,0,L|-2:276,1,50,0|8,3:0|2:0,0:0:0:0:
104,309,15001,6,0,L|231:338,1,100,0|0,3:0|3:0,0:0:0:0:
495,210,15481,2,0,L|383:247,1,100,8|2,2:0|3:0,0:0:0:0:
338,367,15841,1,0,0:0:0:0:
338,367,15961,2,0,L|309:253,1,100,0|0,3:0|3:0,0:0:0:0:
363,0,16441,6,0,P|425:68|430:153,1,150,8|8,2:0|2:0,0:0:0:0:
434,122,16921,2,0,L|319:156,1,100,0|0,3:0|3:0,0:0:0:0:
490,383,17401,2,0,L|508:284,1,100,8|0,2:0|3:0,0:0:0:0:
406,230,17761,1,0,3:0:0:0:
406,230,17881,2,0,L|309:255,1,100,0|0,3:0|3:0,0:0:0:0:
60,74,18361,6,0,L|155:102,1,100,8|0,2:0|3:0,0:0:0:0:
188,206,18721,1,8,2:0:0:0:
188,206,18841,2,0,L|175:256,1,50,0|0,3:0|3:0,0:0:0:0:
155,98,19081,1,0,3:0:0:0:
447,313,19321,2,0,L|471:200,1,100,8|2,2:0|3:0,0:0:0:0:
397,141,19681,1,0,0:0:0:0:
397,141,19801,2,0,L|295:161,1,100,0|0,3:0|3:0,0:0:0:0:
307,278,20281,5,8,2:0:0:0:
470,71,20521,2,0,L|461:22,1,50,0|8,3:0|2:0,0:0:0:0:
298,160,20761,2,0,L|200:135,1,100,0|0,3:0|3:0,0:0:0:0:
264,40,21241,1,8,2:0:0:0:
85,217,21481,1,0,3:0:0:0:
85,217,21961,5,2,2:3:0:0:
85,217,22321,5,2,2:3:0:0:
85,217,23161,6,0,P|136:172|133:104,1,140,2|0,2:0|0:0,0:0:0:0:
133,103,23641,6,0,P|155:227|280:240,1,269.999991760254,4|0,3:2|0:0,2:0:0:0:
369,179,24121,2,0,L|386:110,1,44.999998626709,8|0,2:0|0:0,0:0:0:0:
379,135,24601,6,0,L|398:237,1,89.9999972534181,2|2,2:0|2:0,0:0:0:0:
272,112,24841,1,2,3:2:0:0:
272,112,24961,2,0,L|294:17,1,89.9999972534181,2|8,2:2|2:0,2:0:0:0:
400,41,25201,2,0,L|496:1,1,89.9999972534181,2|0,2:0|2:0,2:0:0:0:
292,24,25441,6,0,P|206:44|126:7,1,179.999994506836,2|0,2:0|2:0,2:0:0:0:
120,213,25801,2,0,L|199:271,1,89.9999972534181,2|0,3:2|0:0,0:0:0:0:
68,124,26041,2,0,L|54:72,1,44.999998626709,8|0,2:0|0:0,0:0:0:0:
52,86,26521,2,0,L|38:134,1,50,0|0,2:0|0:0,2:0:0:0:
13,271,26761,2,0,L|1:223,1,50,0|0,3:0|0:0,0:0:0:0:
285,154,27001,2,0,P|227:198|140:184,1,150,10|0,2:0|0:0,2:0:0:0:
153,191,27481,6,0,P|175:186|291:370,1,269.999991760254,2|0,3:2|0:0,2:0:0:0:
219,325,27961,2,0,L|160:347,1,44.999998626709,8|0,2:0|0:0,0:0:0:0:
176,340,28081,2,0,L|372:381,1,179.999994506836
455,318,28441,1,2,2:0:0:0:
455,318,28561,2,0,L|474:191,1,89.9999972534181,2|0,2:0|3:0,2:0:0:0:
355,127,28801,2,0,L|369:216,1,89.9999972534181,2|8,2:0|2:0,2:0:0:0:
258,121,29041,2,0,L|434:83,1,179.999994506836,2|2,2:0|2:0,2:0:0:0:
264,245,29401,6,0,L|65:202,1,179.999994506836,0|0,3:2|3:2,2:0:0:0:
0,260,29761,1,0,2:0:0:0:
7,265,29881,2,0,P|70:206|54:121,1,179.999994506836,8|0,2:0|0:0,2:0:0:0:
168,0,30241,1,0,2:0:0:0:
168,0,30361,2,0,L|147:92,1,89.9999972534181,0|8,3:0|2:0,0:0:0:0:
282,42,30601,1,0,2:0:0:0:
54,121,30841,2,0,L|220:162,1,150,10|2,2:0|3:0,0:0:0:0:
338,151,31321,6,0,P|207:193|208:325,1,269.999991760254,6|0,3:2|0:0,2:0:0:0:
295,372,31801,2,0,L|357:356,1,44.999998626709,8|0,2:0|0:0,0:0:0:0:
338,360,32281,2,0,L|360:256,1,89.9999972534181,2|2,2:0|2:0,2:0:0:0:
473,151,32521,1,0,3:0:0:0:
473,151,32641,2,0,L|491:239,2,89.9999972534181,2|8|0,2:0|2:0|0:0,2:0:0:0:
202,109,33001,2,0,P|269:185|356:178,1,179.999994506836,2|0,2:0|3:2,2:0:0:0:
341,184,33481,6,0,L|367:82,1,89.9999972534181,2|0,3:2|0:0,2:0:0:0:
183,253,33721,2,0,L|197:315,1,44.999998626709,8|0,2:0|0:0,0:0:0:0:
193,297,34081,2,0,L|16:264,1,179.999994506836,2|0,2:0|0:0,2:0:0:0:
0,384,34441,2,0,L|105:358,1,89.9999972534181,2|0,3:2|2:3,0:0:0:0:
16,264,34681,2,0,L|43:148,1,89.9999972534181,10|0,2:0|0:0,0:0:0:0:
268,61,34921,6,0,P|205:138|114:130,2,179.999994506836,2|0|0,2:0|3:2|0:0,2:0:0:0:
233,145,35641,2,0,L|272:235,1,89.9999972534181,10|0,2:0|2:0,2:0:0:0:
389,244,35881,2,0,P|454:191|442:81,1,179.999994506836,2|0,2:0|2:0,2:0:0:0:
85,250,36361,2,0,P|156:322|264:308,1,179.999994506836,2|8,3:2|2:0,2:0:0:0:
328,350,36721,1,0,2:0:0:0:
328,350,36841,2,0,L|308:253,1,89.9999972534181,10|0,2:3|2:0,2:0:0:0:
262,18,37081,6,0,B|251:118|223:93|217:191,1,179.999994506836,2|0,3:2|3:2,0:0:0:0:
315,157,37441,2,0,P|354:177|397:191,1,89.9999972534181,0|12,3:2|2:0,0:0:0:0:
162,38,37681,1,0,0:0:0:0:
156,34,37802,2,0,P|115:50|70:58,1,89.9999972534181,2|0,2:3|2:0,2:0:0:0:
199,263,38041,5,8,0:0:0:0:
386,36,38281,1,0,3:0:0:0:
356,248,38521,5,8,2:3:0:0:
315,157,38641,1,8,2:3:0:0:
418,161,38761,1,4,2:3:0:0:
226,72,39001,6,0,P|216:118|209:160,1,89.9999972534181,0|8,2:0|2:1,0:0:0:0:
434,372,39961,2,0,P|447:325|453:284,1,89.9999972534181,0|8,2:0|2:1,0:0:0:0:
8,287,40921,2,0,P|50:298|104:311,1,89.9999972534181,0|8,2:0|2:1,0:0:0:0:
319,262,41761,1,0,0:0:0:0:
319,262,41881,2,0,P|275:272|226:284,1,89.9999972534181,0|8,2:0|2:1,0:0:0:0:
165,43,42601,6,0,B|156:118|146:103|136:175,1,134.999995880127,0|8,2:0|2:1,0:0:0:0:
344,358,43561,2,0,P|340:306|334:269,1,89.9999972534181,0|2,0:0|2:0,0:0:0:0:
391,191,44161,1,2,2:0:0:0:
391,191,44281,2,0,L|427:197,1,25,8|2,2:1|2:0,0:0:0:0:
334,269,44521,2,0,B|250:282|258:290|187:304,1,150,2|8,2:0|2:1,0:0:0:0:
0,180,45481,2,0,P|52:191|103:204,1,100,2|0,2:0|2:0,0:0:0:0:
181,169,46081,1,0,0:0:0:0:
181,169,46201,2,0,L|197:89,1,75,8|0,2:1|0:0,0:0:0:0:
195,95,46681,6,0,P|263:92|306:138,1,120,0|0,2:0|0:0,0:0:0:0:
396,196,47161,2,0,P|353:236|295:239,1,120,8|0,2:1|0:0,0:0:0:0:
213,361,47641,2,0,P|163:306|168:247,1,120,0|0,2:0|0:0,0:0:0:0:
0,201,48121,2,0,P|61:160|149:172,1,150,8|0,2:1|0:0,0:0:0:0:
134,164,48601,6,0,B|151:71|164:121|174:11,1,150,0|0,2:0|0:0,0:0:0:0:
228,206,49081,2,0,B|315:215|287:235|386:247,1,150,8|0,2:1|0:0,0:0:0:0:
140,268,49561,2,0,B|59:287|81:300|-8:334,1,150,0|0,2:0|0:0,0:0:0:0:
3,329,50041,2,0,P|26:334|66:349,1,50,8|0,2:1|0:0,0:0:0:0:
97,161,50281,2,0,L|50:142,1,50,0|0,2:0|0:0,0:0:0:0:
50,142,50521,6,0,L|30:207,2,55.0000016784668,2|2|2,2:0|2:0|2:0,0:0:0:0:
377,159,51001,2,0,L|359:86,2,55.0000016784668,8|2|2,2:1|2:0|2:0,0:0:0:0:
250,196,51361,6,0,B|150:219|193:228|96:254,1,165.000005035401,2|0,2:0|2:0,2:0:0:0:
214,52,51961,2,0,P|202:22|199:-8,1,55.0000016784668,8|0,2:1|2:0,0:0:0:0:
344,139,52201,2,0,P|395:159|464:168,1,110.000003356934,0|8,2:0|2:0,0:0:0:0:
449,167,52501,1,8,0:3:0:0:
449,167,52561,2,0,L|461:92,1,64.9999970245363,8|8,2:3|2:3,0:0:0:0:
361,263,52801,1,4,2:3:0:0:
361,263,52861,1,4,2:3:0:0:
361,263,52921,2,0,L|376:329,1,64.9999970245363,4|8,2:3|2:0,0:0:0:0:
449,281,53161,2,0,L|525:303,1,64.9999970245363,0|0,3:0|0:0,0:0:0:0:
239,125,53401,6,0,B|148:137|165:165|51:187,2,179.999994506836,8|8|4,2:0|2:3|2:3,2:0:0:0:
302,51,54001,1,4,2:3:0:0:
370,135,54121,2,0,L|357:208,1,75.0000028610231,4|0,2:3|0:0,0:0:0:0:
139,381,54361,6,0,P|107:343|106:266,1,125,4|0,3:1|0:0,2:1:0:0:
104,269,54721,2,0,L|173:254,1,59.9999981689454,2|8,2:3|2:0,2:0:0:0:
239,316,54961,2,0,L|314:340,1,59.9999981689454,2|0,2:3|2:0,2:0:0:0:
361,259,55201,2,0,L|492:225,1,119.999996337891,2|2,2:3|2:3,2:0:0:0:
477,228,55561,2,0,L|493:285,1,59.9999981689454,0|2,3:0|2:3,0:0:0:0:
329,129,55801,2,0,L|344:58,1,59.9999981689454,8|0,2:0|0:0,2:0:0:0:
418,151,56041,2,0,L|481:132,1,59.9999981689454,0|2,2:0|2:3,0:0:0:0:
205,326,56281,5,2,3:0:0:0:
205,326,56521,6,0,L|155:354,1,37.5000014305115,2|0,3:2|2:0,2:0:0:0:
332,321,56761,6,0,L|369:338,1,37.5000014305115,8|0,2:0|0:0,2:0:0:0:
248,230,57001,6,0,L|244:185,1,32.4999985122681,2|0,2:0|0:0,2:0:0:0:
367,337,57241,6,2,L|454:380,1,89.9999972534181,2|0,2:3|2:0,2:1:0:0:
172,344,57481,2,0,L|80:388,1,89.9999972534181,2|0,3:1|0:0,0:0:0:0:
245,197,57721,2,0,B|242:3,1,179.999994506836,8|2,2:0|2:3,0:0:0:0:
233,5,58081,5,2,2:3:0:0:
151,44,58201,2,0,P|217:99|311:85,1,179.999994506836,0|0,3:0|2:0,2:0:0:0:
446,44,58561,6,0,L|430:1,1,44.999998626709,2|2,2:3|2:3,0:0:0:0:
430,1,58681,2,2,B|417:109|392:77|385:175,1,179.999994506836,8|0,2:0|0:0,2:1:0:0:
471,211,59041,2,0,B|478:291|488:276|493:342,1,129.999994049073,2|2,2:3|2:3,0:0:0:0:
394,357,59401,2,0,P|357:364|321:384,1,64.9999970245363,0|2,3:0|2:3,0:0:0:0:
276,223,59641,1,8,2:0:0:0:
276,223,59761,1,2,2:3:0:0:
276,223,59881,2,0,P|311:237|357:247,1,64.9999970245363,0|2,2:0|2:3,0:0:0:0:
52,277,60121,5,2,3:0:0:0:
52,277,60361,6,0,L|10:289,1,32.4999985122681,2|0,3:2|2:0,2:0:0:0:
32,134,60601,6,0,L|-3:120,1,32.4999985122681,8|0,2:0|0:0,2:0:0:0:
152,69,60841,6,0,L|152:18,1,32.4999985122681,2|0,2:0|0:0,2:0:0:0:
163,353,61081,6,2,L|76:378,1,89.9999972534181,2|0,2:3|2:0,2:1:0:0:
116,165,61321,2,0,L|31:133,1,89.9999972534181,0|0,3:0|2:0,2:0:0:0:
260,89,61561,2,0,L|258:0,1,89.9999972534181,8|8,2:0|2:3,2:0:0:0:
257,0,61801,1,8,2:3:0:0:
204,254,62041,6,0,P|288:278|367:233,1,179.999994506836,4|2,3:2|2:3,0:0:0:0:
372,143,62401,2,0,L|434:116,1,59.9999981689454,2|8,2:3|2:0,2:0:0:0:
459,238,62641,2,0,L|518:269,1,59.9999981689454,2|0,0:3|2:0,0:0:0:0:
396,346,62881,2,0,B|301:338|302:374|210:372,1,179.999994506836,2|2,0:3|3:3,0:0:0:0:
98,194,63481,2,0,L|114:129,1,59.9999981689454,8|0,2:0|2:0,2:0:0:0:
2,263,63721,2,0,L|18:328,1,59.9999981689454,2|2,2:3|2:3,2:0:0:0:
307,207,63961,5,0,3:0:0:0:
307,207,64201,6,0,L|350:217,1,37.5000014305115,2|0,3:2|2:0,2:0:0:0:
243,321,64441,6,0,L|205:331,1,37.5000014305115,8|0,2:0|0:0,2:2:0:0:
343,215,64681,6,0,L|385:202,1,32.4999985122681,2|0,2:0|0:0,2:0:0:0:
207,331,64921,6,2,L|119:308,1,89.9999972534181,0|0,2:0|2:0,2:1:0:0:
374,205,65161,2,0,P|414:196|466:184,1,89.9999972534181,2|0,3:3|0:0,0:0:0:0:
237,0,65401,2,0,P|185:108|227:170,1,179.999994506836,8|2,2:2|2:3,2:0:0:0:
289,173,65761,5,2,2:3:0:0:
278,85,65881,2,0,B|158:98|189:112|100:125,1,179.999994506836,2|0,3:3|2:0,2:0:0:0:
312,264,66241,1,2,2:3:0:0:
383,202,66361,1,8,2:0:0:0:
383,202,66481,2,0,P|439:270|427:359,1,179.999994506836,2|0,0:3|0:0,0:0:0:0:
205,384,66841,5,2,2:3:0:0:
205,384,66961,2,0,L|228:309,1,64.9999970245363,2|0,2:3|3:0,2:0:0:0:
139,246,67201,2,0,L|72:272,1,64.9999970245363,2|8,2:3|2:0,2:0:0:0:
131,118,67441,1,2,2:3:0:0:
131,118,67561,2,0,L|47:97,1,64.9999970245363,8|10,2:0|2:3,0:0:0:0:
115,11,67801,5,4,2:3:0:0:
202,6,67921,1,4,2:3:0:0:
269,59,68041,1,4,2:3:0:0:
283,142,68161,1,4,2:3:0:0:
242,216,68281,2,2,L|148:243,1,89.9999972534181,12|0,2:0|0:0,2:1:0:0:
155,240,68761,6,2,L|135:330,1,75.0000028610231,8|0,2:0|2:0,2:1:0:0:
373,75,69001,2,2,L|361:-10,1,75.0000028610231,8|0,2:3|2:0,2:1:0:0:
303,299,69241,2,0,P|400:346|471:307,1,179.999994506836,4|0,2:3|0:0,0:0:0:0:
389,230,69721,6,2,L|-4:331,1,400,4|8,3:1|2:0,2:1:0:0:
1,329,70441,2,0,L|251:380,1,225.000008583069,2|0,2:1|2:0,2:0:0:0:
355,162,70921,2,2,L|177:213,1,150.000005722046,0|8,3:0|2:0,2:1:0:0:
210,203,71401,2,0,L|283:219,1,75.0000028610231,2|0,2:1|2:3,2:0:0:0:
501,24,71641,2,0,L|375:65,1,112.500004291535,0|0,3:0|2:0,2:0:0:0:
394,58,71881,6,0,L|417:146,1,75.0000028610231,2|0,3:2|2:3,2:0:0:0:
412,130,72121,6,0,L|437:224,1,85.0000016212464,8|0,2:0|2:0,2:0:0:0:
433,212,72361,6,0,L|457:316,1,85.0000016212464,2|0,2:0|2:0,2:0:0:0:
243,232,72601,6,2,L|261:159,1,75.0000028610231,2|0,2:3|2:0,2:1:0:0:
452,294,72841,2,0,L|419:394,1,75.0000028610231,2|0,3:1|0:0,0:0:0:0:
261,159,73081,2,0,L|406:101,1,150,8|0,2:0|0:0,2:0:0:0:
400,103,73561,6,2,P|227:80|307:170,1,419.999987182618,0|8,3:0|2:0,2:1:0:0:
301,169,74281,2,0,P|354:245|261:254,1,225.000008583069,2|0,2:1|2:0,2:0:0:0:
78,223,74761,2,2,P|12:250|44:317,1,150.000005722046,0|8,3:1|2:0,2:1:0:0:
32,311,75241,2,2,P|70:319|103:297,1,75.0000028610231,0|0,2:0|2:0,2:1:0:0:
310,163,75481,2,0,P|268:127|216:141,1,112.500004291535,0|0,3:0|2:0,2:0:0:0:
216,141,75721,6,0,L|191:215,1,75.0000028610231,2|0,3:2|2:0,2:0:0:0:
192,212,75961,6,0,L|206:295,1,75.0000028610231,8|0,2:0|2:0,2:0:0:0:
204,285,76201,6,0,L|178:376,1,75.0000028610231,2|0,2:2|2:0,2:0:0:0:
84,209,76441,6,2,L|64:111,1,75.0000028610231,2|0,2:3|2:0,2:1:0:0:
317,275,76681,2,2,L|292:371,1,75.0000028610231,0|0,3:0|0:0,2:0:0:0:
157,71,76921,1,10,0:0:0:0:
157,71,77041,1,8,0:3:0:0:
157,71,77161,2,0,L|184:-21,1,75.0000028610231,8|4,2:3|2:3,2:0:0:0:
8,0,77401,6,2,L|420:93,1,419.999987182618,4|8,3:2|2:0,2:1:0:0:
417,92,78121,2,0,L|179:147,1,225.000008583069,2|0,2:1|2:0,2:0:0:0:
24,231,78601,2,2,L|177:267,1,150.000005722046,0|8,3:0|2:0,2:1:0:0:
170,265,79081,2,0,L|97:282,1,75.0000028610231,2|0,0:1|2:0,0:0:0:0:
328,361,79321,2,0,L|437:384,1,112.500004291535,2|0,3:3|0:0,2:0:0:0:
437,384,79561,6,0,L|451:310,1,75.0000028610231,2|0,3:2|2:3,2:0:0:0:
450,310,79801,6,0,L|464:226,1,85.0000016212464,8|0,2:0|0:0,2:0:0:0:
463,226,80041,6,0,L|477:144,1,80,2|0,2:2|2:0,2:0:0:0:
253,280,80281,5,2,2:3:0:0:
253,280,80401,2,0,L|167:302,1,75.0000028610231,2|0,2:3|3:0,0:0:0:0:
275,159,80641,2,0,L|251:84,1,75.0000028610231,2|8,2:3|2:0,2:0:0:0:
180,298,80881,2,0,L|21:255,1,150.000005722046,2|2,2:3|2:3,2:0:0:0:
126,135,81241,6,0,L|156:42,1,75.0000028610231,2|0,3:0|0:0,2:0:0:0:
364,203,81481,2,0,L|395:362,1,150.000005722046,2|8,2:3|2:0,0:0:0:0:
494,269,81841,1,2,2:3:0:0:
494,269,81961,2,0,L|511:197,1,64.9999970245363,2|0,2:3|2:0,2:3:0:0:
239,214,82201,6,0,L|102:250,1,129.999994049073,2|0,2:3|3:0,2:0:0:0:
292,112,82561,2,0,L|364:133,1,64.9999970245363,2|8,2:3|2:0,2:0:0:0:
200,39,82801,2,0,L|137:57,1,64.9999970245363,2|0,2:3|2:0,2:0:0:0:
354,130,83041,2,0,L|422:110,2,64.9999970245363,2|4|0,2:3|3:2|0:0,0:0:0:0:
180,262,83401,5,10,3:0:0:0:
180,262,83521,1,8,2:3:0:0:
262,334,83641,2,0,P|291:283|289:224,1,119.999996337891,10|6,3:0|3:0,2:0:0:0:
180,115,84001,1,4,2:3:0:0:
261,52,84121,5,8,3:2:0:0:
261,52,84241,2,2,L|281:130,1,59.9999981689454,8|8,3:0|3:0,2:1:0:0:
91,250,84481,1,4,2:3:0:0:
37,184,84601,1,8,2:0:0:0:
37,184,84721,2,0,L|54:117,1,59.9999981689454,4|4,2:3|2:3,2:0:0:0:
289,224,84961,6,0,L|432:253,1,119.999996337891,4|0,2:3|3:0,0:0:0:0:
503,271,85321,6,0,P|426:275|387:368,1,170.000003242493,8|0,2:0|3:0,0:0:0:0:
507,144,85681,2,0,P|485:65|407:38,1,170.000003242493,8|0,2:3|3:0,0:0:0:0:
237,175,86041,2,0,L|327:195,1,85.0000016212464,8|8,2:0|2:3,0:0:0:0:
320,193,86221,1,8,2:3:0:0:
320,193,86281,2,0,L|339:98,1,85.0000016212464,8|8,2:3|2:3,0:0:0:0:
255,53,86521,5,4,2:3:0:0:
169,68,86641,1,4,2:3:0:0:
121,140,86761,1,4,2:3:0:0:
132,227,86881,1,4,2:3:0:0:
199,292,87001,6,0,L|447:342,2,239.999992675781,4|0|0,3:2|3:0|3:0,0:0:0:0:
189,298,88429,1,0,3:0:0:0:
189,298,88905,1,0,3:0:0:0:
189,298,89381,1,0,3:0:0:0:
189,298,89871,6,0,L|159:315,1,25,8|8,2:0|2:0,0:0:0:0:
94,254,90106,2,0,L|69:249,2,25,8|8|4,2:3|2:3|2:3,0:0:0:0:
22,367,90576,2,0,L|21:349,2,12.5,4|4|4,2:3|2:3|2:3,0:0:0:0:
110,353,90812,5,4,2:3:0:0:
110,353,91047,1,4,2:3:0:0:
0,167,91301,2,0,L|103:200,1,100,12|0,2:0|3:0,0:0:0:0:
95,197,92268,1,0,3:0:0:0:
95,197,92761,1,0,3:0:0:0:
198,295,93241,1,0,3:0:0:0:
340,196,93719,2,0,L|386:209,1,37.5000014305115,2|2,3:2|2:2,0:0:0:0:
422,200,93959,2,0,L|468:187,1,37.5000014305115,2|2,2:2|2:2,0:0:0:0:
476,224,94198,2,0,L|520:235,1,37.5000014305115,2|2,3:2|2:2,0:0:0:0:
500,266,94438,2,0,L|515:307,1,37.5000014305115,2|2,2:2|2:2,0:0:0:0:
329,166,94677,6,0,L|346:83,1,75.0000028610231,4|2,3:2|2:2,0:0:0:0:
218,282,95157,2,0,L|235:365,1,75.0000028610231,2|2,3:2|2:2,0:0:0:0:
82,135,95636,2,0,L|100:55,1,75.0000028610231,2|2,3:2|2:2,0:0:0:0:
312,210,96115,2,0,L|388:227,1,75.0000028610231,2|2,3:2|2:2,0:0:0:0:
127,328,96594,6,0,L|47:350,1,75.0000028610231,2|2,3:2|0:0,0:0:0:0:
361,84,97074,2,0,L|369:2,1,75.0000028610231,0|2,3:0|2:0,0:0:0:0:
54,118,97553,2,0,L|77:193,1,75.0000028610231,2|2,3:0|2:0,0:0:0:0:
425,360,98032,2,0,L|441:277,1,75.0000028610231,2|2,3:0|2:0,0:0:0:0:
249,182,98511,5,0,3:0:0:0:
249,182,98994,2,0,L|233:256,1,75.0000028610231,0|0,3:0|3:0,0:0:0:0:
140,272,99236,2,0,L|167:369,1,75.0000028610231,0|0,3:0|3:0,0:0:0:0:
347,242,99478,2,0,L|378:174,1,75.0000028610231,0|0,3:0|3:0,0:0:0:0:
126,90,99720,2,0,L|112:17,1,75.0000028610231,0|0,3:0|3:0,0:0:0:0:
407,57,99962,5,6,2:3:0:0:
407,57,100043,1,4,0:3:0:0:
407,57,100123,1,4,0:3:0:0:
407,57,100204,2,0,P|273:111|245:252,1,300.000011444092,10|2,2:3|2:3,0:0:0:0:
245,252,100921,1,2,2:3:0:0:
245,252,101161,1,2,2:3:0:0:
113,323,101401,5,8,2:0:0:0:
349,108,101641,1,8,2:3:0:0:
38,145,101881,5,8,2:3:0:0:
142,180,102001,1,8,2:3:0:0:
132,70,102121,1,4,2:3:0:0:
249,218,102361,6,2,P|285:141|246:67,1,175,4|0,3:1|2:0,2:0:0:0:
247,68,102841,6,2,P|369:120|362:267,1,284.999992389679,8|0,2:2|0:0,2:1:0:0:
239,336,103321,1,2,2:3:0:0:
239,336,103441,2,0,L|161:365,1,69.9999978637696,2|0,2:3|3:0,2:0:0:0:
94,274,103681,2,0,L|20:257,1,69.9999978637696,2|8,2:3|2:0,2:0:0:0:
131,154,103921,1,2,2:3:0:0:
131,154,104041,2,0,L|91:86,1,69.9999978637696,0|2,3:3|2:3,2:0:0:0:
398,117,104281,5,2,3:3:0:0:
398,117,104521,6,0,L|449:129,1,37.5000014305115,2|0,3:2|2:0,2:0:0:0:
322,254,104761,6,0,L|285:267,1,37.5000014305115,8|0,2:0|0:0,2:0:0:0:
261,115,105001,6,0,L|251:78,1,32.4999985122681,2|0,2:2|0:0,2:0:0:0:
426,220,105241,6,2,L|521:247,1,89.9999972534181,2|0,2:3|2:0,2:1:0:0:
256,87,105481,2,2,L|281:-11,1,89.9999972534181,2|0,3:3|2:0,2:1:0:0:
286,266,105721,2,0,L|95:331,1,179.999994506836,8|2,2:0|0:3,2:0:0:0:
97,324,106081,5,2,2:3:0:0:
184,384,106201,2,0,P|200:298|148:227,1,179.999994506836,0|0,3:0|2:0,2:0:0:0:
85,123,106561,1,2,2:3:0:0:
35,194,106681,1,8,2:0:0:0:
35,194,106801,2,0,P|121:207|188:150,1,179.999994506836,2|2,2:3|2:3,0:0:0:0:
304,141,107161,2,0,L|281:55,1,64.9999970245363,2|2,2:3|2:3,2:0:0:0:
211,0,107401,2,0,L|195:70,1,64.9999970245363,0|0,3:0|2:0,0:0:0:0:
402,130,107641,5,8,0:0:0:0:
447,63,107761,1,2,2:3:0:0:
447,63,107881,2,0,L|512:38,1,69.9999978637696,2|2,2:3|2:3,2:0:0:0:
381,248,108121,5,2,3:0:0:0:
381,248,108361,6,0,L|399:287,1,32.4999985122681,2|0,3:2|2:0,2:0:0:0:
260,155,108601,6,0,L|268:109,1,32.4999985122681,8|0,2:0|0:0,2:0:0:0:
205,304,108841,6,0,L|167:323,1,32.4999985122681,2|0,0:2|0:0,0:0:0:0:
265,122,109081,6,2,L|291:15,1,89.9999972534181,2|0,3:3|2:0,2:1:0:0:
394,277,109321,2,0,L|479:305,1,89.9999972534181,10|0,0:3|2:0,2:0:0:0:
132,224,109561,1,10,2:0:0:0:
132,224,109681,1,10,2:3:0:0:
132,224,109801,2,0,L|47:253,1,89.9999972534181,8|0,2:3|2:0,2:0:0:0:
289,377,110041,5,4,3:2:0:0:
289,377,110521,6,2,B|289:253|303:293|310:152,1,225.000008583069,8|0,2:0|0:0,2:1:0:0:
224,11,111001,1,2,2:3:0:0:
224,11,111121,2,0,L|216:70,1,59.9999981689454,2|0,2:3|3:0,2:0:0:0:
309,153,111361,2,0,L|370:129,1,59.9999981689454,2|8,2:3|2:0,2:0:0:0:
390,22,111601,2,0,L|465:37,2,59.9999981689454,2|0|2,2:3|2:0|2:3,2:0:0:0:
145,195,111961,5,0,3:0:0:0:
145,195,112201,6,0,L|108:202,1,37.5000014305115,2|0,3:2|2:0,2:0:0:0:
246,316,112441,6,0,L|257:366,1,37.5000014305115,8|0,2:0|0:0,2:0:0:0:
342,194,112681,6,0,L|388:204,1,37.5000014305115,2|0,2:2|0:0,2:0:0:0:
152,296,112921,6,2,P|113:315|64:341,1,89.9999972534181,2|0,2:3|2:0,2:1:0:0:
235,119,113161,2,0,P|226:70|214:19,1,89.9999972534181,2|0,3:1|0:0,0:0:0:0:
338,287,113401,2,0,P|420:307|513:330,1,179.999994506836,8|2,2:0|2:3,2:0:0:0:
512,312,113761,5,2,2:3:0:0:
480,230,113881,2,0,P|409:283|419:376,1,179.999994506836,0|0,3:0|2:0,2:0:0:0:
313,189,114241,5,2,2:3:0:0:
313,189,114361,2,0,B|319:74|344:118|353:-9,1,194.999991073609,8|0,2:2|0:0,2:0:0:0:
432,78,114841,1,2,2:3:0:0:
432,78,114961,2,0,L|495:89,1,64.9999970245363,2|0,2:3|3:0,2:0:0:0:
255,35,115201,2,0,L|190:44,1,64.9999970245363,2|8,2:3|2:0,0:0:0:0:
419,205,115441,2,0,L|483:242,1,64.9999970245363,2|0,2:3|2:0,0:0:0:0:
231,222,115681,2,0,L|167:255,1,64.9999970245363,2|8,2:3|2:0,0:0:0:0:
139,252,116041,5,8,2:3:0:0:
163,279,116161,1,8,2:3:0:0:
172,251,116281,2,2,P|278:217|250:325,1,269.999991760254,8|0,2:0|0:0,2:1:0:0:
124,115,116761,6,0,P|134:73|139:28,1,75.0000028610231,10|10,0:0|0:3,0:0:0:0:
253,340,117001,2,0,P|217:350|182:368,1,75.0000028610231,6|2,0:3|0:3,0:0:0:0:
374,135,117241,2,0,P|447:155|515:167,1,140,8|0,2:0|2:0,2:0:0:0:
510,166,117721,6,0,P|441:162|388:205,1,139.999995727539,4|8,3:2|2:0,0:0:0:0:
221,68,118081,2,0,P|266:114|263:181,1,119.999996337891,8|0,2:0|0:0,2:1:0:0:
305,258,118441,2,0,P|287:320|277:386,1,119.999996337891,4|8,3:2|2:0,2:0:0:0:
278,374,118921,6,0,P|138:345|127:201,1,279.999991455078,4|4,3:2|2:3,2:0:0:0:
150,142,119521,1,4,2:3:0:0:
230,171,119641,2,0,P|363:121|507:67,1,279.999991455078,4|0,3:2|0:0,2:0:0:0:
492,72,120601,6,0,L|479:140,1,69.9999978637696,8|0,2:0|0:0,0:0:0:0:
375,320,120841,2,0,L|362:251,1,69.9999978637696,4|0,3:2|0:0,2:0:0:0:
259,42,121081,1,8,2:3:0:0:
267,21,121201,1,8,2:3:0:0:
285,26,121321,2,0,L|314:108,1,69.9999978637696,4|0,2:3|0:0,0:0:0:0:
512,199,121561,6,0,P|447:181|381:168,1,134.999995880127,4|0,3:1|2:0,2:0:0:0:
364,170,122041,2,2,L|315:186,1,44.999998626709,0|0,3:0|2:0,2:1:0:0:
229,299,122281,2,0,L|185:286,1,44.999998626709,8|0,2:0|2:0,2:0:0:0:
133,168,122521,2,0,L|91:184,1,44.999998626709,0|0,3:0|0:0,0:0:0:0:
41,258,122761,5,0,3:0:0:0:
41,258,122841,1,4,0:3:0:0:
41,258,122921,1,4,0:3:0:0:
41,258,123001,2,0,L|-10:237,1,44.999998626709,4|8,2:3|2:3,0:0:0:0:
70,341,123241,6,0,L|73:363,2,22.4999993133545,8|8|4,2:3|0:3|2:0,0:0:0:0:
345,128,124441,6,0,P|403:201|389:293,1,189.999994926453,4|0,3:2|0:0,2:0:0:0:
31,195,124921,2,0,P|27:102|166:19,1,220.000006713867,4|8,3:2|2:0,2:0:0:0:
204,29,125281,1,8,2:0:0:0:
199,119,125401,6,0,B|190:199|174:183|168:272,1,150.000005722046,4|8,3:2|2:2,2:0:0:0:
387,380,125761,2,0,B|368:316|388:315|354:242,1,119.999996337891,4|0,3:2|2:0,2:0:0:0:
279,323,126112,2,0,B|219:330|226:350|127:373,1,150.000005722046,4|0,3:2|3:0,2:0:0:0:
124,370,126412,1,0,3:0:0:0:
113,366,126472,2,0,L|37:349,1,75.0000028610231,0|4,3:0|3:2,0:0:0:0:
176,72,126832,6,0,L|165:22,2,37.5000014305115,4|4|4,2:3|2:3|2:3,0:0:0:0:
198,167,127072,6,0,L|190:212,2,37.5000014305115,4|4|4,2:3|2:3|2:3,0:0:0:0:
102,153,127312,6,0,B|210:134|178:109|331:96,1,225.000008583069,4|0,3:2|0:0,0:0:0:0:
417,172,127792,1,0,3:0:0:0:
417,172,127872,1,4,0:3:0:0:
417,172,127952,1,4,0:3:0:0:
417,172,128032,2,0,L|512:192,1,75.0000028610231,0|0,3:0|3:0,0:0:0:0:
449,48,128272,2,0,L|457:6,2,37.5000014305115,4|4|4,2:3|2:3|2:3,0:0:0:0:
246,41,128512,6,0,P|189:133|230:233,1,225.000008583069,4|0,3:2|0:0,0:0:0:0:
215,336,128984,2,0,L|314:313,1,75.0000028610231,4|4,2:3|2:3,0:0:0:0:
315,145,129220,6,0,L|63:105,1,255.000004863739,4|0,3:2|0:0,2:0:0:0:
63,105,129700,2,0,L|49:28,2,75.0000028610231,8|8|8,2:0|2:3|2:3,0:0:0:0:
118,373,130180,5,8,2:0:0:0:
118,373,130540,6,0,L|131:340,1,25,4|0,3:2|2:0,2:0:0:0:
265,245,130780,6,0,L|259:194,1,50,4|0,3:2|0:0,2:0:0:0:
380,71,131020,6,2,L|353:27,1,50,4|0,3:2|3:0,2:1:0:0:
353,28,132098,5,0,3:0:0:0:
290,89,132215,1,0,3:0:0:0:
313,173,132333,1,8,3:2:0:0:
396,195,132450,1,8,3:2:0:0:
451,266,132568,1,8,2:0:0:0:
425,349,132686,1,8,2:0:0:0:
341,371,132803,1,8,2:0:0:0:
274,311,132921,1,4,3:2:0:0:
425,349,133321,6,0,L|468:334,4,44.999998626709,2|2|2|2|2,2:3|2:3|2:3|2:3|2:3,2:0:0:0:
