osu file format v14

[General]
AudioFilename: audio.mp3
AudioLeadIn: 0
PreviewTime: 52651
Countdown: 0
SampleSet: Soft
StackLeniency: 0.7
Mode: 0
LetterboxInBreaks: 0
WidescreenStoryboard: 1

[Editor]
Bookmarks: 8281,22321,23641,39001,54361,69721,87001,102361,117721,133081
DistanceSpacing: 6
BeatDivisor: 8
GridSize: 16
TimelineZoom: 2.8

[Metadata]
Title:(RE)PLAY
TitleUnicode:(RE)PLAY
Artist:Eden & Trickstar
ArtistUnicode:Eden & Trickstar
Creator:Ascended
Version:(RE)NORMAL
Source:あんさんぶるスターズ!!
Tags:Replay what's whats your scenario あんさんぶるスターズ!! -_ascended_- ascended AirinCat Yahuri Otosaka-Yu Suzuki_1112 ensemble stars!! enstars!! es!! enstars es jpop j-pop japanese japan pop jazz male vocals vocal vocalist gacha mobile phone video game videogame games idol seiyuu voice actor va basic music rhythm Eden & Trickstar COVER SONG SERIES 05 frontier works frontierworks happy elements cacalia studio MOMO"mocha"N UTA Daichi Miura 三浦大知 Takuya Sakai 酒井拓也 Arte Refact Jun Sazanami 漣ジュン Yuuma Yuma Yūma Uchida 内田雄馬 Hiyori Tomoe 巴日和 Natsuki Hanae 花江夏樹 Nagisa Ran 乱凪砂 Junichi Jun'ichi Suwabe 諏訪部順一 Ibara Saegusa 七種茨 Ryota Osaka Ryouta Oosaka Ōsaka Ryōta 逢坂良太 Hokuto Hidaka 氷鷹北斗 Tomoaki Maeno 前野智昭 Subaru Akehoshi 明星スバル Tetsuya Kakihara 柿原徹也 Mao Isara 衣更真緒 Kaji Yuuki Yuki 梶裕貴 Makoto Yuuki Yūki 遊木真 Showtarou Shoutarou Shōtarō Morikubo 森久保祥太郎 and
BeatmapID:4427762
BeatmapSetID:2095363

[Difficulty]
HPDrainRate:3
CircleSize:3
OverallDifficulty:4
ApproachRate:5
SliderMultiplier:1.5
SliderTickRate:1

[Events]
//Background and Video events
0,0,"normal anime boy.jpg",0,0
//Break Periods
2,39201,45481
2,87201,93477
//Storyboard Layer 0 (Background)
//Storyboard Layer 1 (Fail)
//Storyboard Layer 2 (Pass)
//Storyboard Layer 3 (Foreground)
//Storyboard Layer 4 (Overlay)
//Storyboard Sound Samples

[TimingPoints]
601,480,4,2,1,50,1,0
21601,-100,4,2,1,40,0,0
24601,-100,4,2,1,60,0,0
39001,-100,4,2,1,40,0,0
46681,-111.111111111111,4,2,1,45,0,0
52441,-100,4,2,1,55,0,0
54361,-100,4,2,1,65,0,0
69721,-100,4,2,1,75,0,0
87001,476.190476190476,4,2,1,50,1,0
87001,-100,4,2,1,76,0,0
89381,489.795918367347,4,2,1,50,1,0
89871,470.588235294118,4,2,1,50,1,0
91301,487.80487804878,4,2,1,50,1,0
91788,480,4,2,1,50,1,0
92761,479.233226837061,4,2,1,50,1,0
94681,-100,4,2,1,50,0,0
98511,483.870967741935,4,2,1,50,1,0
100441,480,4,2,1,50,1,0
102361,480,4,2,1,50,1,0
102361,-100,4,2,1,70,0,0
117721,-100,4,2,1,55,0,0
126112,480,4,2,1,55,1,0
127312,480,4,2,1,50,1,0
128512,472.44094488189,4,2,1,50,1,0
129220,480,4,2,1,50,1,0
132098,470.588235294118,4,2,1,50,1,0
133081,480,4,2,1,50,1,0

[Colours]
Combo1 : 91,91,91
Combo2 : 182,182,182

[HitObjects]
495,357,8281,5,0,3:0:0:0:
366,253,8761,2,0,P|370:224|373:172,1,75,8|0,2:0|3:0,2:0:0:0:
446,139,9241,2,0,P|441:77|342:30,1,150,0|8,3:0|2:0,2:0:0:0:
210,0,10201,1,0,3:0:0:0:
90,113,10681,1,8,2:0:0:0:
90,113,10921,2,0,L|11:99,2,75,0|0|0,3:0|3:0|3:0,2:0:0:0:
176,109,11641,5,8,2:0:0:0:
176,109,11881,2,0,P|235:141|248:236,1,150,0|2,3:0|3:0,2:1:0:0:
341,358,12841,2,0,P|411:355|448:281,1,150,0|0,3:0|3:0,2:0:0:0:
491,222,13561,1,8,2:0:0:0:
491,222,13801,1,0,3:0:0:0:
241,14,14761,1,0,3:0:0:0:
241,14,15001,2,0,P|226:66|238:168,1,150,0|8,3:0|2:0,2:0:0:0:
301,218,15721,1,2,3:0:0:0:
301,218,15961,1,0,3:0:0:0:
204,351,16441,6,0,P|170:347|124:349,1,75,8|0,2:0|3:0,2:0:0:0:
51,376,16921,2,0,P|37:300|44:210,1,150,0|8,3:0|2:0,2:0:0:0:
26,151,17641,1,0,3:0:0:0:
26,151,17881,1,0,3:0:0:0:
125,19,18361,2,0,P|169:28|203:28,1,75,8|0,2:0|3:0,2:0:0:0:
255,88,18841,2,0,L|329:78,2,75,0|0|8,3:0|3:0|2:0,2:0:0:0:
211,160,19561,5,2,3:0:0:0:
211,160,19801,1,0,3:0:0:0:
50,121,20281,1,8,2:0:0:0:
19,283,20761,1,0,3:0:0:0:
181,312,21241,2,0,B|234:302|244:329|298:320,1,112.5,8|0,2:0|3:0,2:0:0:0:
394,374,23641,6,0,P|444:365|486:268,1,150,4|8,3:2|2:0,2:0:0:0:
386,153,24601,1,2,2:0:0:0:
298,240,24961,2,0,P|265:236|215:231,1,75,2|2,2:0|2:0,2:0:0:0:
161,177,25441,2,0,P|114:188|46:194,1,112.5,2|2,2:0|3:2,2:0:0:0:
6,123,26041,1,8,2:0:0:0:
139,26,26521,1,0,3:0:0:0:
296,74,27001,2,0,P|338:78|375:79,1,75,10|0,2:0|2:0,2:0:0:0:
443,40,27481,6,0,P|488:97|472:198,1,150,2|8,3:2|2:0,2:0:0:0:
488,336,28441,2,0,P|448:332|366:338,1,112.5,2|2,2:0|2:0,2:0:0:0:
341,261,29041,1,2,2:0:0:0:
341,261,29281,2,0,P|301:266|219:275,1,112.5,2|0,2:0|3:2,2:0:0:0:
165,326,29881,2,0,P|90:336|24:282,2,150,8|0|10,2:0|3:0|2:0,2:0:0:0:
253,186,31321,6,0,P|244:128|248:31,1,150,6|8,3:2|2:0,2:0:0:0:
82,22,32281,1,2,2:0:0:0:
0,136,32641,2,0,P|6:176|7:255,1,112.5,2|2,2:0|2:0,2:0:0:0:
54,322,33241,1,0,3:2:0:0:
54,322,33481,2,0,L|138:312,1,75,2|8,3:2|2:0,2:0:0:0:
236,252,34081,1,2,2:0:0:0:
292,361,34441,2,0,L|376:371,1,75,2|10,3:2|2:0,2:0:0:0:
440,332,34921,5,2,2:0:0:0:
440,332,35161,2,0,B|448:265|423:258|434:176,1,150,0|10,3:2|2:0,2:0:0:0:
481,116,35881,1,2,2:0:0:0:
347,18,36361,2,0,P|305:23|267:19,1,75,2|8,3:2|2:0,2:0:0:0:
213,76,36841,1,10,2:3:0:0:
213,76,37081,2,0,L|222:164,1,75,2|0,3:2|3:2,2:0:0:0:
173,218,37561,1,12,2:0:0:0:
173,218,37801,2,0,P|131:206|89:208,2,75,2|8|0,2:3|2:0|3:0,2:0:0:0:
227,280,38521,1,8,2:3:0:0:
383,227,39001,1,0,2:0:0:0:
383,227,46681,6,0,L|399:93,2,134.999995880127,0|8|0,2:0|2:1|2:0,2:0:0:0:
261,141,48121,1,8,2:1:0:0:
149,239,48601,2,0,P|82:246|3:259,1,134.999995880127,0|8,2:0|2:1,2:0:0:0:
113,368,49561,2,0,P|155:369|258:361,1,134.999995880127,0|8,2:0|2:1,2:0:0:0:
330,338,50281,5,0,2:0:0:0:
330,338,50521,2,0,P|314:282|329:195,1,134.999995880127,2|8,2:0|2:1,2:0:0:0:
433,186,51361,2,0,P|449:140|436:77,1,101.249996910095,2|0,2:0|2:0,2:0:0:0:
397,19,51961,1,8,2:1:0:0:
246,86,52441,6,0,B|196:78|177:114|121:106,2,112.5,8|4|0,2:0|2:3|3:0,2:0:0:0:
314,150,53401,1,8,2:0:0:0:
314,150,53641,1,8,2:3:0:0:
314,150,53881,1,4,2:3:0:0:
343,312,54361,6,0,L|225:329,1,112.5,4|2,3:1|2:3,2:1:0:0:
161,371,54961,2,0,P|129:358|86:361,1,75,2|2,2:3|2:3,2:0:0:0:
7,374,55441,2,0,P|-2:334|4:255,1,112.5,2|8,2:3|2:0,2:0:0:0:
68,213,56041,1,2,0:3:0:0:
68,213,56281,1,2,3:0:0:0:
34,51,56761,2,0,P|73:44|113:32,1,75,8|2,2:0|2:0,2:0:0:0:
185,85,57241,1,2,2:3:0:0:
185,85,57481,1,2,3:1:0:0:
185,85,57721,2,0,P|237:119|341:93,1,150,8|0,2:0|3:0,2:0:0:0:
373,265,58681,6,2,B|297:250|290:272|218:267,1,150,8|2,2:0|2:3,2:1:0:0:
137,178,59521,2,0,P|101:186|57:188,1,75,2|2,2:3|2:3,2:0:0:0:
75,316,60121,1,2,3:0:0:0:
75,316,60361,2,0,L|-6:303,2,75,0|8|0,3:0|2:0|2:0,2:0:0:0:
154,364,61081,1,2,2:3:0:0:
154,364,61321,1,0,3:0:0:0:
154,364,61561,2,0,P|215:356|315:346,1,150,8|4,2:0|3:2,2:0:0:0:
382,369,62281,6,0,P|387:323|387:287,1,75,2|8,2:3|2:0,2:0:0:0:
506,185,63001,2,0,P|501:139|501:103,1,75,2|2,2:3|3:0,2:0:0:0:
501,27,63481,1,8,2:0:0:0:
348,81,63961,1,0,3:0:0:0:
348,81,64201,2,0,P|353:35|353:-1,2,75,2|8|0,3:0|2:0|2:0,2:0:0:0:
275,123,64921,1,2,2:3:0:0:
275,123,65161,1,2,3:0:0:0:
275,123,65401,2,0,P|209:116|167:50,1,150,8|2,2:0|3:0,2:0:0:0:
31,143,66361,1,8,2:0:0:0:
145,262,66841,6,0,P|141:299|147:388,2,112.5,2|2|8,2:3|2:3|2:0,2:0:0:0:
226,232,67801,1,4,2:3:0:0:
226,232,68041,1,4,2:3:0:0:
226,232,68281,1,12,2:0:0:0:
341,349,68761,1,8,2:0:0:0:
422,362,69001,1,8,2:3:0:0:
475,298,69241,1,4,2:3:0:0:
427,141,69721,6,2,P|417:71|321:42,1,150,4|8,3:1|2:0,2:1:0:0:
280,77,70441,2,2,P|289:113|295:150,1,75,2|0,2:1|2:0,2:1:0:0:
349,213,70921,2,2,P|339:249|333:286,1,75,0|8,3:0|2:0,2:1:0:0:
297,360,71401,1,2,2:1:0:0:
137,318,71881,2,0,L|52:337,2,75,2|8|2,3:0|2:0|2:0,2:0:0:0:
198,262,72601,1,2,2:3:0:0:
198,262,72841,1,2,3:1:0:0:
198,262,73081,1,8,2:0:0:0:
40,213,73561,6,2,P|37:141|99:83,1,150,0|8,3:0|2:0,2:1:0:0:
146,29,74281,2,2,P|183:19|222:15,1,75,2|0,2:1|2:0,2:1:0:0:
280,70,74761,2,2,P|317:80|356:84,1,75,0|8,3:1|2:0,2:1:0:0:
424,41,75241,1,2,2:3:0:0:
439,205,75721,2,0,L|518:189,2,75,2|8|2,3:0|2:0|2:3,2:0:0:0:
361,182,76441,1,2,2:3:0:0:
361,182,76681,1,0,3:0:0:0:
361,182,76921,1,8,2:0:0:0:
311,339,77401,6,2,P|237:341|183:291,1,150,4|8,3:2|2:0,2:1:0:0:
109,257,78121,2,2,P|116:215|118:181,1,75,2|0,2:1|2:0,2:1:0:0:
51,133,78601,2,2,P|44:91|42:57,1,75,0|8,3:0|2:0,2:1:0:0:
110,13,79081,1,2,2:3:0:0:
267,61,79561,1,2,3:0:0:0:
267,61,79801,2,0,P|260:107|260:145,1,75,8|2,2:0|2:3,2:0:0:0:
278,216,80281,1,2,2:3:0:0:
263,338,80641,2,0,P|308:341|348:346,1,75,2|2,2:3|2:3,2:0:0:0:
414,371,81121,2,0,P|467:348|478:279,1,112.5,2|0,2:3|2:0,2:0:0:0:
449,223,81721,1,8,2:0:0:0:
490,63,82201,5,2,2:3:0:0:
374,108,82561,2,0,P|328:101|292:92,1,75,2|2,2:3|2:3,2:0:0:0:
225,59,83041,2,0,P|214:113|222:185,1,112.5,2|10,2:3|3:0,2:0:0:0:
259,241,83641,1,10,3:0:0:0:
154,368,84121,5,8,3:2:0:0:
40,319,84481,2,0,P|34:285|33:232,1,75,2|4,2:3|2:3,2:0:0:0:
101,199,84961,1,4,2:3:0:0:
112,75,85321,6,0,L|-19:66,2,112.5,8|8|8,2:0|2:3|2:0,2:0:0:0:
188,117,86281,1,8,2:3:0:0:
188,117,86521,2,0,P|228:116|266:114,1,75,4|4,2:3|2:3,2:0:0:0:
328,163,87001,1,4,3:2:0:0:
256,192,94677,5,4,3:2:0:0:
256,192,94797,12,0,98511,3:0:0:0:
256,192,98631,12,10,100204,2:3:0:0:
357,326,101401,6,0,L|440:313,2,75,8|8|8,2:0|2:3|2:3,2:0:0:0:
200,379,102361,5,4,3:1:0:0:
42,329,102841,2,2,P|32:263|48:163,1,150,8|2,2:0|2:3,2:1:0:0:
150,120,103681,2,0,L|227:137,1,75,2|2,2:3|2:3,2:0:0:0:
267,205,104161,2,0,P|321:193|391:192,1,112.5,2|2,2:3|3:0,2:0:0:0:
459,203,104761,2,0,L|470:127,1,75,8|2,2:0|2:3,2:0:0:0:
485,47,105241,1,2,2:3:0:0:
485,47,105481,1,2,3:0:0:0:
485,47,105721,1,8,2:0:0:0:
324,8,106201,6,0,P|263:23|231:107,1,150,0|8,3:0|2:0,2:0:0:0:
70,140,107161,2,0,P|74:191|134:239,1,112.5,2|2,2:3|2:3,2:0:0:0:
177,340,107881,1,2,2:3:0:0:
177,340,108121,2,0,P|220:329|253:328,1,75,2|2,3:0|3:0,2:0:0:0:
305,266,108601,2,0,P|294:223|293:190,1,75,8|0,2:0|2:0,2:0:0:0:
228,141,109081,1,2,2:3:0:0:
228,141,109321,1,10,2:3:0:0:
228,141,109561,1,10,2:0:0:0:
341,21,110041,5,4,3:2:0:0:
481,106,110521,2,2,P|493:190|488:274,1,150,8|2,2:0|2:3,2:1:0:0:
426,361,111361,2,0,P|382:348|350:343,1,75,2|2,2:3|2:3,2:0:0:0:
289,291,111841,2,0,P|231:307|166:309,1,112.5,2|2,2:3|3:0,2:0:0:0:
100,335,112441,2,0,P|86:294|86:259,1,75,8|2,2:0|2:3,2:0:0:0:
14,224,112921,1,2,2:3:0:0:
14,224,113161,1,2,3:1:0:0:
14,224,113401,1,8,2:0:0:0:
32,60,113881,6,0,L|119:73,1,75,0|0,3:0|3:0,2:0:0:0:
166,126,114361,1,8,2:0:0:0:
301,31,114841,2,0,P|310:106|297:161,1,112.5,2|2,2:3|2:3,2:0:0:0:
267,216,115441,1,2,2:3:0:0:
299,291,115681,2,0,P|351:324|403:321,1,112.5,2|0,2:3|2:0,2:0:0:0:
473,283,116281,1,8,2:0:0:0:
505,121,116761,1,8,2:0:0:0:
493,39,117001,1,6,2:3:0:0:
411,23,117241,1,8,2:0:0:0:
252,69,117721,6,0,L|272:197,1,112.5,4|8,3:2|2:0,2:0:0:0:
146,160,118441,2,0,L|172:312,1,150,4|4,3:2|3:2,2:0:0:0:
19,366,119401,1,4,2:3:0:0:
19,366,119641,2,0,L|54:65,1,300,4|8,3:2|2:0,2:0:0:0:
124,22,120841,1,4,3:2:0:0:
124,22,121081,1,8,2:3:0:0:
267,96,121561,6,0,L|253:180,1,75,0|0,3:0|3:0,2:0:0:0:
185,214,122041,2,2,L|202:290,1,75,0|8,3:0|2:0,2:1:0:0:
261,351,122521,1,0,3:0:0:0:
261,351,122761,2,0,P|368:360|426:305,1,187.5,0|4,3:0|2:0,2:0:0:0:
491,37,124441,5,4,3:2:0:0:
327,17,124921,2,0,P|281:24|246:25,1,75,4|8,3:2|2:0,2:0:0:0:
190,79,125401,6,0,L|205:195,1,112.5,4|4,3:2|3:2,2:0:0:0:
82,171,126112,2,0,L|104:333,1,150,4|0,3:2|3:0,2:0:0:0:
174,358,126832,2,0,B|249:364|235:320|328:331,1,150,4|4,2:3|3:2,2:0:0:0:
400,362,127552,1,8,2:3:0:0:
400,362,127792,2,0,P|411:306|402:194,1,150,0|4,3:0|2:3,2:0:0:0:
340,164,128512,2,0,B|265:172|269:127|184:135,1,150,4|4,3:2|2:3,2:0:0:0:
151,204,129220,5,4,3:2:0:0:
33,87,129700,2,0,L|41:10,2,75,8|8|8,2:0|2:3|2:0,2:0:0:0:
148,42,130540,2,0,P|185:45|222:32,1,75,4|4,3:2|3:2,2:0:0:0:
298,5,131020,2,2,P|355:17|385:69,1,112.5,4|0,3:2|2:0,2:1:0:0:
460,28,131620,1,0,3:0:0:0:
447,192,132098,2,0,P|389:182|322:177,1,112.5,0|0,3:0|3:0,2:0:0:0:
267,130,132686,1,8,2:0:0:0:
201,180,132921,1,4,3:2:0:0:
