osu file format v14

[General]
AudioFilename: audio.mp3
AudioLeadIn: 0
PreviewTime: 52651
Countdown: 0
SampleSet: Soft
StackLeniency: 0
Mode: 0
LetterboxInBreaks: 0
WidescreenStoryboard: 1

[Editor]
Bookmarks: 8281,22321,23641,39001,54361,69721,87001,102361,117721,133081
DistanceSpacing: 6
BeatDivisor: 8
GridSize: 16
TimelineZoom: 4.099999

[Metadata]
Title:(RE)PLAY
TitleUnicode:(RE)PLAY
Artist:Eden & Trickstar
ArtistUnicode:Eden & Trickstar
Creator:Ascended
Version:(RE)EXTRAVAGANZA
Source:あんさんぶるスターズ!!
Tags:Replay what's whats your scenario あんさんぶるスターズ!! -_ascended_- ascended AirinCat Yahuri Otosaka-Yu Suzuki_1112 ensemble stars!! enstars!! es!! enstars es jpop j-pop japanese japan pop jazz male vocals vocal vocalist gacha mobile phone video game videogame games idol seiyuu voice actor va basic music rhythm Eden & Trickstar COVER SONG SERIES 05 frontier works frontierworks happy elements cacalia studio MOMO"mocha"N UTA Daichi Miura 三浦大知 Takuya Sakai 酒井拓也 Arte Refact Jun Sazanami 漣ジュン Yuuma Yuma Yūma Uchida 内田雄馬 Hiyori Tomoe 巴日和 Natsuki Hanae 花江夏樹 Nagisa Ran 乱凪砂 Junichi Jun'ichi Suwabe 諏訪部順一 Ibara Saegusa 七種茨 Ryota Osaka Ryouta Oosaka Ōsaka Ryōta 逢坂良太 Hokuto Hidaka 氷鷹北斗 Tomoaki Maeno 前野智昭 Subaru Akehoshi 明星スバル Tetsuya Kakihara 柿原徹也 Mao Isara 衣更真緒 Kaji Yuuki Yuki 梶裕貴 Makoto Yuuki Yūki 遊木真 Showtarou Shoutarou Shōtarō Morikubo 森久保祥太郎 and
BeatmapID:4393425
BeatmapSetID:2095363

[Difficulty]
HPDrainRate:5
CircleSize:4
OverallDifficulty:9
ApproachRate:9.3
SliderMultiplier:2.9
SliderTickRate:1

[Events]
//Background and Video events
0,0,"jun kun jun kun.jpg",0,0
//Break Periods
//Storyboard Layer 0 (Background)
//Storyboard Layer 1 (Fail)
//Storyboard Layer 2 (Pass)
//Storyboard Layer 3 (Foreground)
//Storyboard Layer 4 (Overlay)
//Storyboard Sound Samples

[TimingPoints]
601,480,4,2,1,50,1,0
6361,-100,4,2,1,40,0,0
8281,-100,4,2,1,50,0,0
11881,-33.3333333333333,4,2,1,50,0,0
12061,-33.3333333333333,4,2,1,5,0,0
12121,-33.3333333333333,4,2,1,50,0,0
15901,-33.3333333333333,4,2,1,5,0,0
15961,-33.3333333333333,4,2,1,50,0,0
19741,-33.3333333333333,4,2,1,5,0,0
19801,-33.3333333333333,4,2,1,50,0,0
21601,-33.3333333333333,4,2,1,40,0,0
21961,-133.333333333333,4,2,1,40,0,0
23641,-55.5555555555556,4,2,1,40,0,0
24601,-55.5555555555556,4,2,1,60,0,0
24841,-76.9230769230769,4,2,1,60,0,0
24900,-76.9230769230769,4,2,1,5,0,0
24961,-76.9230769230769,4,2,1,60,0,0
25500,-76.9230769230769,4,2,1,5,0,0
25561,-125,4,2,1,60,0,0
26161,-100,4,2,1,60,0,0
27181,-100,4,2,1,5,0,0
27241,-33.3333333333333,4,2,1,60,0,0
27421,-33.3333333333333,4,2,1,5,0,0
27481,-111.111111111111,4,2,1,60,0,0
28441,-76.9230769230769,4,2,1,60,0,0
28500,-76.9230769230769,4,2,1,5,0,0
28561,-76.9230769230769,4,2,1,60,0,0
28801,-100,4,2,1,60,0,0
31021,-100,4,2,1,5,0,0
31081,-100,4,2,1,60,0,0
31141,-100,4,2,1,5,0,0
31201,-100,4,2,1,60,0,0
31261,-100,4,2,1,5,0,0
31321,-58.8235294117647,4,2,1,60,0,0
32341,-58.8235294117647,4,2,1,5,0,0
32401,-58.8235294117647,4,2,1,60,0,0
32701,-58.8235294117647,4,2,1,5,0,0
32761,-58.8235294117647,4,2,1,60,0,0
33001,-71.4285714285714,4,2,1,60,0,0
33420,-71.4285714285714,4,2,1,5,0,0
33481,-71.4285714285714,4,2,1,60,0,0
33660,-71.4285714285714,4,2,1,5,0,0
33721,-71.4285714285714,4,2,1,60,0,0
33841,-100,4,2,1,60,0,0
36421,-100,4,2,1,5,0,0
36481,-100,4,2,1,60,0,0
36781,-100,4,2,1,5,0,0
36841,-100,4,2,1,60,0,0
37801,-76.9230769230769,4,2,1,60,0,0
39001,-76.9230769230769,4,2,1,40,0,0
43801,-200,4,2,1,40,0,0
46681,-200,4,2,1,45,0,0
52441,-76.9230769230769,4,2,1,55,0,0
53881,-66.6666666666667,4,2,1,55,0,0
54361,-166.666666666667,4,2,1,65,0,1
54540,-166.666666666667,4,2,1,5,0,1
54601,-166.666666666667,4,2,1,65,0,1
54721,-83.3333333333333,4,2,1,65,0,0
54780,-83.3333333333333,4,2,1,5,0,0
54841,-83.3333333333333,4,2,1,65,0,0
55380,-83.3333333333333,4,2,1,5,0,0
55441,-83.3333333333333,4,2,1,65,0,0
55740,-83.3333333333333,4,2,1,5,0,0
55801,-83.3333333333333,4,2,1,65,0,0
56220,-83.3333333333333,4,2,1,5,0,0
56281,-83.3333333333333,4,2,1,65,0,0
56460,-83.3333333333333,4,2,1,5,0,0
56521,-66.6666666666667,4,2,1,65,0,0
56581,-66.6666666666667,4,2,1,5,0,0
56641,-66.6666666666667,4,2,1,65,0,0
56701,-66.6666666666667,4,2,1,5,0,0
56761,-55.5555555555556,4,2,1,65,0,0
56940,-55.5555555555556,4,2,1,5,0,0
57001,-76.9230769230769,4,2,1,65,0,0
57241,-55.5555555555556,4,2,1,65,0,0
57900,-55.5555555555556,4,2,1,5,0,0
57961,-76.9230769230769,4,2,1,65,0,0
59220,-76.9230769230769,4,2,1,5,0,0
59281,-76.9230769230769,4,2,1,65,0,0
60300,-76.9230769230769,4,2,1,5,0,0
60361,-76.9230769230769,4,2,1,65,0,0
60420,-76.9230769230769,4,2,1,5,0,0
60481,-76.9230769230769,4,2,1,65,0,0
60540,-76.9230769230769,4,2,1,5,0,0
60601,-55.5555555555556,4,2,1,65,0,0
60780,-55.5555555555556,4,2,1,5,0,0
60841,-76.9230769230769,4,2,1,65,0,0
61081,-55.5555555555556,4,2,1,65,0,0
61620,-55.5555555555556,4,2,1,5,0,0
61681,-55.5555555555556,4,2,1,65,0,0
61740,-55.5555555555556,4,2,1,5,0,0
61801,-100,4,2,1,65,0,0
62281,-83.3333333333333,4,2,1,65,0,0
62340,-83.3333333333333,4,2,1,5,0,0
62401,-83.3333333333333,4,2,1,65,0,0
63001,-83.3333333333333,4,2,1,65,0,0
63780,-83.3333333333333,4,2,1,5,0,0
63841,-83.3333333333333,4,2,1,65,0,0
63900,-83.3333333333333,4,2,1,5,0,0
63961,-83.3333333333333,4,2,1,65,0,0
64201,-66.6666666666667,4,2,1,65,0,0
64261,-66.6666666666667,4,2,1,5,0,0
64321,-66.6666666666667,4,2,1,65,0,0
64381,-66.6666666666667,4,2,1,5,0,0
64441,-55.5555555555556,4,2,1,65,0,0
64620,-55.5555555555556,4,2,1,5,0,0
64681,-76.9230769230769,4,2,1,65,0,0
64921,-55.5555555555556,4,2,1,65,0,0
65340,-55.5555555555556,4,2,1,5,0,0
65401,-66.6666666666667,4,2,1,65,0,0
65461,-66.6666666666667,4,2,1,5,0,0
65521,-66.6666666666667,4,2,1,65,0,0
65881,-76.9230769230769,4,2,1,65,0,0
66300,-76.9230769230769,4,2,1,5,0,0
66361,-76.9230769230769,4,2,1,65,0,0
66900,-76.9230769230769,4,2,1,5,0,0
66961,-76.9230769230769,4,2,1,65,0,0
67260,-76.9230769230769,4,2,1,5,0,0
67321,-76.9230769230769,4,2,1,65,0,0
67740,-76.9230769230769,4,2,1,5,0,0
67801,-76.9230769230769,4,2,1,65,0,0
68281,-50,4,2,1,65,0,0
68700,-55.5555555555556,4,2,1,5,0,0
68761,-66.6666666666667,4,2,1,65,0,0
69721,-50,4,2,1,75,0,1
70441,-66.6666666666667,4,2,1,75,0,0
70501,-66.6666666666667,4,2,1,5,0,0
70561,-66.6666666666667,4,2,1,75,0,0
71341,-66.6666666666667,4,2,1,5,0,0
71401,-66.6666666666667,4,2,1,75,0,0
71461,-66.6666666666667,4,2,1,5,0,0
71521,-66.6666666666667,4,2,1,75,0,0
71821,-66.6666666666667,4,2,1,5,0,0
71881,-66.6666666666667,4,2,1,75,0,0
71941,-66.6666666666667,4,2,1,5,0,0
72001,-66.6666666666667,4,2,1,75,0,0
72061,-66.6666666666667,4,2,1,5,0,0
72121,-58.8235294117647,4,2,1,75,0,0
72601,-66.6666666666667,4,2,1,75,0,0
73021,-66.6666666666667,4,2,1,5,0,0
73081,-66.6666666666667,4,2,1,75,0,0
73141,-66.6666666666667,4,2,1,5,0,0
73201,-66.6666666666667,4,2,1,75,0,0
73261,-66.6666666666667,4,2,1,5,0,0
73321,-66.6666666666667,4,2,1,75,0,0
73561,-47.6190476190476,4,2,1,75,0,1
74281,-66.6666666666667,4,2,1,75,0,0
74341,-66.6666666666667,4,2,1,5,0,0
74401,-66.6666666666667,4,2,1,75,0,0
75181,-66.6666666666667,4,2,1,5,0,0
75241,-66.6666666666667,4,2,1,75,0,0
75661,-66.6666666666667,4,2,1,5,0,0
75721,-66.6666666666667,4,2,1,75,0,0
75781,-66.6666666666667,4,2,1,5,0,0
75841,-66.6666666666667,4,2,1,75,0,0
75901,-66.6666666666667,4,2,1,5,0,0
75961,-66.6666666666667,4,2,1,75,0,0
76861,-66.6666666666667,4,2,1,5,0,0
76921,-66.6666666666667,4,2,1,75,0,0
76981,-66.6666666666667,4,2,1,5,0,0
77041,-66.6666666666667,4,2,1,75,0,0
77101,-66.6666666666667,4,2,1,5,0,0
77161,-66.6666666666667,4,2,1,75,0,0
77221,-66.6666666666667,4,2,1,5,0,0
77281,-66.6666666666667,4,2,1,75,0,0
77341,-66.6666666666667,4,2,1,5,0,0
77401,-47.6190476190476,4,2,1,75,0,1
78121,-66.6666666666667,4,2,1,75,0,0
78181,-66.6666666666667,4,2,1,5,0,0
78241,-66.6666666666667,4,2,1,75,0,0
78901,-66.6666666666667,4,2,1,5,0,0
78961,-66.6666666666667,4,2,1,75,0,0
79621,-66.6666666666667,4,2,1,5,0,0
79681,-66.6666666666667,4,2,1,75,0,0
79741,-66.6666666666667,4,2,1,5,0,0
79801,-58.8235294117647,4,2,1,75,0,0
79981,-58.8235294117647,4,2,1,5,0,0
80041,-62.5,4,2,1,75,0,0
80281,-66.6666666666667,4,2,1,75,0,0
80341,-66.6666666666667,4,2,1,5,0,0
80401,-66.6666666666667,4,2,1,75,0,0
81721,-76.9230769230769,4,2,1,75,0,0
82860,-76.9230769230769,4,2,1,5,0,0
82921,-76.9230769230769,4,2,1,75,0,0
83401,-83.3333333333333,4,2,1,75,0,0
84180,-83.3333333333333,4,2,1,5,0,0
84241,-83.3333333333333,4,2,1,75,0,0
84540,-83.3333333333333,4,2,1,5,0,0
84601,-83.3333333333333,4,2,1,75,0,0
84780,-83.3333333333333,4,2,1,5,0,0
84841,-83.3333333333333,4,2,1,75,0,0
84900,-83.3333333333333,4,2,1,5,0,0
84961,-83.3333333333333,4,2,1,75,0,0
87001,476.190476190476,4,2,1,50,1,0
87001,-83.3333333333333,4,2,1,50,0,0
87596,-200,4,2,1,50,0,0
89322,-200,4,2,1,5,0,0
89381,489.795918367347,4,2,1,50,1,0
89401,-200,4,2,1,50,0,0
89871,470.588235294118,4,2,1,50,1,0
91301,487.80487804878,4,2,1,50,1,0
91321,-200,4,2,1,50,0,0
91422,-133.333333333333,4,2,1,50,0,0
91788,480,4,2,1,50,1,0
91788,-133.333333333333,4,2,1,50,0,0
92761,479.233226837061,4,2,1,50,1,0
92761,-133.333333333333,4,2,1,50,0,0
92821,-133.333333333333,4,2,1,5,0,0
92881,-133.333333333333,4,2,1,50,0,0
93661,-133.333333333333,4,2,1,5,0,0
93721,-133.333333333333,4,2,1,50,0,0
98511,483.870967741935,4,2,1,50,1,0
98571,-66.6666666666667,4,2,1,50,0,0
100441,480,4,2,1,50,1,0
100446,-66.6666666666667,4,2,1,50,0,0
100981,-66.6666666666667,4,2,1,5,0,0
101041,-66.6666666666667,4,2,1,50,0,0
101101,-66.6666666666667,4,2,1,5,0,0
101161,-66.6666666666667,4,2,1,50,0,0
102361,480,4,2,1,50,1,0
102361,-166.666666666667,4,2,1,70,0,1
102721,-71.4285714285714,4,2,1,70,0,0
102780,-71.4285714285714,4,2,1,5,0,0
102841,-52.6315789473684,4,2,1,70,0,0
103261,-58.8235294117647,4,2,1,5,0,0
103321,-58.8235294117647,4,2,1,70,0,0
103381,-58.8235294117647,4,2,1,5,0,0
103441,-71.4285714285714,4,2,1,70,0,0
103980,-71.4285714285714,4,2,1,5,0,0
104041,-71.4285714285714,4,2,1,70,0,0
104521,-66.6666666666667,4,2,1,70,0,0
104581,-66.6666666666667,4,2,1,5,0,0
104641,-66.6666666666667,4,2,1,70,0,0
104701,-66.6666666666667,4,2,1,5,0,0
104761,-55.5555555555556,4,2,1,70,0,0
104940,-55.5555555555556,4,2,1,5,0,0
105001,-76.9230769230769,4,2,1,70,0,0
105241,-55.5555555555556,4,2,1,70,0,0
105780,-55.5555555555556,4,2,1,5,0,0
105841,-76.9230769230769,4,2,1,70,0,0
106980,-76.9230769230769,4,2,1,5,0,0
107041,-76.9230769230769,4,2,1,70,0,0
107220,-76.9230769230769,4,2,1,5,0,0
107281,-76.9230769230769,4,2,1,70,0,0
107641,-90.9090909090909,4,2,1,70,0,0
107821,-90.9090909090909,4,2,1,5,0,0
107881,-71.4285714285714,4,2,1,70,0,0
107940,-71.4285714285714,4,2,1,5,0,0
108001,-71.4285714285714,4,2,1,70,0,0
108060,-71.4285714285714,4,2,1,5,0,0
108121,-71.4285714285714,4,2,1,70,0,0
108180,-71.4285714285714,4,2,1,5,0,0
108361,-76.9230769230769,4,2,1,70,0,0
108420,-76.9230769230769,4,2,1,5,0,0
108481,-76.9230769230769,4,2,1,70,0,0
108540,-76.9230769230769,4,2,1,5,0,0
108601,-55.5555555555556,4,2,1,70,0,0
108780,-55.5555555555556,4,2,1,5,0,0
108841,-55.5555555555556,4,2,1,70,0,0
108961,-76.9230769230769,4,2,1,70,0,0
109020,-76.9230769230769,4,2,1,5,0,0
109081,-55.5555555555556,4,2,1,70,0,0
109620,-55.5555555555556,4,2,1,5,0,0
109681,-55.5555555555556,4,2,1,70,0,0
109740,-55.5555555555556,4,2,1,5,0,0
109801,-100,4,2,1,70,0,0
110041,-66.6666666666667,4,2,1,70,0,0
110521,-45.4545454545455,4,2,1,70,0,0
110941,-50,4,2,1,5,0,0
111001,-83.3333333333333,4,2,1,70,0,0
111060,-83.3333333333333,4,2,1,5,0,0
111121,-83.3333333333333,4,2,1,70,0,0
111660,-83.3333333333333,4,2,1,5,0,0
111721,-83.3333333333333,4,2,1,70,0,0
111900,-83.3333333333333,4,2,1,5,0,0
111961,-83.3333333333333,4,2,1,70,0,0
112140,-83.3333333333333,4,2,1,5,0,0
112201,-66.6666666666667,4,2,1,70,0,0
112261,-66.6666666666667,4,2,1,5,0,0
112321,-66.6666666666667,4,2,1,70,0,0
112381,-66.6666666666667,4,2,1,5,0,0
112441,-55.5555555555556,4,2,1,70,0,0
112620,-55.5555555555556,4,2,1,5,0,0
112681,-76.9230769230769,4,2,1,70,0,0
112921,-55.5555555555556,4,2,1,70,0,0
113340,-55.5555555555556,4,2,1,5,0,0
113401,-66.6666666666667,4,2,1,70,0,0
113461,-66.6666666666667,4,2,1,5,0,0
113521,-66.6666666666667,4,2,1,70,0,0
113881,-76.9230769230769,4,2,1,70,0,0
114300,-76.9230769230769,4,2,1,5,0,0
114361,-76.9230769230769,4,2,1,70,0,0
114781,-50,4,2,1,5,0,0
114841,-76.9230769230769,4,2,1,70,0,0
114900,-76.9230769230769,4,2,1,5,0,0
114961,-76.9230769230769,4,2,1,70,0,0
115860,-76.9230769230769,4,2,1,5,0,0
116041,-76.9230769230769,4,2,1,70,0,0
116281,-55.5555555555556,4,2,1,70,0,0
116700,-55.5555555555556,4,2,1,5,0,0
116761,-66.6666666666667,4,2,1,70,0,0
116821,-66.6666666666667,4,2,1,5,0,0
116881,-66.6666666666667,4,2,1,70,0,0
116941,-66.6666666666667,4,2,1,5,0,0
117001,-66.6666666666667,4,2,1,70,0,0
117241,-83.3333333333333,4,2,1,70,0,0
117420,-83.3333333333333,4,2,1,5,0,0
117481,-83.3333333333333,4,2,1,70,0,0
117540,-83.3333333333333,4,2,1,5,0,0
117601,-83.3333333333333,4,2,1,70,0,0
117660,-83.3333333333333,4,2,1,5,0,0
117721,-83.3333333333333,4,2,1,55,0,0
117900,-83.3333333333333,4,2,1,5,0,0
117961,-83.3333333333333,4,2,1,55,0,0
118020,-83.3333333333333,4,2,1,5,0,0
118081,-83.3333333333333,4,2,1,55,0,0
118140,-83.3333333333333,4,2,1,5,0,0
118201,-83.3333333333333,4,2,1,55,0,0
118921,-71.4285714285714,4,2,1,55,0,0
121020,-71.4285714285714,4,2,1,5,0,0
121081,-71.4285714285714,4,2,1,55,0,0
121561,-111.111111111111,4,2,1,55,0,0
124441,-52.6315789473684,4,2,1,55,0,0
124861,-52.6315789473684,4,2,1,5,0,0
124921,-45.4545454545455,4,2,1,55,0,0
125401,-66.6666666666667,4,2,1,55,0,0
125461,-66.6666666666667,4,2,1,5,0,0
125521,-66.6666666666667,4,2,1,55,0,0
125581,-66.6666666666667,4,2,1,5,0,0
125641,-66.6666666666667,4,2,1,55,0,0
125701,-66.6666666666667,4,2,1,5,0,0
125761,-83.3333333333333,4,2,1,55,0,0
126112,480,4,2,1,55,1,0
126112,-66.6666666666667,4,2,1,55,0,0
127312,480,4,2,1,50,1,0
128512,472.44094488189,4,2,1,50,1,0
128512,-66.6666666666667,4,2,1,50,0,0
129220,480,4,2,1,50,1,0
129220,-66.6666666666667,4,2,1,55,0,0
129938,-100,4,2,1,55,0,0
130118,-100,4,2,1,5,0,0
130178,-100,4,2,1,55,0,0
130238,-100,4,2,1,5,0,0
130298,-100,4,2,1,55,0,0
130598,-100,4,2,1,5,0,0
130778,-100,4,2,1,55,0,0
130838,-100,4,2,1,5,0,0
131018,-100,4,2,1,55,0,0
132098,470.588235294118,4,2,1,50,1,0
133081,480,4,2,1,50,1,0
133081,-333.333333333333,4,2,1,50,0,0

[Colours]
Combo1 : 81,81,255
Combo2 : 108,182,255

[HitObjects]
256,192,601,5,4,3:0:0:0:
256,192,841,1,4,3:0:0:0:
256,192,1081,1,8,3:2:0:0:
256,192,1321,1,0,3:0:0:0:
256,192,1441,1,8,3:2:0:0:
256,192,1561,1,4,3:0:0:0:
256,192,1681,1,4,3:0:0:0:
256,192,1801,1,4,3:0:0:0:
256,192,2041,1,8,3:2:0:0:
256,192,2281,1,8,3:2:0:0:
256,192,2401,1,8,3:2:0:0:
256,192,2521,1,4,3:0:0:0:
256,192,2761,1,4,3:0:0:0:
256,192,3001,1,8,3:2:0:0:
256,192,3241,1,0,3:0:0:0:
256,192,3361,1,8,3:2:0:0:
256,192,3481,1,4,3:0:0:0:
256,192,3601,1,4,3:0:0:0:
256,192,3721,1,4,3:0:0:0:
256,192,3961,1,8,3:2:0:0:
256,192,4201,1,8,3:2:0:0:
256,192,4321,1,8,3:2:0:0:
256,192,4441,1,4,3:0:0:0:
256,192,4681,1,4,3:0:0:0:
256,192,4921,1,8,3:2:0:0:
256,192,5161,1,0,3:0:0:0:
256,192,5281,1,8,3:2:0:0:
256,192,5401,1,4,3:0:0:0:
256,192,5521,1,4,3:0:0:0:
256,192,5641,1,4,3:0:0:0:
256,192,5881,1,8,3:2:0:0:
256,192,6121,1,8,3:2:0:0:
256,192,6241,1,8,3:2:0:0:
318,274,6361,5,2,2:3:0:0:
358,206,6601,1,2,2:3:0:0:
338,129,6841,1,2,2:3:0:0:
270,89,7081,1,2,2:3:0:0:
193,109,7201,1,2,2:3:0:0:
153,177,7321,1,2,2:3:0:0:
173,254,7441,1,2,2:3:0:0:
241,294,7561,1,2,2:3:0:0:
318,274,7801,1,2,2:3:0:0:
358,206,8041,1,2,2:3:0:0:
154,19,8281,5,0,3:0:0:0:
158,23,8521,1,0,3:0:0:0:
205,205,8761,1,8,2:0:0:0:
205,205,9001,5,0,3:0:0:0:
180,130,9121,1,8,2:0:0:0:
257,95,9241,1,0,3:0:0:0:
314,185,9361,1,0,3:0:0:0:
152,284,9481,1,0,3:0:0:0:
144,275,9721,1,8,2:0:0:0:
136,266,9961,5,0,3:0:0:0:
110,361,10081,1,0,3:0:0:0:
206,380,10201,1,0,3:0:0:0:
218,374,10441,1,0,3:0:0:0:
230,368,10681,1,8,2:0:0:0:
230,368,10921,5,0,3:0:0:0:
200,292,11041,1,8,2:0:0:0:
255,213,11161,1,0,3:0:0:0:
303,304,11281,1,0,3:0:0:0:
119,254,11401,1,0,3:0:0:0:
105,261,11641,1,8,2:0:0:0:
89,271,11881,6,2,P|13:356|101:286,1,326.25001244545,2|0,3:3|2:0,0:1:0:0:
16,227,12121,5,0,3:0:0:0:
19,211,12361,1,0,3:0:0:0:
22,196,12601,1,8,2:0:0:0:
22,196,12841,5,0,3:0:0:0:
144,66,12961,1,8,2:0:0:0:
39,15,13081,1,0,3:0:0:0:
107,166,13201,1,0,3:0:0:0:
203,132,13321,1,0,3:0:0:0:
220,136,13561,1,8,2:0:0:0:
237,140,13801,5,0,3:0:0:0:
315,103,13921,1,0,3:0:0:0:
374,170,14041,1,0,3:0:0:0:
391,166,14281,1,0,3:0:0:0:
408,162,14521,1,8,2:0:0:0:
408,162,14761,5,0,3:0:0:0:
464,246,14881,1,8,2:0:0:0:
337,193,15001,1,0,3:0:0:0:
429,61,15121,1,0,3:0:0:0:
498,128,15241,1,0,3:0:0:0:
512,125,15481,1,8,2:0:0:0:
464,246,15721,6,2,P|440:357|481:252,1,326.25001244545,2|0,3:0|2:0,2:1:0:0:
386,339,15961,5,0,3:0:0:0:
370,336,16201,1,0,3:0:0:0:
354,333,16441,1,8,2:0:0:0:
354,333,16681,5,0,3:0:0:0:
260,383,16801,1,8,2:0:0:0:
106,283,16921,1,0,3:0:0:0:
267,162,17041,1,0,3:0:0:0:
210,269,17161,1,0,3:0:0:0:
207,253,17401,1,8,2:0:0:0:
204,237,17641,5,0,3:0:0:0:
128,176,17761,1,0,3:0:0:0:
35,205,17881,1,0,3:0:0:0:
38,189,18121,1,0,3:0:0:0:
41,173,18361,1,8,2:0:0:0:
41,173,18601,5,0,3:0:0:0:
103,268,18721,1,8,2:0:0:0:
60,82,18841,1,0,3:0:0:0:
214,167,18961,1,0,3:0:0:0:
295,120,19081,1,0,3:0:0:0:
298,104,19321,1,8,2:0:0:0:
302,85,19561,6,2,P|199:38|285:111,1,326.25001244545,2|0,3:0|2:0,2:1:0:0:
304,206,19801,5,0,3:0:0:0:
320,203,20041,1,0,3:0:0:0:
336,200,20281,1,8,2:0:0:0:
336,200,20521,5,0,3:0:0:0:
426,141,20641,1,8,2:0:0:0:
512,212,20761,1,0,3:0:0:0:
342,303,20881,1,0,3:0:0:0:
462,337,21001,1,0,3:0:0:0:
480,344,21241,1,8,2:0:0:0:
232,343,21481,5,0,3:0:0:0:
250,336,21601,1,0,3:0:0:0:
137,357,21961,6,0,L|24:337,1,108.750004148483,2|0,2:3|2:0,2:0:0:0:
137,337,22321,2,0,L|29:355,1,108.750004148483,2|0,2:3|2:0,2:0:0:0:
256,63,23161,5,2,2:0:0:0:
257,84,23241,1,2,2:0:0:0:
254,106,23321,1,2,2:0:0:0:
247,126,23401,1,2,2:0:0:0:
243,147,23481,1,2,2:0:0:0:
244,169,23561,1,2,2:0:0:0:
256,192,23641,6,0,B|405:141|355:-53|26:33|70:279|257:209,1,521.999984069825,4|8,3:2|2:0,2:0:0:0:
342,257,24601,5,2,2:0:0:0:
346,261,24721,1,2,2:0:0:0:
463,200,24841,2,0,P|440:194|397:193,1,47.1249978427888,2|0,3:2|2:0,2:0:0:0:
301,161,24961,2,0,P|305:222|350:238,1,94.2499956855776,2|8,2:2|2:0,2:0:0:0:
324,351,25201,2,0,P|381:342|418:311,1,94.2499956855776,2|0,2:0|2:0,2:0:0:0:
477,216,25441,6,0,P|454:222|416:242,1,47.1249978427888,2|0,2:0|2:0,2:0:0:0:
260,299,25561,2,0,P|235:288|200:279,2,58,0|0|2,3:2|2:0|3:2,2:0:0:0:
252,303,26041,1,8,2:0:0:0:
324,351,26161,2,0,P|357:305|324:219,1,145,0|0,2:0|2:0,2:0:0:0:
324,120,26521,2,0,P|295:188|218:181,1,145,0|0,2:0|3:0,2:0:0:0:
420,147,27001,2,0,P|423:89|436:29,1,108.75,10|0,2:0|2:0,2:0:0:0:
416,19,27241,6,2,P|521:59|410:45,1,326.25001244545,0|0,2:0|2:0,2:1:0:0:
334,28,27481,6,0,B|174:64|236:103|92:142,1,260.999992034912,2|8,3:2|2:0,2:0:0:0:
101,140,28441,2,0,P|108:117|111:94,1,47.1249978427888,2|0,2:0|2:0,2:0:0:0:
4,7,28561,2,0,P|18:51|25:98,1,94.2499956855776,2|0,2:0|3:0,2:0:0:0:
75,229,28801,6,0,P|43:202|3:196,1,72.5,2|8,2:0|2:0,2:0:0:0:
73,350,29041,2,0,P|41:377|1:383,1,72.5,2|0,2:0|2:0,2:0:0:0:
0,292,29281,1,2,2:0:0:0:
4,296,29341,1,2,2:0:0:0:
8,300,29401,2,0,L|157:320,1,145,0|0,3:2|3:2,2:0:0:0:
155,323,29761,1,0,2:0:0:0:
231,384,29881,6,0,P|192:268|230:171,1,217.5,8|0,2:0|2:0,2:0:0:0:
248,103,30361,5,0,3:0:0:0:
282,278,30481,1,8,2:0:0:0:
104,200,30601,1,0,2:0:0:0:
108,204,30841,5,10,2:0:0:0:
116,214,30901,2,0,P|119:259|113:298,1,72.5,2|0,2:0|2:0,2:0:0:0:
37,324,31081,2,0,L|31:274,1,36.25,2|0,3:0|2:0,2:0:0:0:
198,217,31201,2,0,L|204:267,1,36.25,2|0,3:0|2:0,2:0:0:0:
34,336,31321,6,0,B|-27:292|-13:175|144:50|289:258|190:389|61:375|29:304,1,493.000009403229,6|8,3:2|2:0,2:0:0:0:
280,302,32281,6,0,P|259:323|213:333,1,61.6250011754036,2|0,2:0|2:0,2:0:0:0:
34,336,32401,2,0,P|97:348|154:388,1,123.250002350807,2|0,2:0|3:0,2:0:0:0:
255,346,32641,6,0,P|218:342|196:320,1,61.6250011754036,2|0,2:0|2:0,2:0:0:0:
23,347,32761,1,8,2:0:0:0:
23,347,33001,6,0,P|-2:281|102:204,1,202.999993804932,2|0,2:0|3:2,2:0:0:0:
174,31,33361,2,0,P|160:69|123:68,1,50.749998451233,2|0,2:0|2:0,2:0:0:0:
55,107,33481,2,0,P|117:99|161:181,1,152.249995353699,2|0,3:2|2:0,2:0:0:0:
175,178,33721,5,8,2:0:0:0:
231,240,33841,2,0,P|198:255|162:262,1,72.5,0|0,2:0|2:0,2:0:0:0:
364,192,34081,2,0,P|331:176|295:169,1,72.5,0|0,2:0|2:0,2:0:0:0:
374,216,34441,5,2,3:2:0:0:
461,192,34561,1,2,2:0:0:0:
504,267,34681,1,10,2:0:0:0:
504,267,34921,6,0,P|512:225|508:179,1,72.5,2|0,2:0|2:0,2:0:0:0:
416,5,35161,2,0,P|405:112|425:219,1,217.5,0|0,3:2|2:0,2:0:0:0:
512,44,35641,2,0,P|492:83|489:120,1,72.5,10|0,2:0|2:0,2:0:0:0:
332,193,35881,2,0,P|334:236|350:270,1,72.5,2|0,2:0|2:0,2:0:0:0:
457,336,36121,5,0,2:0:0:0:
457,336,36361,2,0,P|434:320|422:316,1,36.25,2|0,3:2|2:0,2:0:0:0:
297,334,36481,2,0,P|337:310|340:263,1,72.5,2|8,2:3|2:0,2:0:0:0:
322,181,36721,2,0,P|296:192|287:201,1,36.25,0|0,2:0|2:0,2:0:0:0:
216,276,36841,2,0,P|215:229|176:203,1,72.5,10|0,2:3|2:0,2:0:0:0:
100,176,37081,5,2,3:2:0:0:
100,176,37321,1,0,3:2:0:0:
172,122,37441,1,0,3:2:0:0:
147,374,37561,1,12,2:0:0:0:
117,275,37801,6,0,P|68:307|61:355,1,94.2499956855776,2|0,2:3|2:0,2:0:0:0:
426,227,38041,1,8,0:0:0:0:
146,97,38281,1,0,3:0:0:0:
243,68,38521,5,8,2:3:0:0:
271,168,38641,1,8,2:3:0:0:
174,197,38761,1,4,2:3:0:0:
34,83,39001,5,0,2:0:0:0:
31,71,39481,1,8,2:1:0:0:
29,59,39961,1,0,2:0:0:0:
27,48,40201,1,0,2:0:0:0:
25,36,40441,1,8,2:1:0:0:
127,0,40921,5,0,2:0:0:0:
124,11,41161,1,0,2:0:0:0:
122,23,41401,1,8,2:1:0:0:
120,34,41881,1,0,2:0:0:0:
118,46,42361,1,8,2:1:0:0:
167,114,42601,1,0,2:0:0:0:
251,131,42841,5,0,2:0:0:0:
263,128,43321,1,8,2:1:0:0:
275,125,43801,2,0,P|310:128|350:121,1,72.5,0|0,2:0|2:0,2:0:0:0:
279,211,44161,1,2,2:0:0:0:
283,215,44221,1,2,2:0:0:0:
287,219,44281,1,8,2:1:0:0:
193,216,44401,1,2,2:0:0:0:
122,154,44521,1,2,2:0:0:0:
45,188,44641,1,2,2:0:0:0:
61,273,44761,5,2,2:0:0:0:
65,277,44881,1,2,2:0:0:0:
17,346,45121,5,2,2:0:0:0:
21,350,45241,1,8,2:1:0:0:
96,380,45481,5,2,2:0:0:0:
100,384,45601,1,2,2:0:0:0:
172,349,45961,5,0,2:0:0:0:
187,345,46041,1,0,2:0:0:0:
203,343,46121,1,0,2:0:0:0:
219,342,46201,1,8,2:1:0:0:
235,343,46281,1,0,2:0:0:0:
251,344,46361,1,0,2:0:0:0:
267,347,46441,1,0,2:0:0:0:
346,380,46681,5,0,2:0:0:0:
428,330,47161,1,8,2:1:0:0:
377,245,47641,1,0,2:0:0:0:
459,195,47881,1,0,2:0:0:0:
431,110,48121,1,8,2:1:0:0:
354,70,48601,5,0,2:0:0:0:
278,110,49081,1,8,2:1:0:0:
251,193,49561,1,0,2:0:0:0:
168,226,49801,1,0,2:0:0:0:
96,177,50041,1,8,2:1:0:0:
93,90,50281,1,0,2:0:0:0:
183,8,50521,5,2,2:0:0:0:
162,11,50641,1,2,2:0:0:0:
166,33,50761,1,2,2:0:0:0:
187,29,50881,1,2,2:0:0:0:
97,94,51001,1,8,2:1:0:0:
100,181,51121,1,2,2:0:0:0:
172,230,51241,1,2,2:0:0:0:
255,197,51361,2,0,P|293:203|369:196,1,108.75,2|0,2:0|2:0,2:0:0:0:
156,314,51961,5,8,2:1:0:0:
82,300,52081,1,2,2:0:0:0:
5,316,52201,1,2,2:0:0:0:
226,384,52441,6,0,P|234:365|237:325,1,47.1249978427888,8|0,2:0|2:0,2:0:0:0:
117,138,52561,1,8,2:3:0:0:
123,160,52621,1,8,2:3:0:0:
134,181,52681,1,8,2:3:0:0:
354,278,52801,5,4,2:3:0:0:
337,263,52861,1,4,2:3:0:0:
315,253,52921,1,4,2:3:0:0:
82,300,53041,2,0,P|102:301|141:292,1,47.1249978427888,8|0,2:0|2:0,2:0:0:0:
247,145,53161,5,0,3:0:0:0:
247,145,53401,2,0,P|254:98|253:46,1,94.2499956855776,8|0,2:0|2:0,2:0:0:0:
231,245,53641,2,0,P|230:292|237:338,1,94.2499956855776,8|0,2:3|2:0,2:0:0:0:
100,145,53881,6,0,P|105:177|134:193,1,54.3750020742417,4|0,2:3|2:0,2:0:0:0:
235,373,54001,6,0,P|249:344|235:314,1,54.3750020742417,4|0,2:3|2:0,2:0:0:0:
72,294,54121,5,4,2:3:0:0:
72,294,54361,6,0,P|42:301|13:321,1,65.2499980087281,4|0,3:1|2:0,2:1:0:0:
9,330,54601,1,0,2:0:0:0:
131,376,54721,6,0,P|141:356|141:321,1,43.4999986724854,2|0,2:3|2:0,2:0:0:0:
11,197,54841,1,8,2:0:0:0:
86,127,54961,2,0,P|103:166|103:209,1,86.9999973449708,2|0,2:3|2:0,2:0:0:0:
76,303,55201,2,0,P|112:274|114:191,1,130.499996017456,2|0,2:3|2:0,2:0:0:0:
138,185,55441,2,0,P|180:193|222:183,1,86.9999973449708,2|0,2:3|3:0,2:0:0:0:
355,264,55681,6,0,L|301:279,1,43.4999986724854,2|0,2:3|2:0,2:0:0:0:
227,347,55801,2,0,P|238:298|352:307,1,173.999994689942,8|0,2:0|2:0,2:0:0:0:
444,377,56161,2,0,L|390:362,1,43.4999986724854,2|0,2:3|2:0,2:0:0:0:
430,194,56281,1,2,3:0:0:0:
434,198,56341,2,0,P|440:241|436:297,1,86.9999973449708,2|0,2:2|2:0,2:1:0:0:
450,294,56521,6,0,P|464:271|461:244,1,54.3750020742417,2|0,3:0|2:0,2:0:0:0:
343,165,56641,2,0,P|340:138|323:118,1,54.3750020742417,2|0,2:3|2:0,2:0:0:0:
91,265,56761,2,0,P|186:263|246:189,1,195.749994026184,8|0,2:0|2:0,2:0:0:0:
226,184,57001,2,0,P|184:202|137:178,1,94.2499956855776,2|0,2:0|2:0,2:0:0:0:
1,63,57241,6,2,P|62:51|71:111,1,130.499996017456,2|0,2:3|2:0,2:1:0:0:
107,365,57481,1,2,3:1:0:0:
103,371,57541,2,0,P|31:378|20:254,1,195.749994026184,2|8,2:0|2:0,2:1:0:0:
191,163,57841,6,0,L|117:172,1,65.2499980087281,2|0,2:3|2:0,2:0:0:0:
0,185,57961,2,0,L|97:189,1,94.2499956855776,2|0,2:3|2:0,2:0:0:0:
222,305,58201,6,0,P|265:254|361:299,1,188.499991371155,0|0,3:0|2:0,2:0:0:0:
504,328,58561,1,2,2:3:0:0:
508,332,58621,1,2,2:3:0:0:
512,336,58681,2,2,P|394:291|416:151,1,282.749987056733,8|0,2:0|2:0,2:1:0:0:
485,106,59161,6,0,P|502:135|499:159,1,47.1249978427888,2|0,2:3|2:0,2:0:0:0:
489,250,59281,2,0,P|496:202|488:155,1,94.2499956855776,2|0,2:3|3:0,2:1:0:0:
326,191,59521,1,2,2:3:0:0:
315,183,59581,2,0,P|302:157|302:130,1,47.1249978427888,2|8,2:0|2:0,2:0:0:0:
356,71,59761,2,0,P|393:93|380:161,1,94.2499956855776,2|0,2:3|2:0,2:1:0:0:
450,248,60001,5,2,2:3:0:0:
454,252,60061,1,2,2:3:0:0:
458,256,60121,2,0,P|375:261|347:198,1,141.374993528366,2|0,3:0|2:0,2:0:0:0:
323,203,60361,6,0,P|294:221|295:249,1,47.1249978427888,0|0,3:0|2:0,2:0:0:0:
206,270,60481,2,0,P|189:300|204:323,1,47.1249978427888,0|0,2:0|2:0,2:0:0:0:
375,331,60601,2,0,P|280:308|186:332,1,195.749994026184,8|0,2:0|2:0,2:0:0:0:
178,349,60841,2,0,L|162:255,1,94.2499956855776,0|0,2:0|2:0,2:0:0:0:
227,154,61081,6,2,P|162:169|94:155,1,130.499996017456,2|0,2:3|2:0,2:1:0:0:
38,90,61261,1,2,2:0:0:0:
42,94,61321,2,0,P|57:159|43:227,1,130.499996017456,0|0,3:0|2:0,2:0:0:0:
157,79,61561,6,0,L|224:66,1,65.2499980087281,8|0,2:0|2:0,2:0:0:0:
357,200,61681,2,0,L|292:212,1,65.2499980087281,8|0,2:3|2:0,2:0:0:0:
236,141,61801,6,0,L|257:-11,1,145,8|4,2:3|3:2,2:0:0:0:
194,339,62281,6,0,P|204:311|223:298,1,43.4999986724854,2|0,2:3|2:0,2:0:0:0:
359,209,62401,2,0,P|314:243|265:243,1,86.9999973449708,2|8,2:3|2:0,2:0:0:0:
121,190,62641,1,0,2:0:0:0:
195,305,62881,5,2,0:3:0:0:
199,309,62941,1,2,0:3:0:0:
203,313,63001,2,0,P|154:307|135:271,1,86.9999973449708,2|0,2:3|2:0,2:0:0:0:
165,56,63241,6,0,P|183:94|188:157,1,86.9999973449708,2|0,3:3|2:0,2:0:0:0:
42,250,63481,2,0,P|24:212|47:167,1,86.9999973449708,8|0,2:0|2:0,2:0:0:0:
53,31,63721,6,0,P|73:57|77:74,1,43.4999986724854,2|0,2:3|2:0,2:0:0:0:
179,74,63841,2,0,P|183:106|178:123,1,43.4999986724854,2|0,2:3|2:0,2:0:0:0:
104,171,63961,2,0,P|68:155|22:174,1,86.9999973449708,0|0,3:0|2:0,2:0:0:0:
14,326,64201,6,0,P|49:335|83:319,1,54.3750020742417,0|0,3:0|2:0,2:0:0:0:
205,335,64321,2,0,P|240:325|261:294,1,54.3750020742417,0|0,2:0|2:0,2:0:0:0:
132,206,64441,2,0,P|98:293|142:392,1,195.749994026184,8|0,2:0|2:0,2:2:0:0:
137,373,64681,2,0,P|156:332|132:290,1,94.2499956855776,0|0,2:0|2:0,2:0:0:0:
462,305,64921,6,2,L|323:275,1,130.499996017456,0|0,2:0|2:0,2:1:0:0:
194,87,65161,1,2,3:3:0:0:
202,78,65221,2,0,P|264:91|264:157,1,130.499996017456,2|0,2:0|2:0,2:0:0:0:
256,161,65401,2,0,L|190:172,1,54.3750020742417,8|0,2:2|2:0,2:0:0:0:
121,242,65521,2,2,P|107:186|122:128,1,108.750004148483,2|0,2:3|2:0,2:1:0:0:
358,181,65761,5,2,2:3:0:0:
362,185,65821,1,2,2:3:0:0:
366,189,65881,2,0,P|455:165|492:75,1,188.499991371155,2|0,3:3|2:0,2:0:0:0:
412,8,66241,2,0,L|412:61,1,47.1249978427888,0|0,2:0|2:0,2:0:0:0:
436,140,66361,1,8,2:0:0:0:
440,144,66601,1,0,2:0:0:0:
303,310,66841,6,0,P|308:283|300:254,1,47.1249978427888,2|0,2:3|2:0,2:0:0:0:
340,96,66961,2,0,P|352:149|343:198,1,94.2499956855776,2|0,2:3|3:0,2:0:0:0:
225,193,67201,6,0,P|247:179|266:194,1,47.1249978427888,2|0,2:3|2:0,2:0:0:0:
392,264,67321,2,0,P|437:276|480:256,1,94.2499956855776,8|0,2:0|2:0,2:0:0:0:
315,320,67561,5,8,2:0:0:0:
212,270,67681,2,0,L|156:268,1,47.1249978427888,10|0,2:3|2:0,2:0:0:0:
77,361,67801,5,4,2:3:0:0:
161,359,67921,1,4,2:3:0:0:
81,365,68041,1,4,2:3:0:0:
165,363,68161,1,4,2:3:0:0:
69,268,68281,6,2,P|54:75|255:57,1,435,12|0,2:0|2:0,2:1:0:0:
139,217,68761,6,2,P|109:176|145:115,1,108.750004148483,8|0,2:0|2:0,2:1:0:0:
327,1,69001,2,2,P|355:44|334:92,1,108.750004148483,8|0,2:3|2:0,2:1:0:0:
371,365,69241,5,4,2:3:0:0:
256,274,69361,1,4,2:3:0:0:
140,359,69481,1,4,2:3:0:0:
140,359,69721,6,2,B|222:351|236:146|-18:67|-104:253|-91:387|36:416|94:393|116:347,1,580,4|8,3:1|2:0,2:1:0:0:
57,296,70321,1,0,2:0:0:0:
279,175,70441,6,0,P|257:189|231:196,1,54.3750020742417,2|0,2:1|2:0,2:0:0:0:
61,300,70561,2,2,P|105:206|215:179,1,217.500008296967,0|0,2:0|2:0,2:1:0:0:
20,131,70921,6,2,P|60:164|113:157,1,108.750004148483,0|0,3:0|2:0,2:1:0:0:
196,0,71161,2,0,P|123:-6|98:78,1,163.125006222725,8|0,2:0|2:0,2:0:0:0:
98,69,71401,2,0,L|157:78,1,54.3750020742417,2|0,2:1|2:0,2:0:0:0:
287,144,71521,5,2,2:3:0:0:
290,148,71581,1,2,2:3:0:0:
294,152,71641,2,0,P|258:87|170:95,1,163.125006222725,0|0,3:0|2:0,2:0:0:0:
163,97,71881,6,0,P|184:114|223:115,1,54.3750020742417,2|0,3:0|2:0,2:0:0:0:
292,234,72001,2,0,P|318:238|352:219,1,54.3750020742417,2|0,2:3|2:0,2:0:0:0:
502,116,72121,2,0,L|378:146,1,123.250002350807,8|0,2:0|2:0,2:0:0:0:
416,61,72301,1,2,2:0:0:0:
425,70,72361,2,0,L|455:194,1,123.250002350807,2|0,2:0|2:0,2:0:0:0:
276,268,72601,6,2,P|269:221|283:158,1,108.750004148483,2|0,2:3|2:0,2:1:0:0:
457,193,72841,1,2,3:1:0:0:
461,197,72901,2,2,P|459:261|409:268,1,108.750004148483,2|0,2:0|2:0,2:1:0:0:
396,283,73081,6,0,P|375:257|377:229,1,54.3750020742417,8|0,2:0|2:0,2:0:0:0:
293,146,73201,2,0,P|296:112|317:94,1,54.3750020742417,0|0,2:0|2:0,2:0:0:0:
411,44,73321,2,0,P|482:50|504:148,1,163.125006222725,0|0,2:0|2:0,2:0:0:0:
379,24,73561,6,2,B|326:62|222:222|506:431|678:111|548:-34|416:-6|382:68,1,608.999981414795,0|8,3:0|2:0,2:1:0:0:
423,128,74161,1,0,2:0:0:0:
288,323,74281,6,0,P|283:296|287:269,1,54.3750020742417,2|0,2:1|2:0,2:0:0:0:
427,132,74401,2,2,P|461:183|368:279,1,217.500008296967,0|0,2:0|2:0,2:1:0:0:
223,114,74761,2,2,P|259:113|302:170,1,108.750004148483,0|0,3:1|2:0,2:1:0:0:
183,294,75001,1,8,2:0:0:0:
187,298,75061,2,0,P|162:270|179:200,1,108.750004148483,2|0,2:0|2:0,2:0:0:0:
189,197,75241,2,2,L|312:177,1,108.750004148483,0|0,2:0|2:0,2:1:0:0:
186,14,75481,2,0,P|121:50|129:138,1,163.125006222725,0|0,3:0|2:0,2:0:0:0:
113,148,75721,6,0,P|92:165|53:166,1,54.3750020742417,2|0,3:0|2:0,2:0:0:0:
21,44,75841,2,0,P|47:40|81:59,1,54.3750020742417,2|0,2:0|2:0,2:0:0:0:
208,104,75961,2,0,P|210:161|193:213,1,108.750004148483,8|0,2:0|2:0,2:0:0:0:
20,320,76201,2,0,P|48:271|104:264,1,108.750004148483,2|0,2:3|2:0,2:0:0:0:
367,127,76441,6,2,P|387:184|377:229,1,108.750004148483,2|0,2:3|2:0,2:1:0:0:
256,352,76681,2,2,P|203:335|213:231,1,163.125006222725,0|0,3:0|2:0,2:0:0:0:
236,225,76921,6,0,L|168:210,1,54.3750020742417,8|0,2:0|2:0,2:0:0:0:
299,50,77041,2,0,L|352:38,1,54.3750020742417,8|0,2:3|2:0,2:0:0:0:
210,119,77161,6,0,L|263:130,1,54.3750020742417,4|0,2:3|2:0,2:0:0:0:
337,142,77281,2,0,L|283:153,1,54.3750020742417,4|0,2:3|2:0,2:0:0:0:
85,164,77401,6,2,B|127:166|369:64|176:-204|-188:-90|-78:205|17:181|77:130,1,608.999981414795,4|8,3:2|2:0,2:1:0:0:
106,58,78001,1,0,2:0:0:0:
133,293,78121,6,0,P|116:270|111:225,1,54.3750020742417,2|0,2:1|2:0,2:0:0:0:
110,62,78241,2,2,P|201:132|182:243,1,217.500008296967,0|0,2:0|2:0,2:1:0:0:
3,222,78601,2,2,P|27:160|104:161,1,108.750004148483,0|0,3:0|2:0,2:1:0:0:
265,280,78841,6,0,P|278:309|305:308,1,54.3750020742417,8|0,2:0|2:0,2:0:0:0:
386,340,78961,2,2,P|415:303|310:212,1,217.500008296967,2|0,2:3|2:0,2:1:0:0:
305,210,79261,1,2,2:3:0:0:
297,202,79321,6,0,P|283:159|284:87,1,108.750004148483,2|0,3:3|2:0,2:0:0:0:
373,25,79561,2,0,L|379:87,1,54.3750020742417,2|0,3:0|2:0,2:0:0:0:
181,75,79681,2,0,L|186:20,1,54.3750020742417,2|0,2:3|2:0,2:0:0:0:
275,2,79801,6,0,P|369:13|381:101,1,184.875003526211,8|0,2:0|2:0,2:0:0:0:
373,115,80041,2,0,L|384:0,1,116,2|0,2:3|2:0,2:0:0:0:
147,170,80281,6,0,P|181:166|206:188,1,54.3750020742417,2|0,2:3|2:0,2:0:0:0:
279,311,80401,1,0,2:3:0:0:
271,320,80461,2,0,L|199:309,1,54.3750020742417,2|0,2:0|3:0,2:0:0:0:
146,379,80641,6,0,P|126:342|134:269,1,108.750004148483,2|8,2:3|2:0,2:0:0:0:
272,113,80881,2,0,P|292:150|284:223,1,108.750004148483,2|0,2:3|2:0,2:0:0:0:
348,376,81121,5,2,2:3:0:0:
352,380,81181,1,2,2:3:0:0:
356,384,81241,2,0,P|423:365|442:225,1,217.500008296967,2|0,3:0|2:0,2:0:0:0:
368,273,81601,1,0,3:0:0:0:
505,364,81721,2,0,P|472:371|437:326,1,94.2499956855776,8|0,2:0|2:0,2:0:0:0:
383,175,81961,6,0,P|392:130|450:125,1,94.2499956855776,2|0,2:3|2:0,2:3:0:0:
448,127,82141,1,2,2:0:0:0:
442,138,82201,6,0,L|244:178,1,188.499991371155,2|0,2:3|3:0,2:0:0:0:
87,118,82561,2,0,P|134:139|187:131,1,94.2499956855776,2|8,2:3|2:0,2:0:0:0:
268,43,82801,2,0,P|248:65|247:87,1,47.1249978427888,2|0,2:3|2:0,2:0:0:0:
174,147,82921,2,0,P|169:194|200:250,1,94.2499956855776,0|0,2:0|2:0,2:0:0:0:
256,25,83161,5,4,3:2:0:0:
147,320,83401,6,0,L|62:300,1,86.9999973449708,10|0,3:0|2:0,2:0:0:0:
365,320,83641,2,0,L|450:300,1,86.9999973449708,10|0,3:0|2:0,2:0:0:0:
256,384,83881,6,0,L|256:297,1,86.9999973449708,6|0,3:0|2:0,2:0:0:0:
136,40,84121,6,0,P|155:46|167:71,1,43.4999986724854,8|0,3:2|2:0,2:0:0:0:
251,95,84241,2,2,P|230:141|186:154,1,86.9999973449708,8|8,3:0|3:0,2:1:0:0:
261,84,84481,6,0,P|267:103|292:115,1,43.4999986724854,0|0,2:0|2:0,2:0:0:0:
338,51,84601,1,8,2:0:0:0:
413,141,84721,6,0,L|363:130,1,43.4999986724854,4|0,2:3|2:0,2:0:0:0:
99,192,84841,6,0,L|149:181,1,43.4999986724854,4|0,2:3|2:0,2:0:0:0:
256,218,84961,5,4,2:3:0:0:
0,380,85201,5,0,3:0:0:0:
4,384,85321,1,8,2:0:0:0:
30,296,85561,5,0,3:0:0:0:
34,300,85681,1,8,2:3:0:0:
111,335,85921,5,0,3:0:0:0:
115,339,86041,1,8,2:0:0:0:
167,267,86161,5,8,2:3:0:0:
171,271,86221,1,8,2:3:0:0:
175,275,86281,1,8,2:3:0:0:
256,297,86401,5,8,2:3:0:0:
338,256,86521,5,4,2:3:0:0:
339,338,86641,1,4,2:3:0:0:
342,260,86761,1,4,2:3:0:0:
343,342,86881,1,4,2:3:0:0:
421,300,87001,5,4,3:2:0:0:
425,304,87239,1,0,2:0:0:0:
429,308,87477,1,0,3:0:0:0:
500,249,87596,6,0,P|503:227|497:165,1,72.5,0|0,2:0|2:0,2:0:0:0:
421,217,87953,1,0,3:0:0:0:
341,166,88310,5,0,2:0:0:0:
345,170,88429,1,0,3:0:0:0:
255,190,88667,1,0,2:0:0:0:
169,171,88786,1,0,2:0:0:0:
248,175,88905,2,0,L|172:191,1,72.5,0|0,3:0|2:0,2:0:0:0:
89,234,89262,6,0,L|117:240,1,18.125,0|0,2:0|2:0,2:0:0:0:
4,220,89381,1,0,3:0:0:0:
59,150,89503,2,0,P|64:115|57:65,1,72.5,0|0,2:0|2:0,2:0:0:0:
5,8,89871,5,8,2:0:0:0:
136,30,89988,1,8,2:0:0:0:
148,41,90106,5,8,2:3:0:0:
279,63,90223,1,8,2:3:0:0:
410,85,90341,1,4,2:3:0:0:
254,178,90576,5,4,2:3:0:0:
258,182,90635,5,4,2:3:0:0:
262,186,90694,5,4,2:3:0:0:
266,190,90753,5,4,2:3:0:0:
266,190,90812,5,4,2:3:0:0:
235,274,91047,1,4,2:3:0:0:
280,343,91282,5,12,2:0:0:0:
284,347,91422,2,0,L|261:171,1,163.125006222725,0|0,2:0|3:0,2:0:0:0:
345,74,91908,2,0,L|336:137,1,54.3750020742417,0|0,2:0|2:0,2:0:0:0:
332,60,92148,1,0,2:0:0:0:
421,125,92268,2,0,P|446:115|473:117,2,54.3750020742417,0|0|0,3:0|2:0|2:0,2:0:0:0:
210,93,92761,6,0,L|239:99,1,27.1875010371209,0|0,3:0|2:0,2:0:0:0:
325,129,92881,2,0,P|254:134|210:98,1,108.750004148483,0|0,2:0|2:0,2:0:0:0:
168,181,93241,1,0,3:0:0:0:
172,186,93361,1,0,2:0:0:0:
176,190,93479,1,0,2:0:0:0:
58,148,93599,6,0,L|84:143,1,27.1875010371209,2|0,2:0|2:0,2:0:0:0:
45,133,93719,1,2,3:2:0:0:
20,214,93839,1,2,2:2:0:0:
94,248,93959,1,2,2:2:0:0:
110,322,94078,1,2,2:2:0:0:
47,374,94198,5,2,3:2:0:0:
11,310,94318,1,2,2:2:0:0:
81,270,94438,1,2,2:2:0:0:
135,317,94558,1,2,2:2:0:0:
221,290,94677,1,4,3:2:0:0:
221,290,94917,5,2,2:2:0:0:
213,265,95037,1,2,2:2:0:0:
268,194,95157,1,2,3:2:0:0:
293,209,95276,1,0,2:0:0:0:
302,233,95396,1,2,2:2:0:0:
298,252,95516,1,0,2:0:0:0:
384,235,95636,5,2,3:2:0:0:
384,235,95876,1,2,2:2:0:0:
404,241,95995,1,0,2:0:0:0:
460,313,96115,1,2,3:2:0:0:
422,327,96235,1,2,2:2:0:0:
416,351,96355,1,2,2:2:0:0:
438,365,96475,1,2,2:2:0:0:
434,338,96594,5,2,3:2:0:0:
374,357,96714,1,2,2:2:0:0:
369,145,96954,1,2,2:0:0:0:
429,164,97074,1,0,3:0:0:0:
465,95,97193,1,2,2:0:0:0:
390,37,97313,1,2,2:0:0:0:
324,84,97433,1,2,2:0:0:0:
351,151,97553,1,2,3:0:0:0:
276,208,97673,5,2,2:0:0:0:
195,179,97792,1,2,2:0:0:0:
182,98,97912,1,2,2:0:0:0:
114,47,98032,5,2,3:0:0:0:
108,125,98152,1,2,2:0:0:0:
24,148,98272,2,0,L|84:160,1,54.3750020742417,2|0,2:0|2:0,2:0:0:0:
206,380,98511,5,0,3:0:0:0:
210,384,98571,2,0,P|198:359|175:345,1,54.3750020742417,0|0,3:0|3:0,2:0:0:0:
297,380,98752,1,0,3:0:0:0:
301,384,98813,2,0,P|312:359|335:345,1,54.3750020742417,0|0,3:0|3:0,2:0:0:0:
129,248,98994,5,0,3:0:0:0:
133,252,99055,2,0,P|107:243|81:248,1,54.3750020742417,0|0,3:0|3:0,2:0:0:0:
375,248,99236,1,0,3:0:0:0:
379,252,99297,2,0,P|404:243|430:248,1,54.3750020742417,0|0,3:0|3:0,2:0:0:0:
24,148,99478,5,0,3:0:0:0:
28,152,99539,2,0,P|24:123|27:97,1,54.3750020742417,0|0,3:0|3:0,2:0:0:0:
477,148,99720,1,0,3:0:0:0:
481,152,99781,2,0,P|485:123|482:97,1,54.3750020742417,0|0,3:0|3:0,2:0:0:0:
256,0,99961,5,6,2:3:0:0:
255,21,100043,5,6,2:3:0:0:
258,43,100123,5,6,2:3:0:0:
257,65,100204,5,10,2:3:0:0:
184,197,100681,2,0,L|153:190,4,27.1875010371209,2|0|2|0|2,2:3|2:0|2:3|2:0|2:3,2:0:0:0:
339,267,100921,6,0,L|285:257,1,54.3750020742417,2|0,2:3|2:0,2:0:0:0:
205,243,101041,2,0,L|259:253,1,54.3750020742417,2|0,2:3|2:0,2:0:0:0:
260,320,101161,2,0,L|270:266,1,54.3750020742417,2|0,2:3|2:0,2:0:0:0:
284,186,101281,2,0,L|274:240,1,54.3750020742417,2|0,2:3|2:0,2:0:0:0:
258,336,101401,5,8,2:0:0:0:
262,340,101641,1,8,2:3:0:0:
266,344,101881,1,8,2:3:0:0:
381,188,102001,1,8,2:3:0:0:
194,160,102121,1,4,2:3:0:0:
194,160,102361,6,2,P|182:132|182:64,1,86.9999973449708,4|0,3:1|2:0,2:0:0:0:
306,43,102721,2,0,P|301:53|259:69,1,50.749998451233,0|0,2:0|2:0,2:0:0:0:
101,7,102841,6,2,B|67:28|48:134|132:299|296:231|276:81|178:-55|105:37,1,482.124987125874,8|0,2:2|2:0,2:1:0:0:
124,10,103321,2,0,P|149:22|159:61,1,61.6250011754036,2|0,2:3|2:0,2:0:0:0:
85,197,103441,2,0,P|66:140|83:86,1,101.499996902466,2|0,2:3|3:0,2:0:0:0:
244,94,103681,2,0,P|208:138|148:146,1,101.499996902466,2|8,2:3|2:0,2:0:0:0:
26,192,103921,6,0,P|60:198|75:215,1,50.749998451233,2|0,2:3|2:0,2:0:0:0:
143,375,104041,2,0,P|129:326|140:278,1,101.499996902466,0|2,3:3|2:3,2:0:0:0:
153,261,104221,1,2,2:3:0:0:
172,263,104281,2,0,L|272:250,1,101.499996902466,2|0,3:3|2:0,2:0:0:0:
493,182,104521,6,0,P|507:205|504:232,1,54.3750020742417,2|0,3:3|2:0,2:0:0:0:
441,294,104641,2,0,P|438:321|421:341,1,54.3750020742417,2|0,2:3|2:0,2:0:0:0:
239,165,104761,2,0,P|330:185|354:280,1,195.749994026184,8|0,2:0|2:0,2:0:0:0:
340,295,105001,2,0,P|322:253|346:206,1,94.2499956855776,2|0,2:3|2:0,2:0:0:0:
338,62,105241,6,2,P|399:50|408:110,1,130.499996017456,2|0,2:3|2:0,2:1:0:0:
245,267,105481,2,2,P|184:279|175:219,1,130.499996017456,2|0,3:3|2:0,2:1:0:0:
181,215,105661,1,0,2:0:0:0:
190,221,105721,2,0,L|178:305,1,65.2499980087281,8|0,2:0|2:0,2:0:0:0:
86,366,105841,2,0,L|83:172,1,188.499991371155,2|0,2:3|2:0,2:0:0:0:
63,15,106201,6,0,P|123:3|136:116,1,188.499991371155,0|0,3:0|2:0,2:0:0:0:
87,181,106561,1,0,2:0:0:0:
0,158,106681,2,0,P|16:112|70:106,1,94.2499956855776,8|0,2:0|2:0,2:0:0:0:
176,207,106921,2,0,P|211:217|230:214,1,47.1249978427888,0|0,2:0|2:0,2:0:0:0:
329,83,107041,5,2,2:3:0:0:
333,87,107101,1,2,2:3:0:0:
337,91,107161,2,0,P|314:96|295:110,1,47.1249978427888,2|0,2:3|2:0,2:0:0:0:
290,289,107281,2,2,P|312:241|311:192,1,94.2499956855776,2|0,2:3|3:0,2:1:0:0:
205,85,107521,1,0,2:0:0:0:
390,181,107641,1,8,0:0:0:0:
401,172,107761,6,0,L|440:177,1,39.8750012168885,2|0,2:3|2:0,2:0:0:0:
512,184,107881,2,0,L|438:193,1,50.749998451233,2|0,2:3|2:0,2:0:0:0:
385,155,108001,2,0,L|394:81,1,50.749998451233,2|0,2:3|2:0,2:0:0:0:
320,210,108121,2,0,L|329:284,1,50.749998451233,2|0,3:0|2:0,2:0:0:0:
311,218,108361,6,0,P|340:236|339:264,1,47.1249978427888,2|0,3:0|2:0,2:0:0:0:
447,333,108481,2,0,P|412:335|397:312,1,47.1249978427888,2|0,2:3|2:0,2:0:0:0:
243,310,108601,2,0,P|337:286|431:309,1,195.749994026184,8|0,2:0|2:0,2:0:0:0:
456,321,108841,1,0,2:0:0:0:
338,384,108961,2,0,P|330:368|323:335,1,47.1249978427888,2|0,2:3|2:0,2:0:0:0:
228,289,109081,6,2,P|210:227|228:157,1,130.499996017456,2|0,2:3|2:0,2:1:0:0:
196,48,109261,1,2,2:0:0:0:
190,38,109321,2,0,P|174:102|189:166,1,130.499996017456,10|0,0:3|2:0,2:0:0:0:
134,249,109561,6,0,L|70:262,1,65.2499980087281,10|0,2:0|2:0,2:0:0:0:
255,111,109681,2,0,L|320:99,1,65.2499980087281,10|0,2:3|2:0,2:0:0:0:
152,171,109801,6,0,L|224:184,1,72.5,8|0,2:3|2:0,2:0:0:0:
57,162,110041,6,0,B|107:98|265:127|253:299|182:311,1,326.25001244545,4|2,3:2|2:0,2:0:0:0:
248,379,110461,5,2,2:0:0:0:
252,382,110521,2,2,B|364:354|359:193|162:99|9:211|23:386|125:380,1,558.250017036439,8|0,2:0|2:0,2:1:0:0:
104,380,111001,6,0,P|106:353|104:325,1,43.4999986724854,2|0,2:3|2:0,2:0:0:0:
40,172,111121,2,0,P|51:222|87:253,1,86.9999973449708,2|0,2:3|3:0,2:0:0:0:
7,339,111361,2,0,P|57:343|98:319,1,86.9999973449708,2|8,2:3|2:0,2:0:0:0:
195,157,111601,6,0,P|177:177|162:201,1,43.4999986724854,2|0,2:3|2:0,2:0:0:0:
159,271,111721,1,0,2:0:0:0:
67,193,111841,6,0,P|81:216|99:237,1,43.4999986724854,2|0,2:3|2:0,2:0:0:0:
241,249,111961,2,0,P|296:216|358:270,1,130.499996017456,0|0,3:0|2:0,2:0:0:0:
379,271,112201,6,0,P|382:239|376:212,1,54.3750020742417,2|0,3:3|2:0,2:0:0:0:
291,71,112321,2,0,P|288:103|294:130,1,54.3750020742417,2|0,2:3|2:0,2:0:0:0:
331,271,112441,2,0,P|418:305|517:261,1,195.749994026184,8|0,2:0|2:0,2:0:0:0:
500,246,112681,2,0,P|459:227|417:251,1,94.2499956855776,2|0,2:3|2:0,2:0:0:0:
284,370,112921,6,2,P|244:326|229:254,1,130.499996017456,2|0,2:3|2:0,2:1:0:0:
382,43,113161,1,2,3:1:0:0:
390,34,113221,2,0,P|431:79|418:164,1,130.499996017456,2|0,2:0|2:0,2:1:0:0:
417,161,113401,2,0,L|353:155,1,54.3750020742417,8|0,2:0|2:0,2:0:0:0:
268,185,113521,2,0,P|251:129|269:71,1,108.750004148483,2|0,2:3|2:0,2:0:0:0:
304,4,113761,1,0,2:0:0:0:
63,142,113881,6,0,P|96:56|192:35,1,188.499991371155,0|0,3:0|2:0,2:0:0:0:
178,162,114241,2,0,P|160:145|156:113,1,47.1249978427888,0|0,2:0|2:0,2:0:0:0:
56,45,114361,2,0,P|109:15|140:112,1,188.499991371155,8|0,2:2|2:0,2:0:0:0:
132,107,114841,6,0,P|113:120|104:142,1,47.1249978427888,2|0,2:3|2:0,2:0:0:0:
11,222,114961,2,0,P|66:230|118:223,1,94.2499956855776,2|0,2:3|3:0,2:0:0:0:
157,358,115201,5,2,2:3:0:0:
148,350,115261,2,0,L|148:299,1,47.1249978427888,2|8,2:0|2:0,2:0:0:0:
199,160,115441,1,2,2:3:0:0:
190,168,115501,2,0,L|190:219,1,47.1249978427888,2|0,2:0|2:0,2:0:0:0:
56,325,115681,5,2,2:3:0:0:
234,319,115801,2,0,L|307:342,1,47.1249978427888,8|0,2:0|2:0,2:0:0:0:
346,293,116041,5,0,2:0:0:0:
425,318,116161,1,8,2:3:0:0:
278,350,116281,6,2,P|348:385|481:126,1,456.749986061097,8|0,2:0|2:0,2:1:0:0:
459,118,116761,6,0,L|513:109,1,54.3750020742417,8|0,0:0|0:0,0:0:0:0:
353,200,116881,2,0,L|362:254,1,54.3750020742417,10|0,0:3|0:0,0:0:0:0:
244,182,117001,2,0,L|263:12,1,163.125006222725,6|0,0:3|0:0,0:0:0:0:
248,12,117241,6,0,P|300:42|272:114,1,130.499996017456,8|0,2:0|2:0,2:0:0:0:
310,100,117481,6,0,L|255:91,1,43.4999986724854,4|0,2:3|2:0,2:0:0:0:
202,284,117601,2,0,L|257:293,1,43.4999986724854,4|0,2:3|2:0,2:0:0:0:
451,237,117721,5,4,3:2:0:0:
443,227,117781,2,2,P|380:225|349:253,1,86.9999973449708,2|0,2:3|2:0,2:1:0:0:
337,219,117961,2,0,P|340:242|339:264,1,43.4999986724854,8|0,2:0|2:0,2:0:0:0:
280,381,118081,2,0,P|277:357|281:336,1,43.4999986724854,8|0,2:0|2:0,2:1:0:0:
256,192,118201,1,0,2:0:0:0:
256,192,118441,2,0,P|162:211|80:189,1,173.999994689942,4|8,3:2|2:0,2:0:0:0:
87,192,118921,6,0,B|9:104|64:-24|143:-48|205:23|184:96|80:144,1,405.999987609864,4|4,3:2|2:3,2:0:0:0:
13,69,119521,1,4,2:3:0:0:
91,196,119641,6,0,B|43:-10|-94:49|-59:175|-35:377|136:395|224:366|252:155|148:13|31:2,1,811.999975219727,4|8,3:2|2:0,2:0:0:0:
50,10,120841,2,0,P|38:71|45:176,1,152.249995353699,4|0,3:2|2:0,2:0:0:0:
45,165,121081,5,8,2:3:0:0:
96,222,121201,1,8,2:3:0:0:
49,289,121321,1,4,2:3:0:0:
198,318,121561,6,0,P|192:351|174:392,1,65.2499980087281,0|0,3:0|2:0,2:0:0:0:
314,318,121801,2,0,P|320:351|338:392,1,65.2499980087281,0|0,3:0|2:0,2:0:0:0:
90,230,122041,6,2,P|62:249|20:265,1,65.2499980087281,0|0,3:0|2:0,2:1:0:0:
422,230,122281,2,0,P|449:249|491:265,1,65.2499980087281,8|0,2:0|2:0,2:0:0:0:
256,192,122521,5,0,3:0:0:0:
256,0,122761,5,0,3:0:0:0:
262,36,122841,5,4,2:3:0:0:
251,69,122921,5,4,2:3:0:0:
255,98,123001,5,4,2:3:0:0:
173,28,123121,5,8,2:3:0:0:
334,86,123241,1,8,2:3:0:0:
252,210,123361,2,0,L|248:165,1,32.624999004364,4|0,2:0|2:0,2:0:0:0:
500,384,124441,6,0,B|646:206|405:44|280:270|421:342,1,482.124987125874,4|0,3:2|2:0,2:0:0:0:
454,270,124921,6,0,P|368:295|316:111,1,319.000009735108,4|8,3:2|2:0,2:0:0:0:
321,115,125221,1,8,2:0:0:0:
326,123,125281,1,8,2:0:0:0:
245,189,125401,6,0,L|234:257,1,54.3750020742417,4|0,3:2|2:0,2:0:0:0:
169,133,125521,2,0,L|159:69,1,54.3750020742417,2|0,2:3|2:0,2:0:0:0:
32,193,125641,2,0,P|57:185|87:181,1,54.3750020742417,8|0,2:2|2:0,2:0:0:0:
228,202,125761,6,0,P|208:215|64:211,1,173.999994689942,4|0,3:2|2:0,2:0:0:0:
35,92,126112,2,0,P|58:107|77:206,1,108.750004148483,4|0,3:2|2:0,2:0:0:0:
37,383,126352,5,0,3:0:0:0:
5,360,126432,1,0,3:0:0:0:
7,318,126512,1,0,3:0:0:0:
42,293,126592,2,0,P|93:306|161:281,1,108.750004148483,4|0,3:2|2:0,2:0:0:0:
221,344,126832,5,4,2:3:0:0:
227,342,126892,5,4,2:3:0:0:
234,341,126952,5,4,2:3:0:0:
241,340,127012,5,4,2:3:0:0:
247,339,127072,5,4,2:3:0:0:
254,338,127132,5,4,2:3:0:0:
261,337,127192,5,4,2:3:0:0:
267,336,127252,5,4,2:3:0:0:
274,335,127312,5,4,3:2:0:0:
293,160,127552,1,8,0:3:0:0:
264,143,127632,1,8,0:3:0:0:
231,149,127712,1,8,0:3:0:0:
209,175,127792,1,8,0:3:0:0:
209,208,127872,1,0,3:0:0:0:
231,234,127952,1,0,3:0:0:0:
264,240,128032,1,0,3:0:0:0:
293,223,128112,1,0,3:0:0:0:
305,191,128192,1,0,3:0:0:0:
386,168,128272,5,4,2:3:0:0:
411,167,128332,5,4,2:3:0:0:
435,171,128392,5,4,2:3:0:0:
460,172,128452,5,4,2:3:0:0:
482,169,128512,6,0,L|493:244,1,54.3750020742417,4|0,3:2|0:0,0:0:0:0:
339,304,128630,2,0,P|272:267|277:43,1,326.25001244545,2|4,2:3|2:3,2:0:0:0:
369,88,129102,1,4,2:3:0:0:
456,59,129220,6,0,P|297:-19|166:178,1,435.000016593934,4|8,3:2|2:0,2:0:0:0:
83,188,129820,1,8,2:3:0:0:
25,123,129940,2,2,P|20:70|26:8,1,108.75,8|0,2:3|2:0,2:1:0:0:
7,1,130180,6,0,L|45:3,1,36.25,8|0,2:0|2:0,2:0:0:0:
113,59,130300,1,2,2:3:0:0:
39,380,130540,6,0,L|3:382,1,36.25,4|0,3:2|2:0,2:0:0:0:
206,62,130780,2,0,L|204:25,1,36.25,4|0,3:2|2:0,2:0:0:0:
490,294,131020,6,2,P|382:268|281:296,1,217.5,4|0,3:2|2:0,2:1:0:0:
197,349,131500,1,0,2:0:0:0:
353,234,131620,2,2,P|248:261|144:233,1,217.5,0|0,3:0|2:0,0:1:0:0:
87,167,132098,5,0,3:0:0:0:
14,214,132215,1,0,3:0:0:0:
213,161,132333,5,8,3:2:0:0:
224,74,132450,1,8,3:2:0:0:
107,35,132568,5,8,2:0:0:0:
145,234,132686,1,8,2:0:0:0:
336,182,132803,1,8,2:0:0:0:
297,0,132921,1,4,3:2:0:0:
390,61,133321,6,0,P|400:41|413:24,1,43.4999986724854,2|0,2:3|2:0,2:0:0:0:
433,126,133681,6,0,P|418:111|405:94,1,43.4999986724854,2|0,2:3|2:0,2:0:0:0:
498,106,134040,6,0,P|479:117|459:125,1,43.4999986724854,2|0,2:3|2:0,2:0:0:0:
501,32,134400,6,0,P|505:54|507:76,1,43.4999986724854,2|0,2:3|2:0,2:0:0:0:
432,6,134760,6,0,P|454:8|475:15,1,43.4999986724854,2|0,2:3|2:0,2:0:0:0:
