osu file format v14

[General]
AudioFilename: audio.mp3
AudioLeadIn: 0
PreviewTime: 52651
Countdown: 0
SampleSet: Soft
StackLeniency: 0.8
Mode: 0
LetterboxInBreaks: 0
WidescreenStoryboard: 1

[Editor]
Bookmarks: 8281,22321,23641,39001,54361,69721,87001,102361,117721,133081
DistanceSpacing: 6
BeatDivisor: 8
GridSize: 4
TimelineZoom: 2.100001

[Metadata]
Title:(RE)PLAY
TitleUnicode:(RE)PLAY
Artist:Eden & Trickstar
ArtistUnicode:Eden & Trickstar
Creator:Ascended
Version:(RE)EXPERT
Source:あんさんぶるスターズ!!
Tags:Replay what's whats your scenario あんさんぶるスターズ!! -_ascended_- ascended AirinCat Yahuri Otosaka-Yu Suzuki_1112 ensemble stars!! enstars!! es!! enstars es jpop j-pop japanese japan pop jazz male vocals vocal vocalist gacha mobile phone video game videogame games idol seiyuu voice actor va basic music rhythm Eden & Trickstar COVER SONG SERIES 05 frontier works frontierworks happy elements cacalia studio MOMO"mocha"N UTA Daichi Miura 三浦大知 Takuya Sakai 酒井拓也 Arte Refact Jun Sazanami 漣ジュン Yuuma Yuma Yūma Uchida 内田雄馬 Hiyori Tomoe 巴日和 Natsuki Hanae 花江夏樹 Nagisa Ran 乱凪砂 Junichi Jun'ichi Suwabe 諏訪部順一 Ibara Saegusa 七種茨 Ryota Osaka Ryouta Oosaka Ōsaka Ryōta 逢坂良太 Hokuto Hidaka 氷鷹北斗 Tomoaki Maeno 前野智昭 Subaru Akehoshi 明星スバル Tetsuya Kakihara 柿原徹也 Mao Isara 衣更真緒 Kaji Yuuki Yuki 梶裕貴 Makoto Yuuki Yūki 遊木真 Showtarou Shoutarou Shōtarō Morikubo 森久保祥太郎 and
BeatmapID:4508498
BeatmapSetID:2095363

[Difficulty]
HPDrainRate:5
CircleSize:4
OverallDifficulty:8
ApproachRate:9
SliderMultiplier:2
SliderTickRate:1

[Events]
//Background and Video events
0,0,"nerd emoji.jpg",0,0
//Break Periods
//Storyboard Layer 0 (Background)
//Storyboard Layer 1 (Fail)
//Storyboard Layer 2 (Pass)
//Storyboard Layer 3 (Foreground)
//Storyboard Layer 4 (Overlay)
//Storyboard Sound Samples

[TimingPoints]
601,480,4,2,1,50,1,0
1321,-66.6666666666667,4,2,1,50,0,0
3721,-77.0500770116108,4,2,1,50,0,0
4201,-66.6666666666667,4,2,1,50,0,0
5641,-71.4285714285714,4,2,1,50,0,0
6361,-71.4285714285714,4,2,1,40,0,0
8041,-99.8159319740916,4,2,1,40,0,0
8281,-100,4,2,1,50,0,0
11881,-50,4,2,1,50,0,0
12061,-50,4,2,1,5,0,0
12121,-100,4,2,1,50,0,0
15661,-100,4,2,1,5,0,0
15721,-50,4,2,1,50,0,0
15901,-50,4,2,1,5,0,0
15961,-100,4,2,1,50,0,0
16921,-100.351815249963,4,2,1,50,0,0
17401,-100,4,2,1,50,0,0
19501,-100,4,2,1,5,0,0
19561,-50,4,2,1,50,0,0
19741,-50,4,2,1,5,0,0
19801,-100,4,2,1,50,0,0
21601,-100,4,2,1,40,0,0
21961,-100,4,2,1,40,0,0
23161,-133.333333333333,4,2,1,40,0,0
23641,-55.5555555555556,4,2,1,40,0,0
24601,-55.5555555555556,4,2,1,60,0,0
24900,-55.5555555555556,4,2,1,5,0,0
24961,-55.5555555555556,4,2,1,60,0,0
25500,-55.5555555555556,4,2,1,5,0,0
25561,-55.5555555555556,4,2,1,60,0,0
26521,-100,4,2,1,60,0,0
27001,-76.9230769230769,4,2,1,60,0,0
27181,-76.9230769230769,4,2,1,5,0,0
27241,-43.4782608695652,4,2,1,60,0,0
27421,-43.4782608695652,4,2,1,5,0,0
27481,-71.4285714285714,4,2,1,60,0,0
28500,-71.4285714285714,4,2,1,5,0,0
28561,-71.4285714285714,4,2,1,60,0,0
29401,-66.6666666666667,4,2,1,60,0,0
30841,-100,4,2,1,60,0,0
31021,-100,4,2,1,5,0,0
31081,-100,4,2,1,60,0,0
31141,-100,4,2,1,5,0,0
31201,-100,4,2,1,60,0,0
31261,-100,4,2,1,5,0,0
31321,-55.5555555555556,4,2,1,60,0,0
32281,-76.9230769230769,4,2,1,60,0,0
32341,-76.9230769230769,4,2,1,5,0,0
32401,-76.9230769230769,4,2,1,60,0,0
32701,-76.9230769230769,4,2,1,5,0,0
32761,-76.9230769230769,4,2,1,60,0,0
33420,-76.9230769230769,4,2,1,5,0,0
33481,-76.9230769230769,4,2,1,60,0,0
33660,-76.9230769230769,4,2,1,5,0,0
33721,-76.9230769230769,4,2,1,60,0,0
34441,-66.6666666666667,4,2,1,60,0,0
34921,-58.6963374707522,4,2,1,60,0,0
35641,-55.5555555555556,4,2,1,60,0,0
36361,-55.6126123187356,4,2,1,60,0,0
36421,-55.6126123187356,4,2,1,5,0,0
36481,-55.6126123187356,4,2,1,60,0,0
36540,-55.6126123187356,4,2,1,5,0,0
36601,-55.6126123187356,4,2,1,60,0,0
36781,-55.6126123187356,4,2,1,5,0,0
36841,-55.5555555555556,4,2,1,60,0,0
37081,-58.8235294117647,4,2,1,60,0,0
37441,-55.5555555555556,4,2,1,60,0,0
37801,-55.5679416410609,4,2,1,60,0,0
39001,-200,4,2,1,40,0,0
44041,-100,4,2,1,40,0,0
44161,-200,4,2,1,40,0,0
44461,-200,4,2,1,5,0,0
44521,-100,4,2,1,40,0,0
46681,-125,4,2,1,45,0,0
48601,-100,4,2,1,45,0,0
50521,-90.8639542462002,4,2,1,45,0,0
51001,-90.8551172236646,4,2,1,45,0,0
51361,-90.9090909090909,4,2,1,45,0,0
52441,-66.6666666666667,4,2,1,55,0,0
52561,-66.6666666666667,4,2,1,55,0,0
53401,-58.8235294117647,4,2,1,55,0,0
54121,-133.333333333333,4,2,1,55,0,0
54301,-133.333333333333,4,2,1,5,0,0
54361,-66.6666666666667,4,2,1,65,0,1
54540,-66.6666666666667,4,2,1,5,0,1
54601,-66.6666666666667,4,2,1,65,0,1
54721,-83.3333333333333,4,2,1,65,0,0
54780,-83.3333333333333,4,2,1,5,0,0
54841,-83.3333333333333,4,2,1,65,0,0
55380,-83.3333333333333,4,2,1,5,0,0
55441,-83.3333333333333,4,2,1,65,0,0
55740,-83.3333333333333,4,2,1,5,0,0
55801,-83.3333333333333,4,2,1,65,0,0
56220,-83.3333333333333,4,2,1,5,0,0
56281,-83.3333333333333,4,2,1,65,0,0
56460,-83.3333333333333,4,2,1,5,0,0
56521,-66.6666666666667,4,2,1,65,0,0
56581,-66.6666666666667,4,2,1,5,0,0
56641,-66.6666666666667,4,2,1,65,0,0
56701,-66.6666666666667,4,2,1,5,0,0
56761,-66.6666666666667,4,2,1,65,0,0
56940,-66.6666666666667,4,2,1,5,0,0
57001,-66.6666666666667,4,2,1,65,0,0
57241,-55.5555555555556,4,2,1,65,0,0
57900,-55.5555555555556,4,2,1,5,0,0
57961,-55.5555555555556,4,2,1,65,0,0
59161,-66.6666666666667,4,2,1,65,0,0
59220,-66.6666666666667,4,2,1,5,0,0
59281,-66.6666666666667,4,2,1,65,0,0
60121,-52.6315789473684,4,2,1,65,0,0
60300,-52.6315789473684,4,2,1,5,0,0
60361,-55.5555555555556,4,2,1,65,0,0
60420,-55.5555555555556,4,2,1,5,0,0
60481,-55.5555555555556,4,2,1,65,0,0
60540,-55.5555555555556,4,2,1,5,0,0
60601,-55.5555555555556,4,2,1,65,0,0
60780,-55.5555555555556,4,2,1,5,0,0
60841,-55.5555555555556,4,2,1,65,0,0
61081,-55.5555555555556,4,2,1,65,0,0
61620,-55.5555555555556,4,2,1,5,0,0
61681,-55.5555555555556,4,2,1,65,0,0
61740,-55.5555555555556,4,2,1,5,0,0
61801,-55.5555555555556,4,2,1,65,0,0
62220,-55.5555555555556,4,2,1,5,0,0
62281,-55.5555555555556,4,2,1,65,0,0
62340,-55.5555555555556,4,2,1,5,0,0
62401,-83.3333333333333,4,2,1,65,0,0
62881,-76.9230769230769,4,2,1,65,0,0
63001,-66.6666666666667,4,2,1,65,0,0
63481,-83.3333333333333,4,2,1,65,0,0
63780,-83.3333333333333,4,2,1,5,0,0
63841,-83.3333333333333,4,2,1,65,0,0
63900,-83.3333333333333,4,2,1,5,0,0
63961,-83.3333333333333,4,2,1,65,0,0
64201,-62.5,4,2,1,65,0,0
64261,-62.5,4,2,1,5,0,0
64321,-62.5,4,2,1,65,0,0
64381,-62.5,4,2,1,5,0,0
64441,-62.5,4,2,1,65,0,0
64620,-62.5,4,2,1,5,0,0
64681,-76.9230769230769,4,2,1,65,0,0
64921,-55.5555555555556,4,2,1,65,0,0
65340,-55.5555555555556,4,2,1,5,0,0
65401,-55.5555555555556,4,2,1,65,0,0
65461,-55.5555555555556,4,2,1,5,0,0
65521,-55.5555555555556,4,2,1,65,0,0
66300,-55.5555555555556,4,2,1,5,0,0
66361,-55.5555555555556,4,2,1,65,0,0
66900,-55.5555555555556,4,2,1,5,0,0
66961,-76.9230769230769,4,2,1,65,0,0
67260,-76.9230769230769,4,2,1,5,0,0
67321,-76.9230769230769,4,2,1,65,0,0
67740,-76.9230769230769,4,2,1,5,0,0
67801,-76.9230769230769,4,2,1,65,0,0
68281,-55.5555555555556,4,2,1,65,0,0
68700,-55.5555555555556,4,2,1,5,0,0
68761,-66.5692833288026,4,2,1,65,0,0
69001,-66.6508352969832,4,2,1,65,0,0
69721,-52.6315789473684,4,2,1,75,0,1
70441,-66.6666666666667,4,2,1,75,0,0
70501,-66.6666666666667,4,2,1,5,0,0
70561,-66.6666666666667,4,2,1,75,0,0
71341,-66.6666666666667,4,2,1,5,0,0
71401,-66.6666666666667,4,2,1,75,0,0
71461,-66.6666666666667,4,2,1,5,0,0
71521,-66.6666666666667,4,2,1,75,0,0
71821,-66.6666666666667,4,2,1,5,0,0
71881,-66.6666666666667,4,2,1,75,0,0
71941,-66.6666666666667,4,2,1,5,0,0
72121,-66.6666666666667,4,2,1,75,0,0
72241,-66.6666666666667,4,2,1,5,0,0
72361,-66.6666666666667,4,2,1,75,0,0
72481,-66.6666666666667,4,2,1,5,0,0
72601,-66.6666666666667,4,2,1,75,0,0
73021,-66.6666666666667,4,2,1,5,0,0
73081,-100,4,2,1,75,0,0
73141,-100,4,2,1,5,0,0
73201,-100,4,2,1,75,0,0
73261,-100,4,2,1,5,0,0
73321,-100,4,2,1,75,0,0
73561,-58.8235294117647,4,2,1,75,0,0
74281,-76.9230769230769,4,2,1,75,0,1
74341,-76.9230769230769,4,2,1,5,0,1
74401,-76.9230769230769,4,2,1,75,0,1
74761,-76.9230769230769,4,2,1,75,0,0
75181,-76.9230769230769,4,2,1,5,0,0
75241,-66.6666666666667,4,2,1,75,0,0
75661,-66.6666666666667,4,2,1,5,0,0
75721,-66.6666666666667,4,2,1,75,0,0
75781,-66.6666666666667,4,2,1,5,0,0
75841,-66.6666666666667,4,2,1,5,0,0
75901,-66.6666666666667,4,2,1,5,0,0
75961,-66.6666666666667,4,2,1,75,0,0
76081,-66.6666666666667,4,2,1,5,0,0
76201,-66.6666666666667,4,2,1,75,0,0
76321,-66.6666666666667,4,2,1,5,0,0
76441,-66.6666666666667,4,2,1,75,0,0
76861,-66.6666666666667,4,2,1,5,0,0
76921,-66.6666666666667,4,2,1,75,0,0
76981,-66.6666666666667,4,2,1,5,0,0
77041,-66.6666666666667,4,2,1,75,0,0
77101,-66.6666666666667,4,2,1,5,0,0
77161,-66.6666666666667,4,2,1,75,0,0
77221,-66.6666666666667,4,2,1,5,0,0
77281,-66.6666666666667,4,2,1,75,0,0
77341,-66.6666666666667,4,2,1,5,0,0
77401,-47.6190476190476,4,2,1,75,0,1
78121,-66.6666666666667,4,2,1,75,0,0
78181,-66.6666666666667,4,2,1,5,0,0
78241,-66.6666666666667,4,2,1,75,0,0
78901,-66.6666666666667,4,2,1,5,0,0
78961,-66.6666666666667,4,2,1,75,0,0
79621,-66.6666666666667,4,2,1,75,0,0
79681,-66.6666666666667,4,2,1,5,0,0
79741,-66.6666666666667,4,2,1,5,0,0
79801,-58.8235294117647,4,2,1,75,0,0
79921,-58.8235294117647,4,2,1,5,0,0
79981,-58.8235294117647,4,2,1,5,0,0
80041,-62.6846015364844,4,2,1,75,0,0
80161,-62.6846015364844,4,2,1,5,0,0
80281,-62.6846015364844,4,2,1,75,0,0
80341,-62.6846015364844,4,2,1,5,0,0
80401,-66.863904246361,4,2,1,75,0,0
80641,-66.6666666666667,4,2,1,75,0,0
81961,-76.9230769230769,4,2,1,75,0,0
82860,-76.9230769230769,4,2,1,5,0,0
82921,-76.9230769230769,4,2,1,75,0,0
83641,-83.3333333333333,4,2,1,75,0,0
84180,-83.3333333333333,4,2,1,5,0,0
84241,-83.3333333333333,4,2,1,75,0,0
84540,-83.3333333333333,4,2,1,5,0,0
84601,-83.3333333333333,4,2,1,75,0,0
84780,-83.3333333333333,4,2,1,5,0,0
84841,-83.3333333333333,4,2,1,75,0,0
84900,-83.3333333333333,4,2,1,5,0,0
84961,-83.3333333333333,4,2,1,75,0,0
85321,-58.8235294117647,4,2,1,75,0,0
87001,476.190476190476,4,2,1,50,1,0
87001,-83.3437554223798,4,2,1,50,0,0
89341,-83.3437554223798,4,2,1,5,0,0
89381,489.795918367347,4,2,1,50,1,0
89381,-83.3437554223798,4,2,1,50,0,0
89871,470.588235294118,4,2,1,50,1,0
91282,-200,4,2,1,50,0,0
91301,487.80487804878,4,2,1,50,1,0
91301,-83.3333333333333,4,2,1,50,0,0
91788,480,4,2,1,50,1,0
92761,479.233226837061,4,2,1,50,1,0
92821,-200,4,2,1,5,0,0
92881,-200,4,2,1,50,0,0
93661,-200,4,2,1,5,0,0
93719,-133.333333333333,4,2,1,50,0,0
98511,483.870967741935,4,2,1,50,1,0
98511,-66.6666666666667,4,2,1,50,0,0
98994,-66.6666666666667,4,2,1,50,0,0
100204,-61.7283950617284,4,2,1,50,0,0
100441,480,4,2,1,50,1,0
100981,-62.5,4,2,1,5,0,0
101041,-62.5,4,2,1,50,0,0
101101,-62.5,4,2,1,5,0,0
101161,-62.5,4,2,1,50,0,0
102361,480,4,2,1,50,1,0
102361,-100.35188703099,4,2,1,70,0,1
102780,-100.35188703099,4,2,1,5,0,1
102841,-55.5555555555556,4,2,1,70,0,0
103261,-55.5555555555556,4,2,1,5,0,0
103321,-55.5555555555556,4,2,1,70,0,0
103381,-55.5555555555556,4,2,1,5,0,0
103441,-71.4285714285714,4,2,1,70,0,0
103980,-71.4285714285714,4,2,1,5,0,0
104041,-71.4285714285714,4,2,1,70,0,0
104521,-66.6666666666667,4,2,1,70,0,0
104581,-66.6666666666667,4,2,1,5,0,0
104641,-66.6666666666667,4,2,1,70,0,0
104701,-66.6666666666667,4,2,1,5,0,0
104761,-66.6666666666667,4,2,1,70,0,0
105241,-55.5555555555556,4,2,1,70,0,0
105780,-55.5555555555556,4,2,1,5,0,0
105841,-55.5555555555556,4,2,1,70,0,0
106980,-55.5555555555556,4,2,1,5,0,0
107041,-55.5555555555556,4,2,1,70,0,0
107220,-55.5555555555556,4,2,1,5,0,0
107281,-55.5555555555556,4,2,1,70,0,0
107821,-55.5555555555556,4,2,1,5,0,0
107881,-66.6666666666667,4,2,1,70,0,0
107940,-66.6666666666667,4,2,1,5,0,0
108001,-66.6666666666667,4,2,1,70,0,0
108060,-71.3835281552891,4,2,1,5,0,0
108121,-71.3835281552891,4,2,1,70,0,0
108180,-71.3835281552891,4,2,1,5,0,0
108361,-66.6666666666667,4,2,1,70,0,0
108420,-66.6666666666667,4,2,1,5,0,0
108481,-66.6666666666667,4,2,1,70,0,0
108540,-66.6666666666667,4,2,1,5,0,0
108601,-66.6666666666667,4,2,1,70,0,0
108780,-66.6666666666667,4,2,1,5,0,0
108841,-66.6666666666667,4,2,1,70,0,0
109020,-76.9230769230769,4,2,1,5,0,0
109081,-55.5555555555556,4,2,1,70,0,0
109620,-55.5555555555556,4,2,1,5,0,0
109681,-55.5555555555556,4,2,1,70,0,0
109740,-55.5555555555556,4,2,1,5,0,0
109801,-55.5555555555556,4,2,1,70,0,0
110521,-62.5,4,2,1,70,0,0
110941,-62.5,4,2,1,5,0,0
111001,-62.5,4,2,1,70,0,0
111060,-62.5,4,2,1,5,0,0
111121,-83.3333333333333,4,2,1,70,0,0
111660,-83.3333333333333,4,2,1,5,0,0
111721,-83.3333333333333,4,2,1,70,0,0
111900,-83.3333333333333,4,2,1,5,0,0
111961,-83.3333333333333,4,2,1,70,0,0
112140,-83.3333333333333,4,2,1,5,0,0
112201,-66.6666666666667,4,2,1,70,0,0
112261,-66.6666666666667,4,2,1,5,0,0
112321,-66.6666666666667,4,2,1,70,0,0
112381,-66.6666666666667,4,2,1,5,0,0
112441,-66.6666666666667,4,2,1,70,0,0
112620,-66.6666666666667,4,2,1,5,0,0
112681,-66.6666666666667,4,2,1,70,0,0
112921,-55.5555555555556,4,2,1,70,0,0
113340,-55.5555555555556,4,2,1,5,0,0
113401,-55.5555555555556,4,2,1,70,0,0
113461,-55.5555555555556,4,2,1,5,0,0
113521,-55.5555555555556,4,2,1,70,0,0
114300,-55.5555555555556,4,2,1,5,0,0
114361,-76.9230769230769,4,2,1,70,0,0
114781,-76.9230769230769,4,2,1,5,0,0
114841,-76.9230769230769,4,2,1,70,0,0
114900,-76.9230769230769,4,2,1,5,0,0
114961,-76.9230769230769,4,2,1,70,0,0
115860,-76.9230769230769,4,2,1,5,0,0
116041,-76.9230769230769,4,2,1,70,0,0
116281,-66.6666666666667,4,2,1,70,0,0
116700,-66.6666666666667,4,2,1,5,0,0
116761,-66.6666666666667,4,2,1,70,0,0
116821,-66.6666666666667,4,2,1,5,0,0
116881,-66.6666666666667,4,2,1,70,0,0
116941,-66.6666666666667,4,2,1,5,0,0
117001,-66.6666666666667,4,2,1,70,0,0
117241,-66.6666666666667,4,2,1,70,0,0
117420,-124.99814497891,4,2,1,5,0,0
117481,-124.99814497891,4,2,1,70,0,0
117540,-124.99814497891,4,2,1,5,0,0
117601,-124.99814497891,4,2,1,70,0,0
117660,-124.99814497891,4,2,1,5,0,0
117721,-124.99814497891,4,2,1,55,0,0
117900,-124.99814497891,4,2,1,5,0,0
117961,-124.99814497891,4,2,1,55,0,0
118020,-124.99814497891,4,2,1,5,0,0
118081,-83.3333333333333,4,2,1,55,0,0
118140,-83.3333333333333,4,2,1,5,0,0
118201,-83.3333333333333,4,2,1,55,0,0
118921,-71.4285714285714,4,2,1,55,0,0
119641,-100,4,2,1,55,0,0
120601,-71.4285714285714,4,2,1,55,0,0
121020,-71.4285714285714,4,2,1,5,0,0
121081,-71.4285714285714,4,2,1,55,0,0
121561,-111.111111111111,4,2,1,55,0,0
122761,-66.6666666666667,4,2,1,55,0,0
124441,-52.6315789473684,4,2,1,55,0,0
124921,-50,4,2,1,55,0,0
125401,-71.4285714285714,4,2,1,55,0,0
125461,-71.4285714285714,4,2,1,5,0,0
125521,-71.4285714285714,4,2,1,55,0,0
125581,-71.4285714285714,4,2,1,5,0,0
125641,-71.4285714285714,4,2,1,55,0,0
126112,480,4,2,1,55,1,0
126112,-76.9230769230769,4,2,1,55,0,0
126472,-66.6666666666667,4,2,1,55,0,0
127312,480,4,2,1,50,1,0
127312,-66.6666666666667,4,2,1,55,0,0
128512,472.44094488189,4,2,1,50,1,0
128512,-66.6666666666667,4,2,1,50,0,0
129220,480,4,2,1,50,1,0
129220,-66.6666666666667,4,2,1,50,0,0
129232,-66.6666666666667,4,2,1,55,0,0
129640,-66.6666666666667,4,2,1,5,0,0
129661,-66.6666666666667,4,2,1,5,0,0
129698,-66.6666666666667,4,2,1,55,0,0
130141,-66.6666666666667,4,2,1,5,0,0
130178,-66.6666666666667,4,2,1,55,0,0
130261,-66.6666666666667,4,2,1,5,0,0
130321,-66.6666666666667,4,2,1,55,0,0
130538,-100,4,2,1,55,0,0
130598,-100,4,2,1,5,0,0
130778,-100,4,2,1,55,0,0
130838,-100,4,2,1,5,0,0
131018,-100,4,2,1,55,0,0
132098,470.588235294118,4,2,1,50,1,0
133081,480,4,2,1,50,1,0
133321,-333.333333333333,4,2,1,34,0,0

[Colours]
Combo1 : 244,211,28
Combo2 : 251,228,170

[HitObjects]
51,299,601,5,4,3:0:0:0:
55,217,841,1,4,3:0:0:0:
210,162,1081,1,8,3:2:0:0:
198,259,1321,2,0,B|130:204,1,75.0000028610231,0|8,3:0|3:2,0:0:0:0:
136,310,1561,2,0,P|134:343|136:387,1,75.0000028610231,4|4,3:0|3:0,0:0:0:0:
51,210,1801,6,0,P|48:175|55:57,1,150.000005722046,4|8,3:0|3:2,0:0:0:0:
47,54,2281,1,8,3:2:0:0:
136,92,2401,1,8,3:2:0:0:
225,36,2521,6,0,B|311:32|273:96|389:83,2,150.000005722046,4|4|8,3:0|3:0|3:2,0:0:0:0:
144,104,3241,1,0,3:0:0:0:
146,133,3361,1,8,3:2:0:0:
211,190,3481,1,4,3:0:0:0:
209,219,3601,1,4,3:0:0:0:
136,350,3721,6,0,P|118:312|129:206,1,129.785719689303,4|8,3:0|3:2,0:0:0:0:
298,157,4201,2,0,B|301:250,1,75.0000028610231,8|8,3:2|3:2,0:0:0:0:
270,324,4441,5,4,3:0:0:0:
276,240,4681,1,4,3:0:0:0:
344,79,4921,1,8,3:2:0:0:
356,162,5161,2,0,B|260:157,1,75.0000028610231,0|8,3:0|3:2,0:0:0:0:
210,94,5401,2,0,P|206:60|215:19,1,75.0000028610231,4|4,3:0|3:0,0:0:0:0:
368,173,5641,6,0,P|368:208|366:320,1,139.999995727539,4|8,3:0|3:2,0:0:0:0:
452,370,6121,1,8,3:2:0:0:
372,325,6241,1,8,3:2:0:0:
453,277,6361,5,2,2:3:0:0:
453,277,6601,1,2,2:3:0:0:
454,276,6841,1,2,2:3:0:0:
294,374,7081,1,2,2:3:0:0:
293,374,7201,1,2,2:3:0:0:
294,373,7321,1,2,2:3:0:0:
294,373,7441,1,2,2:3:0:0:
294,373,7561,1,2,2:3:0:0:
215,296,7801,1,2,2:3:0:0:
130,337,8041,6,0,B|80:340,1,50.0922031015035,2|0,2:3|0:0,0:0:0:0:
505,310,8281,6,0,B|504:204,1,100,0|0,3:0|3:0,0:0:0:0:
392,30,8761,2,0,P|407:102|389:180,1,150,8|8,2:0|2:0,0:0:0:0:
384,186,9241,2,0,B|263:179,1,100,0|0,3:0|3:0,0:0:0:0:
61,361,9721,6,0,B|169:357,1,100,8|0,2:0|3:0,0:0:0:0:
124,267,10081,1,0,3:0:0:0:
124,267,10201,2,0,B|243:260,1,100,0|0,3:0|3:0,0:0:0:0:
502,167,10681,2,0,B|386:158,1,100,8|0,2:0|3:0,0:0:0:0:
331,253,11041,1,8,2:0:0:0:
330,253,11161,2,0,P|333:306|329:375,2,100,0|0|8,3:0|3:0|2:0,0:0:0:0:
156,186,11881,6,2,P|139:135|166:17,1,150,2|0,3:3|2:0,0:1:0:0:
167,30,12121,6,0,P|116:32|66:28,2,100,0|0|8,3:0|3:0|2:0,0:0:0:0:
256,75,12841,2,0,B|254:139,1,50,0|8,3:0|2:0,0:0:0:0:
335,178,13081,1,0,3:0:0:0:
384,173,13201,1,0,3:0:0:0:
434,169,13321,1,0,3:0:0:0:
275,353,13561,6,0,B|175:363,1,100,8|0,2:0|3:0,0:0:0:0:
101,303,13921,1,0,3:0:0:0:
101,303,14041,2,0,B|-1:308,2,100,0|0|8,3:0|3:0|2:0,0:0:0:0:
186,264,14761,2,0,B|185:204,1,50,0|8,3:0|2:0,0:0:0:0:
134,53,15001,5,0,3:0:0:0:
127,101,15121,1,0,3:0:0:0:
130,149,15241,1,0,3:0:0:0:
377,141,15481,2,0,B|382:228,1,75,8|0,2:0|2:0,0:0:0:0:
375,238,15721,6,2,P|446:239|426:155,1,150,2|0,3:0|2:0,2:1:0:0:
385,142,15961,6,0,B|388:25,1,100,0|0,3:0|3:0,0:0:0:0:
222,216,16441,6,0,P|209:307|225:364,1,150,8|8,2:0|2:0,0:0:0:0:
217,371,16921,2,0,B|98:369,1,99.6494191235318,0|0,3:0|3:0,0:0:0:0:
416,322,17401,2,0,B|315:330,1,100,8|0,2:0|3:0,0:0:0:0:
323,225,17761,1,0,3:0:0:0:
323,225,17881,2,0,B|223:220,1,100,0|0,3:0|3:0,0:0:0:0:
431,190,18361,6,0,P|439:135|432:84,1,100,8|0,2:0|3:0,0:0:0:0:
380,20,18721,1,8,2:0:0:0:
444,81,18841,2,0,P|474:83|511:80,2,50,0|0|0,3:0|3:0|3:0,0:0:0:0:
105,112,19321,2,0,P|105:165|110:195,1,75,8|0,2:0|2:0,0:0:0:0:
106,206,19561,6,2,P|38:210|20:127,1,150,2|0,3:0|2:0,2:1:0:0:
127,95,19801,6,0,B|231:93,1,100,0|0,3:0|3:0,0:0:0:0:
292,24,20281,1,8,2:0:0:0:
447,229,20521,2,0,B|446:178,1,50,0|8,3:0|2:0,0:0:0:0:
261,218,20761,1,0,3:0:0:0:
310,223,20881,1,0,3:0:0:0:
359,213,21001,1,0,3:0:0:0:
307,135,21241,1,8,2:0:0:0:
396,302,21481,1,0,3:0:0:0:
396,302,21601,1,0,3:0:0:0:
51,76,21961,5,2,2:3:0:0:
51,75,22321,5,2,2:3:0:0:
51,76,23161,5,2,2:0:0:0:
58,100,23241,1,2,2:0:0:0:
61,125,23321,1,2,2:0:0:0:
62,150,23401,1,2,2:0:0:0:
61,175,23481,1,2,2:0:0:0:
59,200,23561,1,2,2:0:0:0:
55,219,23641,6,0,P|157:144|228:248,1,269.999991760254,4|0,3:2|0:0,2:0:0:0:
169,339,24121,2,0,B|99:340,1,44.999998626709,8|0,2:0|0:0,0:0:0:0:
146,323,24601,6,0,B|145:219,1,89.9999972534181,2|2,2:0|2:0,0:0:0:0:
246,79,24841,1,2,3:2:0:0:
133,46,24961,2,0,B|132:144,1,89.9999972534181,2|8,2:2|2:0,2:0:0:0:
231,181,25201,2,0,B|230:77,1,89.9999972534181,2|0,2:0|2:0,2:0:0:0:
37,167,25441,6,0,P|124:161|224:172,1,179.999994506836,2|0,2:0|2:0,2:0:0:0:
397,122,25801,2,0,P|350:124|300:123,1,89.9999972534181,2|0,3:2|0:0,0:0:0:0:
313,219,26041,2,0,B|367:217,1,44.999998626709,8|0,2:0|0:0,0:0:0:0:
368,213,26521,6,0,B|316:208,1,50,0|0,2:0|0:0,2:0:0:0:
239,167,26761,2,0,B|190:173,1,50,0|0,3:0|0:0,0:0:0:0:
257,377,27001,2,0,P|271:324|249:280,1,97.4999955368044,10|0,2:0|2:0,2:0:0:0:
253,276,27241,6,2,P|334:310|415:281,1,172.500003290176,0|0,2:0|2:0,2:1:0:0:
421,295,27481,6,0,P|418:174|431:73,1,209.999993591309,2|0,3:2|0:0,2:0:0:0:
493,0,27961,2,0,B|496:48,1,34.9999989318848,8|0,2:0|0:0,0:0:0:0:
497,44,28081,2,0,B|356:56,1,139.999995727539
278,183,28441,5,2,2:0:0:0:
218,129,28561,2,0,P|222:91|218:53,1,69.9999978637696,2|0,2:0|3:0,2:0:0:0:
269,193,28801,2,0,P|266:227|270:262,1,69.9999978637696,2|8,2:0|2:0,2:0:0:0:
184,212,29041,2,0,B|115:204,1,69.9999978637696,2|0,2:0|2:0,2:0:0:0:
301,114,29281,1,2,2:0:0:0:
362,170,29401,6,0,B|434:160|412:212|516:204,1,150.000005722046,0|0,3:2|3:2,2:0:0:0:
352,260,29881,2,0,P|273:288|265:368,1,150.000005722046,8|0,2:0|0:0,2:0:0:0:
334,384,30241,1,0,2:0:0:0:
420,349,30361,1,0,3:0:0:0:
420,349,30481,1,8,2:0:0:0:
420,349,30601,1,0,2:0:0:0:
20,246,30841,2,0,P|24:293|16:353,1,100,10|2,2:0|3:0,0:0:0:0:
43,243,31201,1,2,3:0:0:0:
30,362,31321,6,0,P|168:375|239:264,1,269.999991760254,6|0,3:2|0:0,2:0:0:0:
153,223,31801,2,0,B|151:267,1,44.999998626709,8|0,2:0|0:0,0:0:0:0:
173,206,32281,1,2,2:0:0:0:
173,206,32401,2,0,B|171:117,1,64.9999970245363,2|0,2:0|3:0,2:0:0:0:
91,142,32641,2,0,P|46:140|15:130,2,64.9999970245363,2|8|0,2:0|2:0|0:0,2:0:0:0:
227,40,33001,2,0,L|78:53,1,129.999994049073,2|0,2:0|3:2,2:0:0:0:
279,108,33481,6,0,B|383:120,1,97.4999955368044,2|0,3:2|2:0,2:0:0:0:
387,109,33721,1,8,2:0:0:0:
383,200,33841,2,0,L|459:213,1,64.9999970245363,0|0,2:0|2:0,2:0:0:0:
510,162,34081,1,0,2:0:0:0:
350,350,34441,6,0,P|347:321|349:262,1,75.0000028610231,2|0,3:2|2:3,0:0:0:0:
174,201,34681,2,0,P|174:238|171:275,1,75.0000028610231,10|0,2:0|0:0,0:0:0:0:
259,358,34921,6,0,P|264:259|261:167,2,170.368377813507,2|0|0,2:0|3:2|0:0,2:0:0:0:
213,107,35641,2,0,B|222:11,1,89.9999972534181,10|0,2:0|2:0,2:0:0:0:
301,68,35881,2,0,P|400:90|422:183,1,179.999994506836,2|0,2:0|2:0,2:0:0:0:
155,361,36361,6,0,P|56:339|34:291,1,134.861491017637,2|0,3:2|2:0,2:0:0:0:
42,298,36601,1,8,2:0:0:0:
114,175,36721,2,0,B|119:264,2,89.9076606784245,0|10|0,2:0|2:3|2:0,2:0:0:0:
210,273,37081,6,0,B|306:263|278:286|379:275,1,170.000003242493,2|0,3:2|3:2,0:0:0:0:
396,264,37441,1,0,3:2:0:0:
386,364,37561,5,12,2:0:0:0:
483,299,37681,1,0,0:0:0:0:
377,257,37801,2,0,P|373:213|374:168,1,89.9799420627808,2|0,2:3|2:0,2:0:0:0:
298,354,38041,5,8,0:0:0:0:
213,29,38281,1,0,3:0:0:0:
281,236,38521,5,8,2:3:0:0:
281,147,38641,1,8,2:3:0:0:
204,192,38761,1,4,2:3:0:0:
204,192,39001,6,0,P|153:193|91:178,1,100,0|8,2:0|2:1,0:0:0:0:
383,272,39961,2,0,P|434:271|496:286,1,100,0|8,2:0|2:1,0:0:0:0:
98,234,40921,6,0,P|47:233|-15:248,1,100,0|8,2:0|2:1,0:0:0:0:
384,107,41881,2,0,P|435:108|497:93,1,100,0|8,2:0|2:1,0:0:0:0:
482,98,42601,1,0,2:0:0:0:
264,17,42841,6,0,L|277:137,1,100,0|8,2:0|2:1,0:0:0:0:
492,349,43561,2,0,P|496:311|491:274,1,75,0|2,0:0|2:0,0:0:0:0:
410,235,44041,2,0,L|349:243,1,50
334,266,44221,1,2,2:0:0:0:
335,266,44281,6,0,B|342:229,1,37.5,8|0,2:1|2:0,0:0:0:0:
339,213,44521,2,0,B|221:222,1,100,2|2,2:0|2:0,0:0:0:0:
232,226,44881,5,2,2:0:0:0:
151,193,45121,1,2,2:0:0:0:
151,193,45241,1,8,2:1:0:0:
91,262,45481,1,2,2:0:0:0:
91,262,45601,1,2,2:0:0:0:
10,221,45961,5,0,2:0:0:0:
7,209,46041,1,0,2:0:0:0:
5,197,46121,1,0,2:0:0:0:
4,185,46201,1,8,2:1:0:0:
5,174,46281,1,0,2:0:0:0:
6,162,46361,1,0,2:0:0:0:
8,150,46441,1,0,2:0:0:0:
197,123,46681,6,0,P|205:194|197:256,1,120,0|0,2:0|0:0,0:0:0:0:
308,285,47161,2,0,P|304:225|307:163,1,120,8|0,2:1|0:0,0:0:0:0:
211,330,47641,2,0,P|140:310|113:257,1,120,0|0,2:0|0:0,0:0:0:0:
296,80,48121,2,0,P|367:100|394:153,1,120,8|0,2:1|0:0,0:0:0:0:
313,284,48601,6,0,B|407:294|364:267|474:280,1,150,0|0,2:0|0:0,0:0:0:0:
199,191,49081,2,0,B|113:186|137:208|37:207,1,150,8|0,2:1|0:0,0:0:0:0:
282,95,49561,2,0,B|365:101|342:114|438:117,1,150,0|0,2:0|0:0,0:0:0:0:
434,105,50041,2,0,P|432:82|433:39,1,50,8|0,2:1|0:0,0:0:0:0:
462,193,50281,2,0,B|512:190,1,50,0|0,2:0|0:0,0:0:0:0:
375,235,50521,6,0,B|376:303,2,55.0273222208415,2|2|2,2:0|2:0|2:0,0:0:0:0:
176,100,51001,2,0,B|180:25,2,55.0326731304754,8|2|2,2:1|2:0|2:0,0:0:0:0:
315,173,51361,6,0,B|220:168|254:195|152:186,1,165.000005035401,2|0,2:0|2:0,2:0:0:0:
265,81,51961,2,0,P|297:83|328:76,1,55.0000016784668,8|0,2:1|2:0,0:0:0:0:
196,24,52201,1,0,2:0:0:0:
83,128,52441,6,0,L|1:119,1,75.0000028610231,8|8,2:0|2:3,2:0:0:0:
9,120,52621,1,8,2:3:0:0:
9,120,52681,1,8,2:3:0:0:
6,264,52801,1,4,2:3:0:0:
5,265,52861,1,4,2:3:0:0:
5,265,52921,2,0,B|85:257,1,75.0000028610231,4|8,2:3|2:0,0:0:0:0:
151,185,53161,1,0,0:0:0:0:
241,382,53401,6,0,P|259:299|238:205,2,170.000003242493,8|8|4,2:0|2:3|2:3,2:0:0:0:
259,214,54001,1,4,2:3:0:0:
296,37,54121,2,0,B|235:48,1,56.2500021457673,4|0,2:3|2:0,0:0:0:0:
203,15,54361,6,0,P|184:92|202:165,1,150.000005722046,4|0,3:1|2:0,2:1:0:0:
217,183,54721,2,0,B|287:193,1,59.9999981689454,2|8,2:3|2:0,2:0:0:0:
106,104,54961,2,0,B|31:112,1,59.9999981689454,2|0,2:3|2:0,2:0:0:0:
364,132,55201,6,0,P|386:207|354:325,1,179.999994506836,2|0,2:3|3:0,2:0:0:0:
241,326,55681,2,0,B|270:327,1,29.9999990844727,2|0,2:3|2:0,2:0:0:0:
348,296,55801,2,0,B|275:306,1,59.9999981689454,8|0,2:0|0:0,2:0:0:0:
428,369,56041,2,0,B|492:362,1,59.9999981689454,0|2,2:0|2:3,0:0:0:0:
299,217,56281,5,2,3:0:0:0:
299,217,56521,6,0,B|266:183|266:197|229:153,1,75.0000028610231,2|2,3:0|2:3,2:0:0:0:
451,70,56761,2,0,B|438:115|450:107|430:162,1,75.0000028610231,8|0,2:0|0:0,2:0:0:0:
252,24,57001,2,0,B|297:12|284:5|342:-4,1,75.0000028610231,2|0,2:0|2:0,2:0:0:0:
332,98,57241,6,2,B|340:201,1,89.9999972534181,2|0,2:3|2:0,2:1:0:0:
217,372,57481,2,0,B|224:270,1,89.9999972534181,2|0,3:1|0:0,0:0:0:0:
0,220,57721,2,0,P|86:235|171:195,1,179.999994506836,8|2,2:0|2:3,0:0:0:0:
153,106,58081,5,0,2:0:0:0:
4,207,58201,2,0,P|84:234|77:334,1,179.999994506836,0|0,3:0|2:0,2:0:0:0:
243,364,58561,1,2,2:3:0:0:
242,364,58621,1,2,2:3:0:0:
242,364,58681,2,2,P|388:363|426:238,1,269.999991760254,8|0,2:0|2:0,2:1:0:0:
352,124,59161,6,0,B|361:177,1,37.5000014305115,2|0,2:3|2:0,2:0:0:0:
329,275,59281,6,0,L|339:174,1,75.0000028610231,2|0,2:3|3:0,2:1:0:0:
498,76,59521,2,0,L|405:117,1,75.0000028610231,2|8,2:3|2:0,0:0:0:0:
253,44,59761,2,0,L|335:103,1,75.0000028610231,2|0,2:3|2:0,2:1:0:0:
498,198,60001,5,2,2:3:0:0:
498,198,60061,1,2,2:3:0:0:
498,198,60121,2,0,P|415:193|350:202,1,142.49999619484,2|0,3:0|2:0,2:0:0:0:
165,300,60361,6,0,L|262:308,1,89.9999972534181,0|0,3:0|2:0,2:0:0:0:
152,88,60601,2,0,L|96:168,1,89.9999972534181,8|0,2:0|0:0,2:0:0:0:
365,187,60841,2,0,L|323:98,1,89.9999972534181,0|0,2:0|2:0,2:0:0:0:
75,173,61081,6,2,P|77:220|77:267,1,89.9999972534181,2|0,2:3|2:0,2:1:0:0:
238,117,61321,2,0,P|236:70|235:22,1,89.9999972534181,0|0,3:0|2:0,2:0:0:0:
361,258,61561,1,8,2:0:0:0:
373,173,61681,1,8,2:3:0:0:
374,269,61801,1,8,2:3:0:0:
374,269,62041,6,0,P|305:230|232:251,1,134.999995880127,4|0,3:2|2:0,0:0:0:0:
241,254,62281,2,0,L|238:207,1,44.999998626709,2|0,2:3|2:0,2:0:0:0:
300,328,62401,2,0,B|240:329,1,59.9999981689454,2|8,2:3|2:0,2:0:0:0:
94,300,62641,2,0,B|161:307,1,59.9999981689454,2|0,0:3|2:0,0:0:0:0:
15,359,62881,5,2,0:3:0:0:
15,359,62941,1,2,0:3:0:0:
15,359,63001,2,0,P|10:303|16:189,2,150.000005722046,2|2|8,2:3|3:3|2:0,2:0:0:0:
110,121,63721,1,2,2:3:0:0:
66,132,63841,1,2,2:3:0:0:
17,123,63961,1,0,3:0:0:0:
269,199,64201,6,0,B|219:199|172:207,1,80,0|0,3:0|2:0,2:0:0:0:
287,32,64441,2,0,P|312:74|342:112,1,80,8|0,2:0|0:0,2:2:0:0:
105,108,64681,2,0,P|120:80|134:51,1,64.9999970245363,0|0,2:0|0:0,2:0:0:0:
144,51,64921,6,2,B|140:144,1,89.9999972534181,0|0,2:0|2:0,2:1:0:0:
392,282,65161,2,0,P|385:241|385:187,1,89.9999972534181,2|0,3:3|0:0,0:0:0:0:
124,330,65401,2,0,P|245:332|291:391,1,179.999994506836,8|0,2:2|2:0,2:0:0:0:
392,282,65761,5,2,2:3:0:0:
296,231,65881,2,0,B|176:237|204:217|113:221,1,179.999994506836,2|0,3:3|2:0,2:0:0:0:
392,282,66241,1,0,2:0:0:0:
471,225,66361,1,8,2:0:0:0:
471,225,66481,2,0,P|495:140|450:63,1,179.999994506836,2|0,0:3|0:0,0:0:0:0:
268,12,66841,5,2,2:3:0:0:
268,13,66961,2,0,B|190:4,1,64.9999970245363,2|0,2:3|3:0,2:0:0:0:
103,64,67201,2,0,B|174:74,1,64.9999970245363,2|8,2:3|2:0,2:0:0:0:
323,97,67441,1,0,2:0:0:0:
323,97,67561,2,0,B|237:91,1,64.9999970245363,8|10,2:0|2:3,0:0:0:0:
142,188,67801,5,4,2:3:0:0:
229,175,67921,1,4,2:3:0:0:
308,207,68041,1,4,2:3:0:0:
347,282,68161,1,4,2:3:0:0:
328,364,68281,2,2,B|333:77,1,269.999991760254,12|0,2:0|0:0,2:1:0:0:
194,209,68761,6,2,B|101:215,1,75.1097174228391,8|0,2:0|2:0,2:1:0:0:
445,291,69001,2,2,B|531:286,1,75.0178169604643,8|0,2:3|2:0,2:1:0:0:
224,207,69241,1,4,2:3:0:0:
240,107,69361,1,4,2:3:0:0:
253,0,69481,1,4,2:3:0:0:
254,0,69721,6,2,B|240:379,1,379.999989852906,4|8,3:1|2:0,2:1:0:0:
144,360,70321,1,0,2:0:0:0:
43,369,70441,2,0,B|65:130,1,225.000008583069,2|0,2:1|2:0,2:0:0:0:
289,326,70921,2,2,B|106:340,1,150.000005722046,0|8,3:0|2:0,2:1:0:0:
141,338,71401,6,0,B|65:342,1,75.0000028610231,2|2,2:1|2:3,2:0:0:0:
262,229,71641,2,0,P|271:174|261:97,1,112.500004291535,0|0,3:0|2:0,2:0:0:0:
251,105,71881,6,0,B|159:110,1,75.0000028610231,2|2,3:0|2:3,2:0:0:0:
343,285,72121,2,0,B|384:202,1,75.0000028610231,8|0,2:0|2:0,2:0:0:0:
121,267,72361,2,0,B|171:344,1,75.0000028610231,2|0,2:0|2:0,2:0:0:0:
93,165,72601,6,2,P|53:175|17:172,1,75.0000028610231,2|0,2:3|2:0,2:1:0:0:
253,336,72841,2,0,P|248:299|252:231,1,75.0000028610231,2|0,3:1|0:0,0:0:0:0:
265,94,73081,2,0,B|373:109,1,100,8|0,2:0|2:0,2:0:0:0:
429,175,73441,1,0,0:0:0:0:
370,87,73561,6,2,P|492:121|493:311,1,340.000006484985,0|8,3:0|2:0,2:1:0:0:
379,362,74161,1,0,2:0:0:0:
282,342,74281,2,0,P|260:284|343:184,1,194.999991073609,2|0,2:1|2:0,2:0:0:0:
512,367,74761,2,2,P|447:374|384:360,1,129.999994049073,0|8,3:1|2:0,2:1:0:0:
378,354,75241,6,2,P|382:319|381:280,1,75.0000028610231,0|0,2:0|2:0,2:1:0:0:
505,70,75481,2,0,P|511:111|506:150,1,75.0000028610231,0|0,3:0|0:0,2:0:0:0:
510,169,75721,6,0,B|432:176,1,75.0000028610231,2|2,3:0|2:0,2:0:0:0:
297,38,75961,2,0,B|342:102,1,75.0000028610231,8|0,2:0|2:0,2:0:0:0:
288,281,76201,2,0,B|320:209,1,75.0000028610231,2|0,2:3|2:0,2:0:0:0:
182,66,76441,6,2,P|142:67|81:69,1,75.0000028610231,2|0,2:3|2:0,2:1:0:0:
2,263,76681,2,2,P|39:264|76:265,1,75.0000028610231,0|0,3:0|0:0,2:0:0:0:
222,173,76921,5,8,2:0:0:0:
302,208,77041,1,8,2:3:0:0:
388,169,77161,1,4,2:3:0:0:
482,207,77281,1,4,2:3:0:0:
512,192,77401,6,2,B|92:179,1,419.999987182618,4|8,3:2|2:0,2:1:0:0:
14,79,78001,1,0,2:0:0:0:
85,159,78121,2,0,B|334:152,1,225.000008583069,2|0,2:1|2:0,2:0:0:0:
229,340,78601,2,2,P|206:271|226:183,1,150.000005722046,0|8,3:0|2:0,2:1:0:0:
230,180,79081,2,0,B|225:105,1,75.0000028610231,0|0,0:0|2:0,0:0:0:0:
3,207,79321,2,0,B|0:281,1,75.0000028610231,2|0,3:3|2:0,2:0:0:0:
118,364,79561,6,0,P|85:359|23:363,1,75.0000028610231,2|2,3:0|2:3,2:0:0:0:
131,215,79801,2,0,P|168:216|216:208,1,85.0000016212464,8|0,2:0|0:0,2:0:0:0:
346,336,80041,2,0,P|308:330|264:332,1,79.7644067887377,2|0,2:3|2:0,2:0:0:0:
431,239,80281,5,2,2:3:0:0:
452,321,80401,2,0,B|446:246,1,74.7787593453481,0|0,2:3|3:0,0:0:0:0:
512,117,80641,2,0,B|509:196,1,75.3350481896701,2|8,2:3|2:0,2:0:0:0:
339,231,80881,2,0,P|346:157|330:66,1,148.865794428868,2|2,2:3|2:3,2:0:0:0:
430,0,81241,6,0,B|424:98,1,75.1072985966662,2|0,3:0|0:0,2:0:0:0:
334,106,81481,2,0,B|172:110,1,150.335873455072,0|8,2:0|2:0,0:0:0:0:
161,22,81841,1,0,2:0:0:0:
162,22,81961,2,0,B|235:30,1,64.1767367163478,2|0,2:3|2:0,2:3:0:0:
99,212,82201,6,0,P|88:157|102:79,1,129.999994049073,2|0,2:3|3:0,2:0:0:0:
189,212,82561,2,0,B|183:287,1,65.8220957391301,2|8,2:3|2:0,2:0:0:0:
6,227,82801,2,0,B|0:162,1,65.8276427886107,2|0,2:3|2:0,2:0:0:0:
92,301,83041,1,0,2:0:0:0:
10,351,83161,1,4,3:2:0:0:
10,351,83401,5,10,3:0:0:0:
92,301,83521,1,0,2:0:0:0:
162,366,83641,2,0,P|238:349|267:310,1,119.999996337891,10|6,3:0|3:0,2:0:0:0:
345,357,84001,1,0,2:0:0:0:
496,319,84121,5,8,3:2:0:0:
423,302,84241,2,2,B|504:298,1,60.2549766716076,8|8,3:0|3:0,2:1:0:0:
345,244,84481,5,0,2:0:0:0:
183,280,84601,5,8,2:0:0:0:
254,298,84721,2,0,B|186:292,1,59.9999981689454,4|4,2:3|2:3,2:0:0:0:
329,113,84961,6,0,B|336:258,1,120.358603846807,4|0,2:3|3:0,0:0:0:0:
342,15,85321,6,0,P|418:43|434:123,1,169.820494042219,8|0,2:0|3:0,0:0:0:0:
254,58,85681,2,0,P|197:118|226:196,1,170.000003242493,8|0,2:3|3:0,0:0:0:0:
414,318,86041,2,0,B|412:225,1,85.0000016212464,8|8,2:0|2:3,0:0:0:0:
419,240,86221,1,0,0:0:0:0:
419,240,86281,2,0,B|323:232,1,85.1946258331487,8|8,2:3|2:3,0:0:0:0:
226,368,86521,5,4,2:3:0:0:
208,275,86641,1,4,2:3:0:0:
223,193,86761,1,4,2:3:0:0:
204,122,86881,1,4,2:3:0:0:
291,68,87001,6,0,B|298:320,2,239.969981782369,4|0|0,3:2|3:0|3:0,0:0:0:0:
213,28,88429,1,0,3:0:0:0:
128,51,88905,1,0,3:0:0:0:
103,141,89381,1,0,3:0:0:0:
166,220,89871,5,8,2:0:0:0:
253,205,89988,1,8,2:0:0:0:
166,220,90106,5,8,2:3:0:0:
253,205,90223,1,8,2:3:0:0:
333,189,90341,1,4,2:3:0:0:
158,308,90576,5,4,2:3:0:0:
162,312,90635,1,4,2:3:0:0:
166,316,90694,1,4,2:3:0:0:
81,302,90812,1,4,2:3:0:0:
1,293,91047,1,4,2:3:0:0:
270,289,91301,6,0,P|384:289|527:293,1,239.999992675781,12|0,2:0|3:0,0:0:0:0:
429,264,92268,1,0,3:0:0:0:
344,337,92748,1,0,3:0:0:0:
348,252,93241,1,0,3:0:0:0:
281,198,93719,6,0,B|241:194,1,37.5000014305115,2|2,3:2|2:2,0:0:0:0:
334,131,93959,2,0,B|382:130,1,37.5000014305115,2|2,2:2|2:2,0:0:0:0:
274,71,94198,6,0,B|230:57,1,37.5000014305115,2|2,3:2|2:2,0:0:0:0:
358,248,94438,2,0,B|373:290,1,37.5000014305115,2|2,2:2|2:2,0:0:0:0:
314,362,94677,5,4,3:2:0:0:
314,362,94917,5,2,2:2:0:0:
289,365,95037,1,2,2:2:0:0:
245,343,95157,1,2,3:2:0:0:
217,349,95276,1,0,2:0:0:0:
197,334,95396,1,2,2:2:0:0:
178,333,95516,1,0,2:0:0:0:
95,358,95636,5,2,3:2:0:0:
95,358,95876,1,2,2:2:0:0:
81,342,95995,1,0,2:0:0:0:
56,302,96115,1,2,3:2:0:0:
87,275,96235,1,2,2:2:0:0:
92,250,96355,1,2,2:2:0:0:
109,231,96475,1,2,2:2:0:0:
134,220,96594,5,2,3:2:0:0:
75,228,96714,1,2,2:2:0:0:
183,313,96954,1,2,2:0:0:0:
237,328,97074,1,0,3:0:0:0:
293,306,97193,1,2,2:0:0:0:
270,256,97313,1,2,2:0:0:0:
289,194,97433,1,2,2:0:0:0:
236,159,97553,1,2,3:0:0:0:
263,248,97673,5,2,2:0:0:0:
320,221,97792,1,2,2:0:0:0:
374,245,97912,1,2,2:0:0:0:
322,213,98032,5,2,3:0:0:0:
319,311,98152,1,2,2:0:0:0:
398,342,98272,2,0,B|458:356,1,37.5000014305115,2|0,2:0|2:0,2:0:0:0:
238,243,98511,6,0,B|241:167,1,75.0000028610231,0|0,3:0|3:0,0:0:0:0:
210,159,98752,2,0,B|213:235,1,76.0216511369956,0|0,3:0|3:0,0:0:0:0:
297,219,98994,6,0,B|300:143,1,76.0216511369956,0|0,3:0|3:0,0:0:0:0:
178,143,99236,2,0,B|169:243,1,74.2430967491683,0|0,3:0|3:0,0:0:0:0:
431,218,99478,6,0,B|426:144,1,74.1718172672434,0|0,3:0|3:0,0:0:0:0:
59,123,99720,2,0,B|54:197,1,74.1674943210985,0|0,3:0|3:0,0:0:0:0:
363,339,99962,5,6,2:3:0:0:
362,340,100023,5,6,2:3:0:0:
362,339,100083,5,6,2:3:0:0:
362,339,100144,5,6,2:3:0:0:
362,339,100204,6,0,P|506:321|511:171,1,320,10|2,2:3|2:3,0:0:0:0:
511,171,100921,1,2,2:3:0:0:
510,170,101161,1,2,2:3:0:0:
444,106,101401,5,8,2:0:0:0:
56,222,101641,1,8,2:3:0:0:
368,190,101881,5,8,2:3:0:0:
260,174,102001,1,8,2:3:0:0:
152,160,102121,1,4,2:3:0:0:
152,160,102361,6,2,P|229:197|249:278,1,174.386350886388,4|0,3:1|2:0,2:0:0:0:
241,285,102841,6,2,P|257:154|434:126,1,314.999990386963,8|0,2:2|2:0,2:1:0:0:
431,121,103321,2,0,L|374:129,1,44.999998626709,2|0,2:3|2:0,2:0:0:0:
433,202,103441,2,0,B|515:205,1,70.621290849351,2|0,2:3|3:0,2:0:0:0:
506,34,103681,2,0,B|431:29,1,70.702210522909,2|8,2:3|2:0,2:0:0:0:
332,222,103921,1,2,2:3:0:0:
332,222,104041,2,0,P|339:260|340:301,1,69.9999978637696,0|2,3:3|2:3,2:0:0:0:
219,139,104281,5,2,3:3:0:0:
219,139,104521,6,0,P|219:91|221:55,1,75.0000028610231,2|2,3:3|2:3,2:0:0:0:
37,199,104761,2,0,P|78:223|108:242,1,75.0000028610231,8|0,2:0|0:0,2:0:0:0:
106,15,105001,2,0,P|64:39|32:55,1,75.0000028610231,2|0,2:3|2:0,2:0:0:0:
125,141,105241,6,2,B|217:145,1,89.9999972534181,2|0,2:3|2:0,2:1:0:0:
407,57,105481,2,2,P|357:59|306:60,1,89.9999972534181,2|0,3:3|2:0,2:1:0:0:
230,239,105721,2,0,P|319:242|408:259,1,179.999994506836,8|2,2:0|0:3,2:0:0:0:
488,221,106081,5,0,2:0:0:0:
403,249,106201,2,0,P|317:263|290:354,1,179.999994506836,0|0,3:0|2:0,2:0:0:0:
206,290,106561,1,0,2:0:0:0:
189,377,106681,1,8,2:0:0:0:
190,377,106801,2,0,P|103:369|53:297,1,181.391661203688,0|2,2:0|2:3,0:0:0:0:
146,214,107161,6,0,L|83:222,1,44.999998626709,2|0,2:3|2:0,2:0:0:0:
72,190,107281,2,0,L|9:182,1,44.999998626709,2|2,2:3|0:0,2:1:0:0:
110,24,107521,6,0,P|115:72|111:118,1,89.9999972534181,0|8,2:0|0:0,0:0:0:0:
216,144,107761,6,0,L|279:152,1,44.999998626709,2|0,2:3|2:0,2:0:0:0:
291,120,107881,2,0,L|354:112,1,37.5000014305115,2|0,2:3|0:0,2:0:0:0:
288,220,108001,2,0,L|280:157,1,37.5000014305115,2|0,2:3|0:0,2:0:0:0:
278,38,108121,5,2,3:0:0:0:
278,38,108361,6,0,P|237:36|198:29,1,75.0000028610231,2|2,3:0|2:3,2:0:0:0:
391,193,108601,2,0,P|413:158|438:128,1,75.0000028610231,8|0,2:0|3:0,2:0:0:0:
178,205,108841,2,0,P|196:241|210:278,1,75.0000028610231,0|2,2:0|2:3,3:0:0:0:
384,178,109081,6,2,B|377:69,1,90.4887595648791,2|0,2:3|2:0,2:1:0:0:
194,28,109321,2,0,B|188:118,1,90.9554647009428,10|0,0:3|2:0,2:0:0:0:
307,324,109561,1,10,2:0:0:0:
397,269,109681,1,10,2:3:0:0:
307,324,109801,2,0,B|300:235,1,90.0288476682527,8|0,2:3|2:0,2:0:0:0:
291,137,110041,5,4,3:2:0:0:
291,137,110521,6,2,B|167:128|195:160|45:151,1,240,8|0,2:0|0:0,2:1:0:0:
146,183,111001,1,2,2:3:0:0:
146,183,111121,2,0,B|146:242,1,59.49780028999,2|0,2:3|3:0,2:0:0:0:
43,146,111361,2,0,B|46:81,1,60.5346009982261,2|8,2:3|2:0,2:0:0:0:
60,242,111601,2,0,B|0:241,2,60.2501517607697,2|0|2,2:3|2:0|2:3,2:0:0:0:
247,198,111961,5,0,3:0:0:0:
247,198,112201,6,0,B|294:197|284:207|341:202,1,75.0000028610231,2|2,3:3|2:3,2:0:0:0:
176,16,112441,2,0,B|153:57|150:42|125:95,1,75.0000028610231,8|0,2:0|0:0,2:0:0:0:
362,67,112681,2,0,B|338:26|352:30|318:-16,1,75.0000028610231,2|0,2:3|2:0,2:0:0:0:
238,96,112921,6,2,P|232:141|238:187,1,90.9552374796201,2|0,2:3|2:0,2:1:0:0:
431,275,113161,2,0,P|430:229|423:184,1,90.9666125631671,2|0,3:1|0:0,0:0:0:0:
221,201,113401,2,0,P|135:177|55:218,1,179.999994506836,8|0,2:0|2:0,2:0:0:0:
162,275,113761,5,0,2:0:0:0:
40,237,113881,2,0,P|-6:162|13:74,1,179.999994506836,0|0,3:0|2:0,2:0:0:0:
128,0,114241,5,0,2:0:0:0:
100,85,114361,2,0,B|215:74|181:111|311:99,1,194.999991073609,8|0,2:2|0:0,2:0:0:0:
398,77,114841,5,2,2:3:0:0:
398,77,114961,2,0,B|395:10,1,64.9999970245363,2|0,2:3|3:0,2:0:0:0:
289,112,115201,2,0,B|297:177,1,66.0385800093028,2|8,2:3|2:0,0:0:0:0:
466,255,115441,2,0,B|474:182,1,64.9999970245363,2|0,2:3|2:0,0:0:0:0:
267,365,115681,1,2,0:3:0:0:
347,373,115801,1,8,0:0:0:0:
357,383,116041,5,0,2:0:0:0:
358,383,116161,1,8,2:3:0:0:
358,383,116281,2,2,P|365:272|377:156,1,225.000008583069,8|0,2:0|0:0,2:1:0:0:
232,285,116761,6,0,P|189:286|142:290,1,75.074225378928,8|10,0:0|0:3,0:0:0:0:
483,108,117001,2,0,P|480:145|476:196,1,75.6708199250174,6|0,0:3|0:0,0:0:0:0:
230,162,117241,6,0,P|261:77|405:65,1,225.000008583069,8|4,2:0|2:3,2:0:0:0:
232,173,117721,5,4,3:2:0:0:
155,200,117841,1,0,0:0:0:0:
79,167,117961,1,8,2:0:0:0:
347,192,118081,6,0,P|410:195|479:187,1,119.999996337891,8|0,2:0|0:0,2:1:0:0:
307,289,118441,2,0,P|247:284|187:287,1,119.999996337891,4|8,3:2|2:0,2:0:0:0:
434,350,118921,6,0,P|438:264|424:65,1,279.999991455078,4|4,3:2|2:3,2:0:0:0:
470,150,119521,1,4,2:3:0:0:
512,40,119641,2,0,B|330:-11|393:114|217:73,1,300,4|0,3:2|0:0,2:0:0:0:
305,40,120601,6,0,P|311:74|309:109,1,69.9999978637696,8|0,2:0|0:0,0:0:0:0:
182,323,120841,2,0,B|177:253,1,70.7704591646049,4|0,3:2|0:0,2:0:0:0:
147,167,121081,1,8,2:3:0:0:
146,168,121201,1,8,2:3:0:0:
146,168,121321,2,0,B|233:162,1,71.1124382963744,4|0,2:3|0:0,0:0:0:0:
299,217,121561,6,0,B|307:268,1,44.999998626709,0|0,3:0|2:0,2:0:0:0:
296,279,121801,2,0,B|291:228,1,45.5596954641352,0|0,3:0|2:0,2:0:0:0:
445,221,122041,2,2,B|395:229,1,44.805780995884,0|0,3:0|2:0,2:1:0:0:
210,341,122281,2,0,B|212:296,1,45.4214195787693,8|0,2:0|2:0,2:0:0:0:
362,110,122521,2,0,B|361:155,1,44.4849997186427,0|0,3:0|0:0,0:0:0:0:
124,256,122761,5,0,3:0:0:0:
125,257,122821,5,4,2:3:0:0:
125,256,122881,5,4,2:3:0:0:
125,256,122941,5,4,2:3:0:0:
125,257,123001,6,0,P|113:181|120:103,1,150.000005722046,4|8,2:3|2:3,0:0:0:0:
118,108,123301,1,8,0:3:0:0:
118,108,123361,1,4,2:0:0:0:
479,30,124441,6,0,P|519:114|495:203,1,189.447965694933,4|0,3:2|0:0,2:0:0:0:
33,354,124921,2,0,P|-7:270|20:166,1,200,4|0,3:2|0:0,2:0:0:0:
92,217,125281,1,8,2:0:0:0:
147,149,125401,6,0,B|227:144|210:158|299:152,1,139.168858079979,4|8,3:2|2:2,2:0:0:0:
435,238,125761,2,0,B|363:227|375:244|289:240,1,139.999995727539,4|0,3:2|2:0,2:0:0:0:
210,372,126112,2,0,B|221:313|203:322|217:222,1,129.999994049073,4|0,3:2|3:0,2:0:0:0:
280,164,126412,1,0,3:0:0:0:
270,151,126472,2,0,B|276:74,1,74.1717417162854,0|4,3:0|3:2,0:0:0:0:
52,237,126832,6,0,L|-5:240,3,37.5000014305115,4|4|4|4,2:3|2:3|2:3|2:3,0:0:0:0:
149,176,127072,6,0,L|92:173,3,37.5000014305115,4|4|4|4,2:3|2:3|2:3|2:3,0:0:0:0:
222,240,127312,6,0,P|294:252|322:328,1,150.000005722046,4|8,3:2|2:3,0:0:0:0:
390,366,127672,1,0,0:0:0:0:
479,340,127792,1,0,3:0:0:0:
479,340,127872,1,4,0:3:0:0:
479,340,127952,1,4,0:3:0:0:
479,341,128032,2,0,P|480:301|477:263,1,75.0000028610231,0|0,3:0|3:0,0:0:0:0:
425,165,128272,2,0,B|427:123,2,38.0085593494004,4|4|4,2:3|2:3|2:3,0:0:0:0:
245,363,128512,6,0,P|365:331|390:226,1,225.000008583069,4|0,3:2|0:0,0:0:0:0:
327,177,128984,2,0,B|323:76,1,74.5354132492566,4|4,2:3|2:3,0:0:0:0:
466,0,129220,6,0,P|476:144|479:268,1,262.500010013581,4|0,3:2|2:0,2:0:0:0:
494,269,129700,2,0,B|497:348,2,75.0000028610231,8|8|8,2:0|2:3|2:3,0:0:0:0:
11,93,130180,5,8,2:0:0:0:
12,94,130540,6,0,B|4:148,1,50,4|0,3:2|2:0,2:0:0:0:
174,169,130780,6,0,B|168:229,1,50,4|0,3:2|0:0,2:0:0:0:
348,345,131020,6,2,B|321:76,1,250,4|0,3:2|3:0,2:1:0:0:
324,97,131860,1,0,0:0:0:0:
357,361,132098,5,0,3:0:0:0:
435,365,132215,1,0,3:0:0:0:
476,294,132333,1,8,3:2:0:0:
433,224,132450,1,8,3:2:0:0:
353,246,132568,1,8,2:0:0:0:
280,195,132686,1,8,2:0:0:0:
317,106,132803,1,8,2:0:0:0:
408,118,132921,1,4,3:2:0:0:
430,30,133321,6,0,L|462:25,1,29.9999990844727,2|0,2:3|2:0,2:0:0:0:
362,19,133681,2,0,L|394:14,1,29.9999990844727,2|0,2:3|2:0,2:0:0:0:
300,61,134041,2,0,L|332:56,1,29.9999990844727,2|0,2:3|2:0,2:0:0:0:
227,45,134401,2,0,L|259:40,1,29.9999990844727,2|0,2:3|2:0,2:0:0:0:
166,83,134761,2,0,L|198:78,1,29.9999990844727,2|0,2:3|2:0,2:0:0:0:
