osu file format v14

[General]
AudioFilename: audio.mp3
AudioLeadIn: 0
PreviewTime: 107740
Countdown: 0
SampleSet: None
StackLeniency: 0.7
Mode: 0
LetterboxInBreaks: 0
WidescreenStoryboard: 0

[Editor]
DistanceSpacing: 0.4
BeatDivisor: 4
GridSize: 4
TimelineZoom: 1

[Metadata]
Title:Iseendale
TitleUnicode:Iseendale
Artist:Eda-Ines Etti
ArtistUnicode:Eda-Ines Etti
Creator:Modorenai
Version:Insane
Source:
Tags:Uus Päev
BeatmapID:1990551
BeatmapSetID:953363

[Difficulty]
HPDrainRate:5
CircleSize:3.8
OverallDifficulty:7
ApproachRate:8.5
SliderMultiplier:2
SliderTickRate:1

[Events]
//Background and Video events
0,0,"1510091321557-6425.jpg",0,0
//Break Periods
2,7677,21238
//Storyboard Layer 0 (Background)
//Storyboard Layer 1 (Fail)
//Storyboard Layer 2 (Pass)
//Storyboard Layer 3 (Foreground)
//Storyboard Sound Samples

[TimingPoints]
259,451.127819548872,4,1,0,70,1,0
259,-111.111111111111,4,1,0,70,0,0
21913,-125,4,2,0,60,0,0
36349,-100,4,2,0,70,0,0
47176,-100,4,3,0,70,0,0
48078,-100,4,3,0,73,0,0
48980,-100,4,3,0,76,0,0
49883,-100,4,3,0,79,0,0
50785,-83.3333333333333,4,1,0,82,0,1
65221,-100,4,1,0,60,0,0
94093,-100,4,1,0,60,0,0
104920,-100,4,3,0,70,0,0
105822,-100,4,3,0,73,0,0
106724,-100,4,3,0,76,0,0
107627,-100,4,3,0,79,0,0
108529,-83.3333333333333,4,1,0,82,0,1
122289,-83.3333333333333,4,1,0,82,0,0
122965,-83.3333333333333,4,1,0,82,0,1
137401,-100,4,1,0,70,0,0
144619,-90.9090909090909,4,1,0,70,0,0
151837,-83.3333333333333,4,1,0,85,0,1
165597,-83.3333333333333,4,1,0,85,0,0
166274,-83.3333333333333,4,1,0,85,0,1
178454,-83.3333333333333,4,1,0,85,0,0
178680,-83.3333333333333,4,2,0,50,0,0
180484,-83.3333333333333,4,2,0,20,0,0

[Colours]
Combo1 : 136,38,40
Combo2 : 26,13,142
Combo3 : 106,3,146
Combo4 : 143,16,112

[HitObjects]
256,192,259,5,4,0:0:0:0:
404,244,484,1,0,0:0:0:0:
272,296,710,1,0,0:0:0:0:
376,120,935,2,0,L|168:100,1,179.999994506836,8|0,0:3|0:0,0:0:0:0:
56,88,1612,5,4,0:3:0:0:
164,200,1837,1,0,0:0:0:0:
176,101,2063,1,0,0:0:0:0:
60,296,2289,2,0,L|264:308,1,179.999994506836,4|0,0:0|0:0,0:0:0:0:
416,304,2965,1,0,0:0:0:0:
212,200,3191,1,0,0:0:0:0:
348,248,3416,1,0,0:0:0:0:
368,200,3529,1,0,0:0:0:0:
384,148,3642,1,0,0:0:0:0:
408,96,3755,1,0,0:0:0:0:
428,48,3868,5,0,0:0:0:0:
448,264,4093,1,0,0:0:0:0:
496,128,4319,1,0,0:0:0:0:
272,320,4544,2,0,L|248:136,1,179.999994506836
240,24,5221,5,0,0:0:0:0:
16,108,5446,1,0,0:0:0:0:
120,24,5672,1,0,0:0:0:0:
40,248,5898,2,0,L|240:252,1,179.999994506836
432,256,6574,5,0,0:0:0:0:
368,104,6800,1,0,0:0:0:0:
316,360,7025,1,0,0:0:0:0:
472,140,7251,1,0,0:0:0:0:
472,140,7364,1,0,0:0:0:0:
472,140,7477,1,0,0:0:0:0:
92,204,21913,6,0,P|160:220|280:188,1,160
448,96,22589,2,0,P|400:88|252:80,1,160
104,72,23266,2,0,L|112:168,1,80
248,324,23717,2,0,L|272:236,1,80
332,136,24168,1,0,0:0:0:0:
36,272,24394,2,0,L|56:172,1,80
168,56,24845,1,0,0:0:0:0:
204,264,25071,2,0,L|248:176,1,80
268,144,25409,1,0,0:0:0:0:
268,144,25522,6,0,P|364:152|424:200,1,160
440,304,26198,2,0,P|368:304|272:280,1,160
128,284,26875,2,0,L|136:192,1,80
380,48,27326,6,0,L|368:136,1,80
352,280,27777,1,0,0:0:0:0:
228,132,28003,1,0,0:0:0:0:
384,320,28228,2,0,L|280:304,1,80
240,40,28680,2,0,L|348:56,1,80
368,64,29018,1,0,0:0:0:0:
368,64,29131,6,0,P|372:148|340:232,1,160
192,312,29807,2,0,P|168:256|188:144,1,160
204,60,30484,1,0,0:0:0:0:
312,208,30710,1,0,0:0:0:0:
56,68,30935,6,0,L|152:56,1,80
288,56,31386,1,0,0:0:0:0:
424,72,31612,2,0,L|400:176,1,80
384,288,32063,1,0,0:0:0:0:
192,252,32289,1,0,0:0:0:0:
268,336,32514,1,0,0:0:0:0:
88,320,32740,6,0,P|84:252|100:144,1,160
48,100,33416,2,0,L|216:100,1,160
448,96,34093,2,0,L|352:96,1,80
228,100,34544,5,0,0:0:0:0:
236,264,34770,2,0,L|136:272,1,80
92,140,35221,2,0,L|200:140,1,80
88,56,35672,1,0,0:0:0:0:
348,76,35898,1,0,0:0:0:0:
12,16,36123,1,0,0:0:0:0:
92,184,36349,6,0,P|172:208|288:176,1,200
352,116,37025,1,0,0:0:0:0:
352,116,37251,1,0,0:0:0:0:
176,96,37477,1,0,0:0:0:0:
344,256,37702,1,0,0:0:0:0:
272,40,37928,2,0,L|264:176,1,100
92,288,38379,2,0,P|192:296|236:284,1,100
192,36,38830,2,0,L|172:152,1,100
180,320,39281,2,0,L|304:312,1,100
468,212,39732,1,0,0:0:0:0:
88,64,39958,6,0,L|72:280,1,200
72,376,40634,1,0,0:0:0:0:
72,376,40860,1,0,0:0:0:0:
188,232,41086,1,0,0:0:0:0:
312,352,41311,1,0,0:0:0:0:
376,232,41537,2,0,P|328:136|236:88,1,200
124,112,42213,1,0,0:0:0:0:
272,320,42439,2,0,L|264:200,1,100
388,120,42890,1,0,0:0:0:0:
265,220,43116,1,0,0:0:0:0:
164,84,43341,1,0,0:0:0:0:
336,352,43567,6,0,P|188:332|152:280,1,200
64,204,44243,1,0,0:0:0:0:
64,204,44469,1,0,0:0:0:0:
192,156,44695,1,0,0:0:0:0:
52,60,44920,1,0,0:0:0:0:
64,240,45146,2,0,L|196:264,1,100
452,120,45597,2,0,L|328:104,1,100
80,280,46048,2,0,L|192:280,1,100
368,324,46499,2,0,L|412:228,1,100
456,120,46950,1,0,0:0:0:0:
260,96,47176,5,8,0:0:0:0:
260,96,47401,1,8,0:0:0:0:
500,196,47627,1,8,0:0:0:0:
500,196,47852,1,8,0:0:0:0:
320,272,48078,5,8,0:0:0:0:
336,144,48304,1,8,0:0:0:0:
176,308,48529,1,8,0:0:0:0:
144,136,48755,1,8,0:0:0:0:
392,212,48980,5,8,0:0:0:0:
0,188,49206,1,8,0:0:0:0:
456,88,49431,1,8,0:0:0:0:
44,80,49657,1,8,0:0:0:0:
488,172,49883,1,8,0:0:0:0:
48,288,50108,1,8,0:0:0:0:
284,320,50334,5,2,0:0:0:0:
304,264,50446,1,2,0:0:0:0:
316,204,50559,1,8,0:0:0:0:
304,148,50672,1,2,0:0:0:0:
272,96,50785,6,0,L|264:232,1,119.999996337891,4|0,0:2|0:0,0:0:0:0:
256,328,51236,1,0,0:0:0:0:
152,80,51462,2,0,L|172:224,1,119.999996337891
184,304,51913,1,0,0:0:0:0:
40,252,52138,2,0,L|32:104,1,119.999996337891
36,72,52477,1,0,0:0:0:0:
36,72,52589,6,0,L|168:80,1,119.999996337891
312,128,53040,1,0,0:0:0:0:
156,356,53266,2,0,L|184:224,1,119.999996337891
248,64,53717,1,0,0:0:0:0:
248,64,53830,1,0,0:0:0:0:
248,64,53943,1,0,0:0:0:0:
408,212,54168,1,0,0:0:0:0:
80,288,54394,6,0,L|88:148,1,119.999996337891
100,40,54845,1,0,0:0:0:0:
332,56,55071,2,0,L|324:192,1,119.999996337891
320,312,55522,1,0,0:0:0:0:
196,132,55747,1,0,0:0:0:0:
88,292,55973,1,0,0:0:0:0:
88,292,56086,1,0,0:0:0:0:
88,292,56198,6,0,L|96:152,1,119.999996337891
128,60,56649,1,0,0:0:0:0:
268,240,56875,2,0,L|392:260,1,119.999996337891
476,284,57326,1,0,0:0:0:0:
144,312,57552,1,0,0:0:0:0:
348,116,57777,1,0,0:0:0:0:
348,116,57890,1,0,0:0:0:0:
348,116,58003,6,0,L|220:112,1,119.999996337891
80,104,58454,1,0,0:0:0:0:
124,284,58680,2,0,L|276:288,1,119.999996337891
368,296,59131,1,0,0:0:0:0:
432,160,59356,1,0,0:0:0:0:
284,48,59582,1,0,0:0:0:0:
104,112,59807,6,0,P|104:172|128:260,1,119.999996337891
144,324,60258,1,0,0:0:0:0:
408,168,60484,2,0,L|284:172,1,119.999996337891
264,176,60822,1,0,0:0:0:0:
264,176,60935,1,0,0:0:0:0:
104,320,61161,1,0,0:0:0:0:
432,332,61386,1,0,0:0:0:0:
432,332,61499,1,0,0:0:0:0:
432,332,61612,5,0,0:0:0:0:
288,92,61837,1,0,0:0:0:0:
192,284,62063,1,0,0:0:0:0:
424,176,62289,2,0,L|284:168,1,119.999996337891
100,236,62740,1,0,0:0:0:0:
384,80,62965,1,0,0:0:0:0:
100,48,63191,1,0,0:0:0:0:
248,260,63416,5,0,0:0:0:0:
248,260,63642,1,0,0:0:0:0:
360,52,63868,1,0,0:0:0:0:
408,336,64093,5,0,0:0:0:0:
408,336,64319,1,0,0:0:0:0:
360,148,64544,1,0,0:0:0:0:
292,372,64770,5,0,0:0:0:0:
456,164,64995,1,0,0:0:0:0:
464,128,65108,1,0,0:0:0:0:
484,80,65221,6,0,L|268:80,1,200
88,88,65898,2,0,L|124:188,1,100
208,296,66349,1,0,0:0:0:0:
64,272,66574,1,0,0:0:0:0:
64,272,66800,1,0,0:0:0:0:
404,328,67025,6,0,P|416:280|412:208,1,100
404,124,67477,1,0,0:0:0:0:
224,280,67702,1,0,0:0:0:0:
464,208,67928,1,0,0:0:0:0:
464,208,68153,1,0,0:0:0:0:
164,304,68379,1,0,0:0:0:0:
352,204,68604,1,0,0:0:0:0:
352,204,68717,1,0,0:0:0:0:
352,204,68830,6,0,P|352:144|244:28,1,200
124,76,69507,2,0,L|124:204,1,100
124,328,69958,1,0,0:0:0:0:
348,336,70183,2,0,L|388:232,1,100
256,128,70634,5,0,0:0:0:0:
256,128,70860,1,0,0:0:0:0:
360,172,71086,1,0,0:0:0:0:
68,164,71311,1,0,0:0:0:0:
324,244,71537,1,0,0:0:0:0:
324,244,71762,1,0,0:0:0:0:
320,120,71988,1,0,0:0:0:0:
144,348,72213,1,0,0:0:0:0:
144,348,72326,1,0,0:0:0:0:
144,348,72439,6,0,L|184:120,1,200
448,100,73116,2,0,L|392:224,1,100
336,284,73567,1,0,0:0:0:0:
272,116,73792,1,0,0:0:0:0:
448,296,74018,1,0,0:0:0:0:
72,188,74243,2,0,L|192:184,1,100
128,276,74695,1,0,0:0:0:0:
296,292,74920,2,0,P|316:188|280:80,1,200
204,36,75597,1,0,0:0:0:0:
68,216,75822,1,0,0:0:0:0:
80,216,75935,1,0,0:0:0:0:
92,216,76048,6,0,P|172:240|312:240,1,200
484,128,76725,2,0,P|432:104|276:92,1,200
112,96,77401,1,0,0:0:0:0:
396,216,77627,1,0,0:0:0:0:
132,228,77852,5,0,0:0:0:0:
128,268,78078,1,0,0:0:0:0:
396,216,78304,1,0,0:0:0:0:
220,300,78529,5,0,0:0:0:0:
220,336,78755,1,0,0:0:0:0:
396,216,78980,1,0,0:0:0:0:
168,156,79206,5,0,0:0:0:0:
136,168,79319,1,0,0:0:0:0:
120,200,79431,1,0,0:0:0:0:
112,236,79544,1,0,0:0:0:0:
112,280,79657,6,0,P|108:176|136:48,1,200
272,40,80334,2,0,L|264:160,1,100
256,264,80785,1,0,0:0:0:0:
128,164,81010,1,0,0:0:0:0:
408,176,81236,1,0,0:0:0:0:
68,320,81462,6,0,P|144:320|216:320,1,100
360,308,81913,1,0,0:0:0:0:
140,216,82138,1,0,0:0:0:0:
388,216,82364,1,0,0:0:0:0:
388,216,82589,1,0,0:0:0:0:
288,136,82815,1,0,0:0:0:0:
452,296,83040,1,0,0:0:0:0:
452,296,83153,1,0,0:0:0:0:
452,296,83266,6,0,L|460:80,1,200
140,52,83943,2,0,P|120:144|168:260,1,200
212,344,84619,1,0,0:0:0:0:
304,132,84845,1,0,0:0:0:0:
68,292,85071,1,0,0:0:0:0:
252,252,85296,1,0,0:0:0:0:
252,252,85522,1,0,0:0:0:0:
40,144,85747,1,0,0:0:0:0:
176,336,85973,1,0,0:0:0:0:
176,336,86198,1,0,0:0:0:0:
148,132,86424,1,0,0:0:0:0:
92,368,86649,1,0,0:0:0:0:
416,96,86875,6,0,P|328:84|188:80,1,200
36,196,87552,2,0,P|88:224|144:228,1,100
292,232,88003,1,0,0:0:0:0:
112,120,88228,1,0,0:0:0:0:
132,352,88454,1,0,0:0:0:0:
280,72,88680,6,0,P|384:96|412:192,1,200
384,316,89356,2,0,L|268:304,1,100
84,308,89807,1,0,0:0:0:0:
304,192,90033,1,0,0:0:0:0:
80,136,90258,1,0,0:0:0:0:
184,356,90484,6,0,P|204:280|192:140,1,200
88,56,91161,2,0,P|80:112|104:272,1,200
164,344,91837,1,0,0:0:0:0:
296,148,92063,1,0,0:0:0:0:
48,264,92289,5,0,0:0:0:0:
336,328,92514,1,0,0:0:0:0:
88,340,92740,1,0,0:0:0:0:
456,256,92965,2,0,L|456:48,1,200
344,340,93642,1,0,0:0:0:0:
304,348,93755,1,0,0:0:0:0:
256,348,93868,1,0,0:0:0:0:
208,340,93980,1,0,0:0:0:0:
152,312,94093,6,0,P|152:236|144:92,1,200
140,24,94770,1,0,0:0:0:0:
40,228,94995,1,0,0:0:0:0:
40,228,95108,1,0,0:0:0:0:
40,228,95221,1,0,0:0:0:0:
32,92,95446,1,0,0:0:0:0:
220,120,95672,2,0,P|272:128|344:112,1,100
232,256,96123,2,0,P|296:232|348:192,1,100
368,348,96574,2,0,P|392:304|400:236,1,100
404,68,97025,1,0,0:0:0:0:
232,256,97251,1,0,0:0:0:0:
488,168,97477,1,0,0:0:0:0:
256,44,97702,6,0,P|176:80|136:200,1,200
136,296,98379,1,0,0:0:0:0:
296,208,98604,1,0,0:0:0:0:
296,208,98717,1,0,0:0:0:0:
296,208,98830,1,0,0:0:0:0:
68,72,99055,1,0,0:0:0:0:
84,328,99281,1,0,0:0:0:0:
296,64,99507,6,0,L|296:192,1,100
300,312,99958,1,0,0:0:0:0:
152,160,100183,1,0,0:0:0:0:
432,200,100409,1,0,0:0:0:0:
200,272,100634,1,0,0:0:0:0:
388,72,100860,1,0,0:0:0:0:
400,320,101086,1,0,0:0:0:0:
400,320,101198,1,0,0:0:0:0:
400,320,101311,6,0,B|296:268|196:300|168:324,1,200
84,344,101988,1,0,0:0:0:0:
84,344,102213,1,0,0:0:0:0:
160,168,102439,1,0,0:0:0:0:
288,372,102665,1,0,0:0:0:0:
352,88,102890,1,0,0:0:0:0:
288,372,103116,5,0,0:0:0:0:
268,112,103341,2,0,L|224:236,1,100
176,344,103792,2,0,L|304:324,1,100
432,104,104243,1,0,0:0:0:0:
120,152,104469,1,0,0:0:0:0:
408,212,104695,1,0,0:0:0:0:
408,212,104807,1,0,0:0:0:0:
408,212,104920,5,0,0:0:0:0:
408,212,105146,1,0,0:0:0:0:
88,244,105371,1,0,0:0:0:0:
88,244,105597,1,0,0:0:0:0:
336,100,105822,5,0,0:0:0:0:
184,340,106048,1,0,0:0:0:0:
188,68,106274,1,0,0:0:0:0:
328,312,106499,1,0,0:0:0:0:
64,108,106725,5,0,0:0:0:0:
464,108,106950,1,0,0:0:0:0:
20,224,107176,1,0,0:0:0:0:
512,236,107401,1,0,0:0:0:0:
0,32,107627,1,0,0:0:0:0:
456,28,107852,1,0,0:0:0:0:
200,72,108078,5,0,0:0:0:0:
176,112,108191,1,0,0:0:0:0:
180,168,108304,1,0,0:0:0:0:
188,224,108416,1,0,0:0:0:0:
184,280,108529,6,0,P|260:292|356:296,1,119.999996337891
428,312,108980,1,0,0:0:0:0:
472,76,109206,2,0,L|320:92,1,119.999996337891
456,184,109657,1,0,0:0:0:0:
212,64,109883,2,0,L|72:64,1,119.999996337891
40,80,110221,1,0,0:0:0:0:
40,80,110334,6,0,L|64:240,1,119.999996337891
88,320,110785,1,0,0:0:0:0:
256,72,111010,2,0,L|232:192,1,119.999996337891
200,308,111462,1,0,0:0:0:0:
136,76,111687,1,0,0:0:0:0:
200,308,111913,1,0,0:0:0:0:
468,112,112138,6,0,L|332:116,1,119.999996337891
184,136,112589,1,0,0:0:0:0:
448,284,112815,2,0,L|296:264,1,119.999996337891
132,232,113266,1,0,0:0:0:0:
472,212,113492,1,0,0:0:0:0:
116,68,113717,1,0,0:0:0:0:
116,68,113830,1,0,0:0:0:0:
116,68,113943,6,0,L|148:200,1,119.999996337891
188,296,114394,1,0,0:0:0:0:
400,24,114619,2,0,L|380:172,1,119.999996337891
356,300,115071,1,0,0:0:0:0:
220,84,115296,1,0,0:0:0:0:
496,128,115522,1,0,0:0:0:0:
488,184,115634,1,0,0:0:0:0:
476,240,115747,6,0,P|424:328|360:332,1,119.999996337891
252,344,116198,1,0,0:0:0:0:
364,84,116424,2,0,P|344:176|272:196,1,119.999996337891
188,240,116875,1,0,0:0:0:0:
200,80,117101,1,0,0:0:0:0:
448,204,117326,1,0,0:0:0:0:
116,76,117552,6,0,L|104:220,1,119.999996337891
88,336,118003,1,0,0:0:0:0:
248,212,118228,2,0,L|392:208,1,119.999996337891
424,208,118567,1,0,0:0:0:0:
424,208,118680,1,0,0:0:0:0:
124,200,118905,1,0,0:0:0:0:
416,104,119131,1,0,0:0:0:0:
416,104,119243,1,0,0:0:0:0:
416,104,119356,6,0,L|392:264,1,119.999996337891
364,344,119807,1,0,0:0:0:0:
304,80,120033,2,0,L|212:176,1,119.999996337891
136,260,120484,1,0,0:0:0:0:
96,76,120710,1,0,0:0:0:0:
360,184,120935,1,0,0:0:0:0:
220,36,121161,5,0,0:0:0:0:
160,184,121386,1,0,0:0:0:0:
160,184,121612,1,0,0:0:0:0:
148,24,121837,5,0,0:0:0:0:
224,236,122063,1,0,0:0:0:0:
64,168,122289,1,0,0:0:0:0:
396,108,122514,5,0,0:0:0:0:
416,140,122627,1,0,0:0:0:0:
420,184,122740,1,0,0:0:0:0:
416,236,122852,1,0,0:0:0:0:
416,292,122965,6,0,P|344:300|264:292,1,119.999996337891
152,280,123416,1,0,0:0:0:0:
328,160,123642,2,0,P|232:164|168:144,1,119.999996337891
56,136,124093,1,0,0:0:0:0:
432,72,124319,2,0,L|432:208,1,119.999996337891
432,240,124657,1,0,0:0:0:0:
432,240,124770,6,0,P|312:248|264:248,1,119.999996337891
192,240,125221,1,0,0:0:0:0:
376,352,125446,2,0,P|288:344|216:328,1,119.999996337891
104,284,125898,1,0,0:0:0:0:
464,224,126123,1,0,0:0:0:0:
188,116,126349,1,0,0:0:0:0:
436,64,126574,5,0,0:0:0:0:
348,220,126800,1,0,0:0:0:0:
348,220,127025,1,0,0:0:0:0:
316,80,127251,5,0,0:0:0:0:
424,288,127477,1,0,0:0:0:0:
424,288,127702,1,0,0:0:0:0:
460,116,127928,1,0,0:0:0:0:
176,208,128153,1,0,0:0:0:0:
176,208,128266,1,0,0:0:0:0:
176,208,128379,5,0,0:0:0:0:
440,216,128604,1,0,0:0:0:0:
80,120,128830,1,0,0:0:0:0:
404,96,129055,2,0,L|404:232,1,119.999996337891
400,264,129394,1,0,0:0:0:0:
400,264,129507,1,0,0:0:0:0:
492,156,129732,1,0,0:0:0:0:
472,352,129958,1,0,0:0:0:0:
440,40,130183,6,0,L|280:56,1,119.999996337891
212,60,130634,1,0,0:0:0:0:
488,188,130860,2,0,L|344:172,1,119.999996337891
220,156,131311,1,0,0:0:0:0:
88,252,131537,1,0,0:0:0:0:
168,360,131762,1,0,0:0:0:0:
128,32,131988,6,0,L|128:196,1,119.999996337891
160,284,132439,1,0,0:0:0:0:
292,28,132665,2,0,L|264:164,1,119.999996337891
248,200,133003,1,0,0:0:0:0:
248,200,133116,1,0,0:0:0:0:
456,184,133341,1,0,0:0:0:0:
128,92,133567,1,0,0:0:0:0:
128,92,133680,1,0,0:0:0:0:
128,92,133792,5,0,0:0:0:0:
196,268,134018,1,0,0:0:0:0:
344,148,134243,1,0,0:0:0:0:
64,176,134469,2,0,L|68:312,1,119.999996337891
232,240,134920,1,0,0:0:0:0:
432,216,135146,1,0,0:0:0:0:
196,64,135371,1,0,0:0:0:0:
332,328,135597,5,0,0:0:0:0:
388,128,135822,1,0,0:0:0:0:
388,128,136048,1,0,0:0:0:0:
400,364,136274,5,0,0:0:0:0:
248,160,136499,1,0,0:0:0:0:
248,160,136725,1,0,0:0:0:0:
440,296,136950,1,0,0:0:0:0:
184,316,137176,1,0,0:0:0:0:
140,304,137289,1,0,0:0:0:0:
104,272,137401,5,0,0:0:0:0:
408,216,137627,1,0,0:0:0:0:
120,184,137852,1,0,0:0:0:0:
236,344,138078,2,0,P|248:248|264:128,1,200
300,16,138755,5,0,0:0:0:0:
444,232,138980,1,0,0:0:0:0:
128,128,139206,1,0,0:0:0:0:
461,145,139431,2,0,L|225:145,1,200
60,132,140108,5,0,0:0:0:0:
432,40,140334,1,0,0:0:0:0:
168,52,140559,5,0,0:0:0:0:
152,108,140672,1,0,0:0:0:0:
136,168,140785,1,0,0:0:0:0:
124,216,140898,1,0,0:0:0:0:
112,264,141010,5,0,0:0:0:0:
284,184,141236,1,0,0:0:0:0:
56,104,141462,1,0,0:0:0:0:
132,336,141687,2,0,L|368:348,1,200
460,352,142364,5,0,0:0:0:0:
472,200,142589,1,0,0:0:0:0:
88,280,142815,1,0,0:0:0:0:
331,346,143040,2,0,L|352:128,1,200
360,32,143717,5,0,0:0:0:0:
492,212,143943,1,0,0:0:0:0:
168,288,144168,5,0,0:0:0:0:
152,240,144281,1,0,0:0:0:0:
132,192,144394,1,0,0:0:0:0:
120,152,144507,1,0,0:0:0:0:
104,112,144619,5,0,0:0:0:0:
312,172,144845,1,0,0:0:0:0:
80,296,145071,1,0,0:0:0:0:
200,40,145296,2,0,P|328:52|456:100,1,220.000006713867
488,160,145973,5,0,0:0:0:0:
324,204,146198,1,0,0:0:0:0:
476,20,146424,1,0,0:0:0:0:
464,320,146649,2,0,L|220:304,1,220.000006713867
68,304,147326,5,0,0:0:0:0:
440,252,147552,1,0,0:0:0:0:
192,40,147777,5,0,0:0:0:0:
180,80,147890,1,0,0:0:0:0:
168,124,148003,1,0,0:0:0:0:
156,164,148116,1,0,0:0:0:0:
144,208,148228,5,0,0:0:0:0:
368,144,148454,1,0,0:0:0:0:
32,104,148680,1,0,0:0:0:0:
112,300,148905,2,0,L|344:308,1,220.000006713867
448,316,149582,5,0,0:0:0:0:
440,128,149807,1,0,0:0:0:0:
316,356,150033,1,0,0:0:0:0:
252,172,150258,5,0,0:0:0:0:
256,132,150484,1,0,0:0:0:0:
192,36,150710,1,0,0:0:0:0:
188,304,150935,1,0,0:0:0:0:
416,156,151161,1,0,0:0:0:0:
112,76,151386,5,0,0:0:0:0:
96,128,151499,1,0,0:0:0:0:
88,188,151612,1,0,0:0:0:0:
96,248,151725,1,0,0:0:0:0:
116,316,151837,6,0,L|252:324,1,119.999996337891
392,324,152289,1,0,0:0:0:0:
112,204,152514,2,0,L|256:212,1,119.999996337891
380,216,152965,1,0,0:0:0:0:
108,88,153191,2,0,L|256:96,1,119.999996337891
280,96,153529,1,0,0:0:0:0:
280,96,153642,6,0,P|284:184|260:232,1,119.999996337891
204,340,154093,1,0,0:0:0:0:
88,172,154319,1,0,0:0:0:0:
344,296,154544,1,0,0:0:0:0:
132,288,154770,1,0,0:0:0:0:
408,196,154995,1,0,0:0:0:0:
424,92,155221,1,0,0:0:0:0:
184,32,155446,5,0,0:0:0:0:
168,216,155672,1,0,0:0:0:0:
168,216,155898,1,0,0:0:0:0:
68,40,156123,5,0,0:0:0:0:
252,212,156349,1,0,0:0:0:0:
252,212,156574,1,0,0:0:0:0:
16,164,156800,1,0,0:0:0:0:
348,152,157025,1,0,0:0:0:0:
348,152,157138,1,0,0:0:0:0:
348,152,157251,6,0,P|360:220|340:284,1,119.999996337891
216,352,157702,1,0,0:0:0:0:
184,52,157928,2,0,P|176:112|184:196,1,119.999996337891
216,304,158379,1,0,0:0:0:0:
368,128,158604,1,0,0:0:0:0:
80,144,158830,1,0,0:0:0:0:
80,144,158943,1,0,0:0:0:0:
80,144,159055,5,0,0:0:0:0:
72,304,159281,1,0,0:0:0:0:
72,304,159507,1,0,0:0:0:0:
196,112,159732,5,0,0:0:0:0:
8,240,159958,1,0,0:0:0:0:
8,240,160183,1,0,0:0:0:0:
360,296,160409,1,0,0:0:0:0:
80,88,160634,1,0,0:0:0:0:
136,320,160860,6,0,P|228:332|280:328,1,119.999996337891
444,296,161311,1,0,0:0:0:0:
104,172,161537,2,0,P|200:212|244:184,1,119.999996337891
264,196,161875,1,0,0:0:0:0:
264,196,161988,1,0,0:0:0:0:
192,60,162213,1,0,0:0:0:0:
100,304,162439,1,0,0:0:0:0:
132,304,162552,1,0,0:0:0:0:
164,304,162665,5,0,0:0:0:0:
300,196,162890,1,0,0:0:0:0:
60,176,163116,1,0,0:0:0:0:
284,328,163341,2,0,L|432:320,1,119.999996337891
492,320,163792,1,0,0:0:0:0:
324,128,164018,1,0,0:0:0:0:
324,236,164243,1,0,0:0:0:0:
456,72,164469,5,0,0:0:0:0:
284,56,164695,1,0,0:0:0:0:
284,56,164920,1,0,0:0:0:0:
468,184,165146,5,0,0:0:0:0:
196,144,165371,1,0,0:0:0:0:
384,24,165597,1,0,0:0:0:0:
328,276,165822,1,0,0:0:0:0:
320,316,165935,1,0,0:0:0:0:
276,352,166048,1,0,0:0:0:0:
216,360,166161,1,0,0:0:0:0:
176,332,166274,6,0,L|192:192,1,119.999996337891
204,80,166725,1,0,0:0:0:0:
352,204,166950,1,0,0:0:0:0:
76,180,167176,1,0,0:0:0:0:
348,80,167401,1,0,0:0:0:0:
368,304,167627,2,0,L|216:288,1,119.999996337891
56,96,168078,6,0,L|208:92,1,119.999996337891
344,80,168529,1,0,0:0:0:0:
72,224,168755,2,0,L|191:209,1,119.999996337891
408,188,169206,1,0,0:0:0:0:
208,92,169431,1,0,0:0:0:0:
260,316,169657,1,0,0:0:0:0:
260,316,169770,1,0,0:0:0:0:
260,316,169883,5,0,0:0:0:0:
332,104,170108,1,0,0:0:0:0:
332,104,170334,1,0,0:0:0:0:
336,344,170559,5,0,0:0:0:0:
248,144,170785,1,0,0:0:0:0:
248,144,171010,1,0,0:0:0:0:
448,216,171236,1,0,0:0:0:0:
80,272,171462,1,0,0:0:0:0:
80,272,171574,1,0,0:0:0:0:
80,272,171687,6,0,P|72:184|76:128,1,119.999996337891
76,52,172138,1,0,0:0:0:0:
188,292,172364,2,0,P|160:200|176:144,1,119.999996337891
176,124,172702,1,0,0:0:0:0:
176,124,172815,1,0,0:0:0:0:
400,224,173040,1,0,0:0:0:0:
172,40,173266,1,0,0:0:0:0:
112,352,173492,5,0,0:0:0:0:
204,168,173717,1,0,0:0:0:0:
204,168,173943,1,0,0:0:0:0:
72,324,174168,5,0,0:0:0:0:
116,148,174394,1,0,0:0:0:0:
116,148,174619,1,0,0:0:0:0:
312,288,174845,1,0,0:0:0:0:
56,248,175071,1,0,0:0:0:0:
304,64,175296,5,0,0:0:0:0:
260,216,175522,1,0,0:0:0:0:
260,216,175747,1,0,0:0:0:0:
432,96,175973,5,0,0:0:0:0:
404,296,176198,1,0,0:0:0:0:
212,132,176424,5,0,0:0:0:0:
476,208,176649,1,0,0:0:0:0:
192,316,176875,1,0,0:0:0:0:
192,316,176988,1,0,0:0:0:0:
192,316,177101,6,0,P|120:260|120:156,1,179.999994506836
124,128,177552,2,0,L|196:84,1,59.9999981689454
308,36,177777,5,0,0:0:0:0:
416,156,178003,1,0,0:0:0:0:
200,212,178228,1,0,0:0:0:0:
448,48,178454,5,0,0:0:0:0:
256,192,178680,12,0,180710,0:0:0:0:
