osu file format v14

[General]
AudioFilename: audio.mp3
AudioLeadIn: 0
PreviewTime: 140510
Countdown: 0
SampleSet: Normal
StackLeniency: 0.7
Mode: 0
LetterboxInBreaks: 0
WidescreenStoryboard: 0

[Editor]
Bookmarks: 91,15574,40349,52736,77510,89897,102284,114671,127058,140607,165381,177768,184736,202542,214929
DistanceSpacing: 0.4
BeatDivisor: 4
GridSize: 32
TimelineZoom: 2

[Metadata]
Title:EdJean - Alien Invasion (Aeolus Remix)
TitleUnicode:EdJean - Alien Invasion (Aeolus Remix)
Artist:EdJean & Aeolus
ArtistUnicode:EdJean & Aeolus
Creator:_MiaoFUuU_
Version:Sagittarius A
Source:
Tags:UFO attack universe war Space ship 51 Area planet galaxy earth Meteorite Human science and technology lastday destroy handsome muscle
BeatmapID:1244947
BeatmapSetID:587985

[Difficulty]
HPDrainRate:6
CircleSize:3.7
OverallDifficulty:7.5
ApproachRate:9.1
SliderMultiplier:3
SliderTickRate:1

[Events]
//Background and Video events
0,0,"BG.jpg",0,0
//Break Periods
//Storyboard Layer 0 (Background)
//Storyboard Layer 1 (Fail)
//Storyboard Layer 2 (Pass)
//Storyboard Layer 3 (Foreground)
//Storyboard Sound Samples

[TimingPoints]
91,387.096774193548,4,1,2,50,1,0
15090,-100,4,1,2,35,0,0
15574,-90.9090909090909,4,1,2,65,0,0
21381,-90.9090909090909,4,1,2,65,0,0
27961,-100,4,1,2,65,0,0
40349,-133.333333333333,4,1,3,50,0,0
41510,-66.6666666666667,4,1,3,50,0,0
41897,-133.333333333333,4,1,3,50,0,0
43058,-66.6666666666667,4,1,3,50,0,0
43445,-133.333333333333,4,1,3,50,0,0
44607,-66.6666666666667,4,1,3,50,0,0
44994,-133.333333333333,4,1,3,50,0,0
48090,-133.333333333333,4,1,3,55,0,0
49639,-133.333333333333,4,1,3,60,0,0
50413,-111.111111111111,4,1,3,60,0,0
51187,-95.2380952380952,4,1,3,60,0,0
51961,-83.3333333333333,4,1,3,60,0,0
52349,-76.9230769230769,4,1,3,60,0,0
52736,-133.333333333333,4,1,4,100,0,1
53413,-80,4,1,3,60,0,0
53510,-80,4,1,3,80,0,0
55832,-133.333333333333,4,1,4,100,0,1
56510,-133.333333333333,4,1,3,80,0,0
58929,-133.333333333333,4,1,4,100,0,1
59607,-133.333333333333,4,1,2,60,0,1
59703,-80,4,1,3,80,0,0
62026,-133.333333333333,4,1,3,80,0,0
65123,-133.333333333333,4,1,4,100,0,1
65897,-80,4,1,3,80,0,0
66671,-100,4,1,2,80,0,0
67058,-100,4,1,3,80,0,0
69768,-133.333333333333,4,1,2,80,0,0
71316,-133.333333333333,4,1,4,100,0,1
71994,-133.333333333333,4,1,2,60,0,1
72090,-80,4,1,3,80,0,0
72865,-100,4,1,3,80,0,0
77510,-111.111111111111,4,1,3,70,0,0
89897,-100,4,1,3,75,0,0
102284,-100,4,1,3,40,0,0
107703,-66.6666666666667,4,1,2,20,0,0
107897,-66.6666666666667,4,1,3,5,0,0
108478,-100,4,1,3,20,0,0
113897,-66.6666666666667,4,1,2,20,0,0
114090,-66.6666666666667,4,1,3,5,0,0
114671,-100,4,1,2,65,0,0
120090,-80,4,1,2,40,0,0
120284,-100,4,1,2,65,0,0
126284,-80,4,1,2,40,0,0
126671,-133.333333333333,4,1,2,65,0,0
127058,-133.333333333333,4,1,3,65,0,0
128220,-66.6666666666667,4,1,3,65,0,0
128607,-133.333333333333,4,1,3,65,0,0
129381,-66.6666666666667,4,1,3,65,0,0
130155,-133.333333333333,4,1,3,65,0,0
131316,-66.6666666666667,4,1,3,65,0,0
131703,-100,4,1,3,65,0,0
132478,-66.6666666666667,4,1,3,65,0,0
132768,-100,4,1,3,65,0,0
136349,-133.333333333333,4,1,3,65,0,0
137123,-111.111111111111,4,1,3,65,0,0
137897,-95.2380952380952,4,1,3,65,0,0
138671,-83.3333333333333,4,1,3,65,0,0
139058,-76.9230769230769,4,1,3,65,0,0
139445,-76.9230769230769,4,1,3,20,0,0
140607,387.096774193548,4,1,4,100,1,1
140607,-90.9090909090909,4,1,4,100,0,1
140897,-90.9090909090909,4,1,4,5,0,1
140994,-71.4285714285714,4,1,3,90,0,1
141381,-133.333333333333,4,1,3,90,0,1
141768,-100,4,1,3,90,0,1
142155,-80,4,1,3,90,0,1
142542,-66.6666666666667,4,1,3,90,0,1
142929,-57.1428571428571,4,1,3,90,0,1
143316,-50,4,1,3,90,0,1
143703,-90.9090909090909,4,1,4,100,0,1
143994,-90.9090909090909,4,1,4,5,0,1
144090,-71.4285714285714,4,1,3,90,0,1
144477,-133.333333333333,4,1,3,90,0,1
144865,-100,4,1,3,90,0,1
145252,-80,4,1,3,90,0,1
145639,-66.6666666666667,4,1,3,90,0,1
146026,-57.1428571428571,4,1,3,90,0,1
146413,-50,4,1,3,90,0,1
146607,-100,4,1,3,90,0,1
146800,-90.9090909090909,4,1,4,100,0,1
147090,-90.9090909090909,4,1,4,5,0,1
147187,-71.4285714285714,4,1,3,90,0,1
147574,-133.333333333333,4,1,3,90,0,1
147961,-100,4,1,3,90,0,1
148348,-80,4,1,3,90,0,1
148736,-66.6666666666667,4,1,3,90,0,1
149123,-57.1428571428571,4,1,3,90,0,1
149510,-50,4,1,3,90,0,1
149897,-90.9090909090909,4,1,3,90,0,1
150284,-133.333333333333,4,1,3,90,0,1
150671,-100,4,1,3,90,0,1
151058,-80,4,1,3,90,0,1
151445,-90.9090909090909,4,1,3,90,0,1
151832,-71.4285714285714,4,1,3,90,0,1
152219,-133.333333333333,4,1,3,90,0,1
152607,-100,4,1,3,90,0,1
152994,-90.9090909090909,4,1,3,90,0,1
153381,-71.4285714285714,4,1,3,90,0,1
153768,-133.333333333333,4,1,3,90,0,1
154155,-100,4,1,3,90,0,1
154542,-90.9090909090909,4,1,3,90,0,1
154929,-71.4285714285714,4,1,3,90,0,1
155316,-133.333333333333,4,1,3,90,0,1
155703,-100,4,1,3,90,0,1
156090,-90.9090909090909,4,1,3,90,0,1
156477,-71.4285714285714,4,1,3,90,0,1
156865,-133.333333333333,4,1,3,90,0,1
157252,-100,4,1,3,90,0,1
157639,-100,4,1,3,90,0,1
158026,-100,4,1,3,90,0,1
158413,-100,4,1,3,90,0,1
158800,-80,4,1,3,90,0,1
159187,-90.9090909090909,4,1,4,100,0,1
159477,-90.9090909090909,4,1,4,5,0,1
159574,-71.4285714285714,4,1,3,90,0,1
159961,-133.333333333333,4,1,3,90,0,1
160348,-100,4,1,3,90,0,1
160736,-80,4,1,3,90,0,1
161123,-66.6666666666667,4,1,3,90,0,1
161510,-57.1428571428571,4,1,3,90,0,1
161897,-50,4,1,3,90,0,1
162284,-90.9090909090909,4,1,3,90,0,1
162671,-71.4285714285714,4,1,3,90,0,1
163058,-133.333333333333,4,1,3,90,0,1
163445,-100,4,1,3,90,0,1
163832,-133.333333333333,4,1,3,90,0,1
164219,-100,4,1,3,90,0,1
164606,-100,4,1,3,90,0,1
164994,-80,4,1,3,90,0,1
165381,-100,4,1,3,75,0,0
171187,-133.333333333333,4,1,3,75,0,0
171574,-100,4,1,3,75,0,0
172736,-133.333333333333,4,1,3,75,0,0
173123,-100,4,1,3,75,0,0
174284,-133.333333333333,4,1,3,75,0,0
174671,-100,4,1,3,75,0,0
175832,-133.333333333333,4,1,3,75,0,0
176219,-100,4,1,3,75,0,0
176606,-133.333333333333,4,1,3,75,0,0
176800,-100,4,1,3,75,0,0
177381,-133.333333333333,4,1,3,75,0,0
177768,-80,4,1,4,100,0,1
178155,-71.4285714285714,4,1,3,90,0,1
178542,-133.333333333333,4,1,3,90,0,1
179316,-100,4,1,3,90,0,1
180090,-80,4,1,3,90,0,1
180865,-80,4,1,4,100,0,1
181252,-100,4,1,3,90,0,1
181639,-100,4,1,3,90,0,0
183961,-80,4,1,4,100,0,1
184348,-71.4285714285714,4,1,3,90,0,1
184736,-133.333333333333,4,1,3,90,0,1
185510,-100,4,1,3,90,0,1
186284,-80,4,1,3,90,0,1
187058,-100,4,1,3,90,0,0
190155,-133.333333333333,4,1,4,100,0,1
190832,-133.333333333333,4,1,4,60,0,1
190929,-80,4,1,3,90,0,0
191703,-100,4,1,3,90,0,0
194800,-133.333333333333,4,1,3,90,0,0
196348,-133.333333333333,4,1,4,100,0,1
197026,-133.333333333333,4,1,4,60,0,1
197123,-80,4,1,3,90,0,0
197897,-100,4,1,3,90,0,0
202542,-133.333333333333,4,1,3,70,0,0
214929,-200,4,1,3,70,0,0

[Colours]
Combo1 : 255,128,0
Combo2 : 128,128,128
Combo3 : 150,45,255
Combo4 : 0,128,192
Combo5 : 128,0,0

[HitObjects]
262,199,1542,6,0,B|338:203,2,75
87,187,2703,2,0,B|165:192,2,75
252,279,3188,6,0,L|234:85,1,150,2|0,0:0|0:0,0:0:0:0:
239,130,3478,1,0,0:0:0:0:
239,130,3574,1,0,0:0:0:0:
117,272,3768,1,0,0:0:0:0:
382,107,3961,6,0,B|355:68|355:68|332:184,1,150,8|0,0:0|0:0,0:0:0:0:
337,249,4349,1,0,0:0:0:0:
327,0,4542,1,0,0:0:0:0:
422,219,4736,6,0,B|465:249|465:249|453:152,1,150,2|0,0:0|0:0,0:0:0:0:
460,67,5026,1,0,0:0:0:0:
460,67,5123,1,0,0:0:0:0:
211,206,5316,1,2,0:0:0:0:
211,206,5413,1,2,0:0:0:0:
211,206,5510,2,0,B|237:196|265:196|265:196|296:167|296:167|324:169|347:159,1,150,8|0,0:0|0:0,0:0:0:0:
337,249,5800,6,0,L|324:335,1,75
225,110,5994,2,0,L|233:32,2,75
101,192,6284,6,0,B|138:167|138:167|111:272,1,150,2|0,0:0|0:0,0:0:0:0:
25,264,6574,1,0,0:0:0:0:
25,264,6671,1,0,0:0:0:0:
217,273,6865,1,0,0:0:0:0:
149,14,7058,6,0,B|106:-7|106:-7|134:109,1,150,8|0,0:0|0:0,0:0:0:0:
234,70,7445,1,0,0:0:0:0:
10,112,7639,1,0,0:0:0:0:
181,232,7832,5,0,0:0:0:0:
181,232,7929,1,0,0:0:0:0:
181,232,8026,1,0,0:0:0:0:
181,232,8123,1,0,0:0:0:0:
181,232,8220,2,0,P|247:263|318:225,1,150,2|0,0:0|0:0,0:0:0:0:
341,142,8510,5,0,0:0:0:0:
341,142,8607,2,0,B|401:155|401:155|417:263|417:263|372:297,1,225,8|0,0:0|0:0,0:0:0:0:
246,174,8994,2,0,P|215:153|178:146,1,75
84,224,9187,2,0,P|52:243|14:246,1,75
156,87,9381,6,0,B|182:78|202:55|202:55|175:155,1,150,2|0,0:0|0:0,0:0:0:0:
181,232,9671,1,0,0:0:0:0:
181,232,9768,1,0,0:0:0:0:
133,4,9961,1,0,0:0:0:0:
84,224,10155,6,0,B|54:256|54:256|26:153,1,150,8|0,0:0|0:0,0:0:0:0:
0,74,10445,1,0,0:0:0:0:
0,74,10542,2,0,B|36:59|36:59|72:65,1,75
156,87,10736,2,0,B|192:93|192:93|228:78,1,75
343,26,10929,6,0,B|383:2|383:2|378:124|378:124,1,150,2|0,0:0|0:0,0:0:0:0:
300,91,11220,2,0,L|313:200,1,75
351,319,11510,1,2,0:0:0:0:
351,319,11607,1,2,0:0:0:0:
351,319,11703,2,0,L|335:165,1,150,8|0,0:0|0:0,0:0:0:0:
335,169,11994,6,0,P|298:165|262:155,1,75
190,92,12187,2,0,P|188:134|182:174,2,75
64,148,12478,6,0,B|112:119|112:119|98:227,1,150,2|0,0:0|0:0,0:0:0:0:
18,255,12768,1,0,0:0:0:0:
18,255,12865,1,0,0:0:0:0:
18,255,12961,2,0,B|68:246|68:246|109:275|109:275|157:268,1,150
190,264,13252,6,0,L|203:341,2,75,8|0|0,0:0|0:0|0:0,0:0:0:0:
170,180,13639,2,0,P|207:178|241:195,1,75
319,224,13832,2,0,P|356:224|389:208,2,75
440,140,14123,2,0,P|477:140|511:155,2,75
503,286,14413,6,0,B|465:321|465:321|459:173,1,150,2|0,0:0|0:0,0:0:0:0:
336,137,14703,1,0,0:0:0:0:
336,137,14800,2,0,L|365:311,1,150,8|0,0:0|0:0,0:0:0:0:
360,284,15090,1,0,0:0:0:0:
360,284,15187,1,0,0:0:0:0:
60,179,15574,6,0,B|39:196|39:196|151:216|151:216|139:192,1,165.000005035401,2|0,0:0|0:0,0:0:0:0:
195,130,15865,2,0,P|158:111|112:115,1,82.5000025177003
386,206,16155,2,0,P|345:208|306:193,1,82.5000025177003
281,98,16349,6,0,B|384:71|384:71|351:140,1,165.000005035401,8|0,0:0|0:0,0:0:0:0:
213,215,16639,1,0,0:0:0:0:
213,215,16736,2,0,B|112:246|112:246|144:186,1,165.000005035401,0|2,0:0|0:0,0:0:0:0:
441,282,17123,5,2,0:0:0:0:
313,344,17316,2,0,L|302:263,1,82.5000025177003
291,181,17510,2,0,L|280:100,1,82.5000025177003
270,18,17703,1,2,0:0:0:0:
139,192,17897,5,8,0:0:0:0:
270,18,18090,2,0,L|281:99,1,82.5000025177003
291,181,18284,2,0,L|302:262,1,82.5000025177003
313,344,18478,1,0,0:0:0:0:
22,302,18671,5,2,0:0:0:0:
142,61,18865,1,2,0:0:0:0:
159,201,19058,5,2,0:0:0:0:
159,201,19155,1,0,0:0:0:0:
158,201,19252,2,0,P|116:203|76:188,1,82.5000025177003
251,137,19445,2,0,P|292:134|333:150,1,82.5000025177003,8|0,0:0|0:0,0:0:0:0:
278,233,19639,5,0,0:0:0:0:
278,233,19736,2,0,B|301:70|301:70|333:157,1,247.500007553101
359,264,20220,6,0,B|301:256|301:256|257:295|257:295|209:290,1,165.000005035401
128,299,20510,1,0,0:0:0:0:
128,299,20607,1,2,0:0:0:0:
40,138,20800,1,0,0:0:0:0:
40,138,20897,1,0,0:0:0:0:
40,138,20994,2,0,B|119:163|119:163|182:104,1,165.000005035401,8|0,0:0|0:0,0:0:0:0:
94,34,21381,5,8,0:0:0:0:
131,29,21478,1,8,0:0:0:0:
168,24,21575,1,8,0:0:0:0:
206,19,21671,1,8,0:0:0:0:
242,16,21768,6,0,B|249:74|249:74|264:92|264:92|255:115|255:115|260:173,1,165.000005035401,2|0,0:0|0:0,0:0:0:0:
269,262,22058,1,0,0:0:0:0:
269,262,22155,1,0,0:0:0:0:
370,136,22349,6,0,P|362:176|357:217,1,82.5000025177003
222,335,22542,2,0,B|255:375|255:375|270:262,1,165.000005035401,8|0,0:0|0:0,0:0:0:0:
179,221,22832,1,0,0:0:0:0:
179,221,22929,2,0,B|97:204|97:204|39:262,1,165.000005035401,0|2,0:0|0:0,0:0:0:0:
29,44,23316,6,0,B|-18:19|-18:19|0:129,1,165.000005035401,2|0,0:0|0:0,0:0:0:0:
98,204,23607,1,0,0:0:0:0:
98,204,23703,2,0,L|82:109,1,82.5000025177003
325,111,23897,5,2,0:0:0:0:
325,111,23994,1,2,0:0:0:0:
325,111,24090,2,0,B|263:121|263:121|227:157|227:157|176:167,1,165.000005035401,8|0,0:0|0:0,0:0:0:0:
313,208,24381,1,0,0:0:0:0:
313,208,24478,2,0,L|301:304,2,82.5000025177003
340,15,24865,5,2,0:0:0:0:
109,49,25058,1,2,0:0:0:0:
239,1,25252,5,2,0:0:0:0:
239,1,25349,1,0,0:0:0:0:
239,1,25445,2,0,P|244:41|235:81,1,82.5000025177003
209,239,25639,2,0,P|202:198|213:159,1,82.5000025177003,8|0,0:0|0:0,0:0:0:0:
414,92,25832,5,0,0:0:0:0:
414,92,25929,2,0,B|358:38|358:38|380:227,1,247.500007553101
310,285,26413,6,0,B|381:248|381:248|462:272,1,165.000005035401
389,357,26703,1,0,0:0:0:0:
389,357,26800,1,2,0:0:0:0:
327,155,26994,1,0,0:0:0:0:
327,155,27090,1,0,0:0:0:0:
327,155,27187,2,0,B|361:104|361:104|382:235,1,165.000005035401,8|0,0:0|0:0,0:0:0:0:
338,326,27574,5,8,0:0:0:0:
300,331,27670,1,8,0:0:0:0:
263,336,27767,1,8,0:0:0:0:
226,341,27864,1,8,0:0:0:0:
188,347,27961,6,0,B|130:300|130:300|192:257,1,150,2|0,0:0|0:0,0:0:0:0:
186,52,28349,1,8,0:0:0:0:
186,52,28445,1,0,0:0:0:0:
186,52,28542,1,0,0:0:0:0:
265,181,28736,6,0,B|236:150|196:153|196:153|236:150|263:115,1,150,2|0,0:0|0:0,0:0:0:0:
73,155,29123,1,8,0:0:0:0:
73,155,29220,1,0,0:0:0:0:
73,155,29316,1,0,0:0:0:0:
342,84,29510,6,0,L|356:253,1,150,2|0,0:0|0:0,0:0:0:0:
333,0,29897,1,8,0:0:0:0:
450,171,30090,6,0,B|483:100|483:100|420:63,1,150,0|2,0:0|0:0,0:0:0:0:
213,170,30478,1,0,0:0:0:0:
421,63,30671,6,0,B|463:44|463:44|497:99|497:99|496:167|496:167|451:171,1,225,8|0,0:0|0:0,0:0:0:0:
353,144,31058,6,0,B|311:151|311:151|280:142|280:142|258:162|258:162|213:171,1,150,2|0,0:0|0:0,0:0:0:0:
151,248,31445,6,0,B|102:219|102:219|111:106|111:106|162:85,1,225,8|0,0:0|0:0,0:0:0:0:
213,171,31832,6,0,B|255:164|255:164|286:173|286:173|308:153|308:153|353:144,1,150,2|0,0:0|0:0,0:0:0:0:
250,11,32220,1,8,0:0:0:0:
250,11,32316,1,0,0:0:0:0:
250,11,32413,1,0,0:0:0:0:
483,124,32607,6,0,B|421:168|421:168|351:143,1,150,2|0,0:0|0:0,0:0:0:0:
118,199,32994,1,8,0:0:0:0:
351,143,33187,6,0,B|281:112|281:112|217:149,1,150,0|2,0:0|0:0,0:0:0:0:
273,351,33574,1,0,0:0:0:0:
70,132,33768,6,0,B|58:111|37:101|37:101|101:83|101:83|168:86|168:86|149:101|141:121,1,225,8|0,0:0|0:0,0:0:0:0:
208,299,34155,6,0,B|218:138,1,150,2|0,0:0|0:0,0:0:0:0:
359,204,34542,6,0,B|371:183|392:173|392:173|328:155|328:155|261:158|261:158|280:173|288:193,1,225,8|0,0:0|0:0,0:0:0:0:
204,374,34929,2,0,L|214:213,1,150,2|0,0:0|0:0,0:0:0:0:
16,274,35316,1,8,0:0:0:0:
16,274,35413,1,0,0:0:0:0:
16,274,35510,1,0,0:0:0:0:
41,76,35703,6,0,B|58:28|58:28|91:64|91:64|96:114,1,150,2|0,0:0|0:0,0:0:0:0:
103,269,36090,1,8,0:0:0:0:
316,26,36284,6,0,B|284:-13|284:-13|264:31|264:31|273:80,1,150
293,264,36671,1,0,0:0:0:0:
96,115,36865,6,0,B|115:72|115:72|184:78|184:78|239:50|239:50|273:81,1,225,8|0,0:0|0:0,0:0:0:0:
245,170,37252,6,0,B|285:176|320:158|320:158|350:142|390:147,1,150,2|0,0:0|0:0,0:0:0:0:
293,264,37639,6,0,B|293:310|293:310|355:334|355:334|391:280|391:280|367:241,1,225,8|0,0:0|0:0,0:0:0:0:
390,147,38026,2,0,B|209:177,1,150
103,191,38413,1,8,0:0:0:0:
103,191,38510,1,0,0:0:0:0:
103,191,38607,1,0,0:0:0:0:
157,384,38800,6,0,L|179:235,1,150,2|0,0:0|0:0,0:0:0:0:
268,282,39187,1,8,0:0:0:0:
77,338,39381,6,0,L|102:188,1,150,0|2,0:0|0:0,0:0:0:0:
313,211,39768,1,0,0:0:0:0:
344,95,39961,6,0,B|270:101|270:101|215:156|215:156|141:162,1,225,8|0,0:0|0:0,0:0:0:0:
65,224,40349,6,0,L|53:97,1,112.500004291535,10|0,0:1|0:0,0:0:0:0:
40,0,40639,1,0,0:0:0:0:
40,0,40736,2,0,L|57:139,1,112.500004291535,2|0,0:1|0:0,0:0:0:0:
248,179,41123,5,6,0:0:0:0:
156,34,41316,1,0,0:0:0:0:
156,34,41413,1,0,0:0:0:0:
156,34,41510,2,0,B|195:29|195:29|182:68|187:108|187:108|164:131|151:166|151:166|128:137,1,225.000008583069,2|8,0:0|0:0,0:0:0:0:
461,144,41897,6,0,B|409:168|409:168|354:161,1,112.500004291535,10|0,0:0|0:0,0:0:0:0:
248,179,42187,1,0,0:0:0:0:
248,179,42284,2,0,B|300:155|300:155|354:161,1,112.500004291535,2|8,0:0|0:0,0:0:0:0:
128,137,42671,5,10,0:0:0:0:
88,328,42865,1,0,0:0:0:0:
88,328,42961,1,0,0:0:0:0:
88,328,43058,2,0,B|35:344|35:344|50:224|50:224|93:245,1,225.000008583069,2|0,0:0|0:0,0:0:0:0:
269,292,43445,5,10,0:0:0:0:
253,59,43639,1,8,0:0:0:0:
269,292,43832,2,0,P|216:308|163:290,1,112.500004291535,10|0,0:0|0:0,0:0:0:0:
373,135,44220,5,6,0:0:0:0:
493,324,44413,1,0,0:0:0:0:
493,324,44510,1,0,0:0:0:0:
493,324,44607,2,0,B|469:308|457:282|457:282|402:306|402:306|350:299|350:299|349:327|331:349,1,225.000008583069,2|0,0:0|0:0,0:0:0:0:
224,15,44994,6,0,P|199:64|215:117,1,112.500004291535,2|0,0:0|0:0,0:0:0:0:
206,219,45284,1,0,0:0:0:0:
206,219,45381,2,0,P|230:169|214:116,1,112.500004291535,10|0,0:0|0:0,0:0:0:0:
106,164,45768,6,0,L|37:172,2,56.2500021457673,6|0|0,0:0|0:0|0:0,0:0:0:0:
468,127,46155,2,0,L|466:98,1,28.1250010728836,10|0,0:0|0:0,0:0:0:0:
471,130,46252,2,0,L|474:102,1,28.1250010728836,8|0,0:0|0:0,0:0:0:0:
474,133,46349,2,0,L|481:106,1,28.1250010728836,8|0,0:0|0:0,0:0:0:0:
477,136,46445,2,0,L|489:110,1,28.1250010728836,8|0,0:0|0:0,0:0:0:0:
480,139,46542,5,10,0:0:0:0:
393,134,46929,1,2,0:0:0:0:
214,116,47316,1,10,0:0:0:0:
303,126,47703,1,2,0:0:0:0:
483,240,48090,5,10,0:0:0:0:
396,245,48477,1,2,0:0:0:0:
217,263,48864,1,10,0:0:0:0:
306,253,49251,1,2,0:0:0:0:
483,142,49639,6,0,L|406:135,1,56.2500021457673,10|0,0:0|0:0,0:0:0:0:
285,124,49832,2,0,L|296:68,1,56.2500021457673,2|0,0:0|0:0,0:0:0:0:
483,240,50026,6,0,L|427:249,1,56.2500021457673,10|0,0:0|0:0,0:0:0:0:
282,265,50220,2,0,L|290:321,1,56.2500021457673,2|0,0:0|0:0,0:0:0:0:
426,136,50413,6,0,L|335:127,1,67.4999979400635,10|0,0:0|0:0,0:0:0:0:
198,109,50607,2,0,L|215:9,1,67.4999979400635,2|0,0:0|0:0,0:0:0:0:
427,248,50800,6,0,L|336:257,1,67.4999979400635,10|0,0:0|0:0,0:0:0:0:
193,270,50994,2,0,L|210:370,1,67.4999979400635,2|0,0:0|0:0,0:0:0:0:
358,129,51187,6,0,L|262:116,1,78.7499975967408,10|0,0:0|0:0,0:0:0:0:
106,97,51381,2,0,L|125:-11,1,78.7499975967408,2|0,0:0|0:0,0:0:0:0:
359,254,51574,6,0,L|251:265,1,78.7499975967408,2|0,0:0|0:0,0:0:0:0:
100,280,51768,2,0,L|116:385,1,78.7499975967408,2|0,0:0|0:0,0:0:0:0:
221,190,51961,6,0,L|102:193,1,89.9999972534181,2|0,0:0|0:0,0:0:0:0:
0,177,52155,1,8,0:0:0:0:
0,177,52252,1,8,0:0:0:0:
0,177,52349,2,0,B|105:163|105:163|154:217|154:217|266:202,1,292.499986610413,4|0,0:0|0:0,0:0:0:0:
455,166,52736,6,0,B|478:129|509:114|509:114|464:73|398:71|398:71|329:72|291:114|291:114|329:128|349:163,1,393.750015020371,6|0,0:0|0:0,0:0:0:0:
357,343,53510,6,0,B|398:356|398:356|445:340,1,93.75,6|0,0:0|0:0,0:0:0:0:
445,241,53703,2,0,B|398:225|398:225|347:242,1,93.75,2|0,0:0|0:0,0:0:0:0:
272,333,53897,6,0,B|257:291|257:291|275:246,1,93.75,2|0,0:0|0:0,0:0:0:0:
271,152,54090,2,0,B|289:107|289:107|274:65,1,93.75,2|0,0:0|0:0,0:0:0:0:
41,266,54284,5,10,0:0:0:0:
41,266,54381,1,0,0:0:0:0:
41,266,54478,2,0,L|146:283,1,93.75,2|0,0:0|0:0,0:0:0:0:
167,75,54671,6,0,P|186:116|178:162,1,93.75,2|0,0:0|0:0,0:0:0:0:
133,281,54865,2,0,P|126:326|148:367,1,93.75,2|0,0:0|0:0,0:0:0:0:
271,152,55058,6,0,L|150:165,1,93.75,6|0,0:0|0:0,0:0:0:0:
0,183,55252,2,0,L|96:172,1,93.75,2|0,0:0|0:0,0:0:0:0:
246,238,55445,6,0,B|339:251,1,93.75,2|0,0:0|0:0,0:0:0:0:
244,68,55639,2,0,B|336:50,1,93.75,2|0,0:0|0:0,0:0:0:0:
493,147,55832,6,0,B|494:106|522:77|522:77|405:47|405:47|305:114|305:114|341:132|356:166,1,393.750015020371,6|0,0:0|0:0,0:0:0:0:
227,251,56607,6,0,B|197:215|217:165|263:157|303:174|312:229|269:277|269:277|223:329|230:362|269:385|308:358|300:319,1,393.750015020371,4|0,0:0|0:0,0:0:0:0:
60,383,57381,6,0,B|24:348|24:348|18:298|18:298|48:266|57:215|57:215|93:251|140:260|140:260|165:304|165:304|157:357,1,393.750015020371,8|0,0:0|0:0,0:0:0:0:
167,161,58155,6,0,B|122:161|122:161|181:204|256:164|256:164|333:124|403:162|403:162|350:162,1,393.750015020371,4|0,0:0|0:0,0:0:0:0:
14,167,58929,6,0,B|-13:137|-21:97|-21:97|12:77|12:77|88:118|153:71|153:71|193:81|193:81|190:124|167:160,1,393.750015020371,6|0,0:0|0:0,0:0:0:0:
104,236,59703,6,0,P|148:257|196:253,1,93.75,6|0,0:0|0:0,0:0:0:0:
291,73,59897,2,0,P|335:56|381:61,1,93.75,2|0,0:0|0:0,0:0:0:0:
332,254,60090,6,0,L|347:157,1,93.75,2|0,0:0|0:0,0:0:0:0:
380,60,60284,2,0,P|341:34|295:31,1,93.75,2|0,0:0|0:0,0:0:0:0:
251,158,60478,5,10,0:0:0:0:
251,158,60574,1,0,0:0:0:0:
251,158,60671,2,0,P|208:176|162:175,1,93.75,2|0,0:0|0:0,0:0:0:0:
184,0,60865,6,0,L|192:93,1,93.75,2|0,0:0|0:0,0:0:0:0:
214,255,61058,2,0,L|223:349,1,93.75,2|0,0:0|0:0,0:0:0:0:
380,60,61252,6,0,P|423:43|470:49,1,93.75,6|0,0:0|0:0,0:0:0:0:
250,159,61445,2,0,P|207:175|161:174,1,93.75,2|0,0:0|0:0,0:0:0:0:
353,235,61639,6,0,L|338:143,1,93.75,2|0,0:0|0:0,0:0:0:0:
55,208,61832,2,0,B|74:117,1,93.75,2|0,0:0|0:0,0:0:0:0:
223,347,62026,6,0,B|246:266|177:232|177:232|246:266|293:199|293:199|231:166|232:99,1,393.750015020371,8|0,0:0|0:0,0:0:0:0:
461,8,62800,6,0,B|471:82|437:136|379:171|322:163|286:131|280:86|302:43|351:27|394:59|390:104,1,393.750015020371,4|0,0:0|0:0,0:0:0:0:
96,242,63574,6,0,B|51:148|51:148|272:201|272:201|225:245,1,393.750015020371,8|0,0:0|0:0,0:0:0:0:
371,284,64349,6,0,B|302:235|302:235|254:271|254:271|200:248|147:272|147:272|98:241|98:241|32:301,1,393.750015020371,4|0,0:0|0:0,0:0:0:0:
415,172,65123,6,0,B|453:146|477:103|477:103|424:121|380:84|380:84|331:107|286:73|286:73|291:116|328:161,1,393.750015020371,6|0,0:0|0:0,0:0:0:0:
207,89,65897,6,0,P|209:135|192:178,1,93.75,2|0,0:0|0:0,0:0:0:0:
34,152,66090,2,0,P|31:106|50:63,1,93.75,2|0,0:0|0:0,0:0:0:0:
169,266,66284,6,0,L|262:254,1,93.75,2|0,0:0|0:0,0:0:0:0:
264,5,66478,2,0,L|133:-3,1,93.75,10|0,0:1|0:0,0:0:0:0:
119,120,66671,6,0,B|197:103|197:103|252:133|252:133|333:115,1,225,2|0,0:0|0:0,0:0:0:0:
342,40,67058,6,0,L|332:115,1,75,2|0,0:0|0:0,0:0:0:0:
60,199,67252,1,8,0:0:0:0:
60,199,67349,1,8,0:0:0:0:
60,199,67445,6,0,B|1:169|1:169|7:66|7:66|79:37,1,225,4|0,0:0|0:0,0:0:0:0:
119,120,67832,2,0,B|169:89|226:118|226:118|283:146|333:114,1,225,2|0,0:0|0:0,0:0:0:0:
276,40,68220,5,8,0:0:0:0:
220,349,68413,1,8,0:0:0:0:
406,90,68607,6,0,B|465:62|465:62|418:236,1,225,10|0,0:0|0:0,0:0:0:0:
273,296,68994,2,0,B|220:350|220:350|201:201,1,225,4|0,0:0|0:0,0:0:0:0:
297,155,69381,2,0,P|203:201|124:130,1,225,2|0,0:0|0:0,0:0:0:0:
199,56,69768,6,0,B|127:11|127:11|52:49,1,168.750006437302
55,208,70155,2,0,B|130:247|130:247|202:202,1,168.750006437302,2|0,0:0|0:0,0:0:0:0:
77,23,70542,2,0,B|125:-2|125:-2|99:123,1,168.750006437302,8|0,0:0|0:0,0:0:0:0:
14,254,70929,5,8,0:0:0:0:
18,255,71026,1,8,0:0:0:0:
22,256,71123,1,8,0:0:0:0:
26,257,71220,1,8,0:0:0:0:
30,258,71316,6,0,B|35:215|-8:186|-8:186|35:215|94:222|94:222|154:223|201:201|201:201|154:223|150:268,1,393.750015020371,6|0,0:0|0:0,0:0:0:0:
326,261,72090,6,0,L|233:277,1,93.75,2|0,0:0|0:0,0:0:0:0:
200,200,72284,2,0,L|293:185,1,93.75,2|0,0:0|0:0,0:0:0:0:
313,350,72478,6,0,L|407:360,1,93.75,2|0,0:0|0:0,0:0:0:0:
299,99,72671,2,0,L|405:66,1,93.75,10|0,0:0|0:0,0:0:0:0:
460,157,72865,6,0,B|490:131|502:86|502:86|488:230,1,225,8|0,0:0|0:0,0:0:0:0:
401,283,73252,2,0,P|393:244|390:207,1,75,2|0,0:0|0:0,0:0:0:0:
292,185,73445,1,8,0:0:0:0:
292,185,73542,1,8,0:0:0:0:
292,185,73639,6,0,B|309:224|309:224|116:208|116:208|182:138,1,300,4|2,0:0|0:0,0:0:0:0:
165,151,74123,5,0,0:0:0:0:
172,140,74220,2,0,L|80:147,1,75,2|0,0:0|0:0,0:0:0:0:
41,231,74413,5,8,0:0:0:0:
255,79,74607,1,8,0:0:0:0:
40,230,74800,6,0,B|-3:197|-3:197|10:80|10:80|59:61,1,225,10|0,0:0|0:0,0:0:0:0:
97,145,75187,2,0,B|149:118|202:148|202:148|257:176|312:151,1,225,4|0,0:0|0:0,0:0:0:0:
324,71,75574,2,0,B|363:56|363:56|351:186|351:186|313:151,1,225,2|0,0:0|0:0,0:0:0:0:
446,19,75961,6,0,B|493:45|493:45|499:164|499:164|452:187,1,225
312,150,76349,2,0,B|264:160|264:160|286:37|286:37|326:73,1,225,8|0,0:0|0:0,0:0:0:0:
311,232,76736,6,0,B|249:247|249:247|216:278|216:278|169:270|169:270|103:283,1,225,4|0,0:0|0:0,0:0:0:0:
88,178,77124,5,4,0:0:0:0:
88,178,77220,1,4,0:0:0:0:
88,178,77316,2,0,L|76:74,1,75,4|4,0:0|0:0,0:0:0:0:
37,264,77510,6,0,P|98:284|157:246,1,134.999995880127,8|0,0:0|0:0,0:0:0:0:
202,158,77800,1,0,0:0:0:0:
202,158,77897,1,0,0:0:0:0:
207,384,78090,1,0,0:0:0:0:
252,244,78284,6,0,P|316:227|370:263,1,134.999995880127,4|0,0:0|0:0,0:0:0:0:
384,288,78574,1,0,0:0:0:0:
384,288,78671,2,0,L|397:174,1,67.4999979400635
405,133,78865,2,0,L|414:57,1,67.4999979400635
482,0,79058,6,0,P|517:55|500:118,1,134.999995880127,8|0,0:0|0:0,0:0:0:0:
412,65,79349,1,0,0:0:0:0:
412,65,79445,1,0,0:0:0:0:
237,5,79639,1,0,0:0:0:0:
412,65,79832,6,0,P|358:103|292:96,1,134.999995880127,4|0,0:0|0:0,0:0:0:0:
273,78,80123,1,0,0:0:0:0:
273,78,80220,2,0,L|282:169,1,67.4999979400635
287,233,80413,2,0,L|293:301,1,67.4999979400635
183,166,80607,6,0,P|125:128|56:153,1,134.999995880127,8|0,0:0|0:0,0:0:0:0:
74,245,80897,1,0,0:0:0:0:
74,245,80993,1,0,0:0:0:0:
59,51,81187,1,0,0:0:0:0:
183,166,81381,6,0,L|156:328,1,134.999995880127,4|0,0:0|0:0,0:0:0:0:
177,328,81671,1,0,0:0:0:0:
177,328,81768,2,0,L|75:321,1,67.4999979400635
270,334,81961,2,0,L|338:337,1,67.4999979400635
34,368,82155,6,0,P|22:303|62:251,1,134.999995880127,8|0,0:0|0:0,0:0:0:0:
109,323,82445,1,0,0:0:0:0:
109,323,82542,1,0,0:0:0:0:
4,163,82736,1,0,0:0:0:0:
108,323,82929,6,0,P|147:268|130:196,1,134.999995880127,4|0,0:0|0:0,0:0:0:0:
119,172,83220,1,0,0:0:0:0:
119,172,83316,2,0,L|226:149,1,67.4999979400635
252,97,83510,2,0,L|316:116,1,67.4999979400635
382,186,83703,6,0,P|321:159|260:197,1,134.999995880127,8|0,0:0|0:0,0:0:0:0:
306,31,83994,1,0,0:0:0:0:
306,31,84090,1,0,0:0:0:0:
243,276,84284,1,0,0:0:0:0:
434,114,84478,6,0,P|469:169|456:233,1,134.999995880127,4|0,0:0|0:0,0:0:0:0:
444,269,84768,1,0,0:0:0:0:
444,269,84865,2,0,L|333:253,1,67.4999979400635
243,276,85058,2,0,L|149:264,1,67.4999979400635
42,292,85252,6,0,L|29:115,1,134.999995880127,8|0,0:0|0:0,0:0:0:0:
23,76,85542,1,0,0:0:0:0:
23,76,85639,1,0,0:0:0:0:
266,79,85832,1,0,0:0:0:0:
121,77,86026,6,0,B|150:51|150:51|135:146,1,134.999995880127,4|0,0:0|0:0,0:0:0:0:
158,177,86316,1,0,0:0:0:0:
158,177,86413,2,0,P|188:188|226:192,1,67.4999979400635
265,79,86607,2,0,P|298:69|331:70,1,67.4999979400635
299,295,86800,6,0,L|307:156,1,134.999995880127,8|0,0:0|0:0,0:0:0:0:
252,0,87090,1,0,0:0:0:0:
252,0,87187,1,0,0:0:0:0:
223,191,87381,1,0,0:0:0:0:
331,70,87574,6,0,P|389:115|390:199,1,134.999995880127,4|0,0:0|0:0,0:0:0:0:
423,205,87865,1,0,0:0:0:0:
423,205,87961,2,0,L|323:182,1,67.4999979400635
421,361,88155,2,0,L|354:372,1,67.4999979400635
228,298,88349,6,0,B|294:316|294:316|350:280,1,134.999995880127,8|0,0:0|0:0,0:0:0:0:
276,169,88639,1,0,0:0:0:0:
276,169,88736,1,0,0:0:0:0:
199,384,88929,1,0,0:0:0:0:
276,169,89123,6,0,B|214:144|214:144|157:182,1,134.999995880127,4|0,0:0|0:0,0:0:0:0:
123,224,89413,1,0,0:0:0:0:
123,223,89510,2,0,P|120:192|115:156,1,67.4999979400635
100,69,89703,2,0,P|94:35|87:2,1,67.4999979400635
222,241,89897,6,0,B|293:266|293:266|358:210,1,150,8|0,0:0|0:0,0:0:0:0:
369,116,90284,1,4,0:0:0:0:
292,56,90478,1,0,0:0:0:0:
445,167,90671,6,0,L|430:316,1,150,8|0,0:0|0:0,0:0:0:0:
292,263,91058,1,4,0:0:0:0:
316,360,91252,1,0,0:0:0:0:
276,169,91445,6,0,B|209:136|209:136|149:184,1,150,8|0,0:0|0:0,0:0:0:0:
133,293,91832,1,4,0:0:0:0:
222,241,92026,1,0,0:0:0:0:
35,341,92220,6,0,B|48:259|54:193,1,150,8|0,0:0|0:0,0:0:0:0:
184,48,92607,1,4,0:0:0:0:
184,48,92800,1,0,0:0:0:0:
284,173,92994,6,0,P|215:150|150:183,1,150,8|0,0:0|0:0,0:0:0:0:
97,40,93381,1,4,0:0:0:0:
97,40,93574,1,0,0:0:0:0:
97,40,93768,6,0,B|153:38|204:15|204:15|189:34|184:49,1,150,8|0,0:0|0:0,0:0:0:0:
273,202,94155,1,4,0:0:0:0:
273,202,94349,1,0,0:0:0:0:
273,202,94542,6,0,B|329:204|380:227|380:227|365:208|360:192,1,150,8|0,0:0|0:0,0:0:0:0:
382,32,94929,1,4,0:0:0:0:
382,32,95123,1,0,0:0:0:0:
316,117,95316,6,0,B|243:100|243:100|184:148,1,150,8|0,0:0|0:0,0:0:0:0:
97,40,95703,1,4,0:0:0:0:
97,40,95897,1,0,0:0:0:0:
30,159,96090,6,0,P|7:228|37:295,1,150,8|0,0:0|0:0,0:0:0:0:
206,236,96478,1,4,0:0:0:0:
111,218,96671,1,0,0:0:0:0:
307,255,96865,6,0,B|322:105,1,150,8|0,0:0|0:0,0:0:0:0:
418,53,97252,1,4,0:0:0:0:
322,105,97445,1,0,0:0:0:0:
512,13,97639,6,0,L|495:168,1,150,8|0,0:0|0:0,0:0:0:0:
307,255,98026,1,4,0:0:0:0:
307,255,98220,1,0,0:0:0:0:
232,188,98413,6,0,B|188:243|188:243|222:315,1,150,8|0,0:0|0:0,0:0:0:0:
437,366,98800,1,4,0:0:0:0:
437,366,98994,1,0,0:0:0:0:
450,249,99187,6,0,B|412:242|412:242|380:256|380:256|344:245|344:245|306:255,1,150,8|0,0:0|0:0,0:0:0:0:
64,272,99574,1,4,0:0:0:0:
64,272,99768,1,0,0:0:0:0:
64,272,99961,6,0,B|51:258|47:232|47:232|32:283|52:337,1,150,8|0,0:0|0:0,0:0:0:0:
243,125,100349,1,4,0:0:0:0:
243,125,100542,1,0,0:0:0:0:
243,125,100736,6,0,B|256:111|259:85|259:85|274:136|254:190,1,150,8|0,0:0|0:0,0:0:0:0:
170,70,101123,1,4,0:0:0:0:
170,70,101316,1,0,0:0:0:0:
128,217,101510,6,0,B|213:162|213:162|261:194,1,150,8|0,0:0|0:0,0:0:0:0:
349,259,101897,1,4,0:0:0:0:
349,259,102090,1,0,0:0:0:0:
278,26,102284,5,2,0:0:0:0:
80,246,103445,5,2,0:0:0:0:
80,246,104026,1,2,0:0:0:0:
414,225,105381,5,2,0:0:0:0:
178,198,106929,5,8,0:0:0:0:
178,198,107703,2,0,P|253:261|265:173,1,225.000008583069,6|0,0:0|0:0,0:0:0:0:
416,137,108478,5,2,0:0:0:0:
94,106,109639,5,2,0:0:0:0:
94,106,110220,1,2,0:0:0:0:
419,58,111574,5,2,0:0:0:0:
183,185,113123,5,8,0:0:0:0:
183,185,113897,2,0,P|282:184|247:266,1,225.000008583069,6|0,0:0|0:0,0:0:0:0:
247,265,114671,6,0,L|232:115,1,150,2|0,0:0|0:0,0:0:0:0:
223,37,114961,1,0,0:0:0:0:
223,37,115058,1,0,0:0:0:0:
394,228,115252,1,0,0:0:0:0:
357,38,115445,6,0,B|430:15|430:15|483:65,1,150,8|0,0:0|0:0,0:0:0:0:
479,147,115736,1,0,0:0:0:0:
479,147,115832,2,0,L|285:112,1,150,0|2,0:0|0:0,0:0:0:0:
136,121,116220,6,0,B|170:95|170:95|145:223,1,150,2|0,0:0|0:0,0:0:0:0:
134,290,116510,1,0,0:0:0:0:
134,290,116607,1,0,0:0:0:0:
41,172,116800,5,2,0:0:0:0:
257,202,116994,2,0,B|310:198|310:198|343:229|343:229|394:226,1,150,8|0,0:0|0:0,0:0:0:0:
384,132,117284,1,0,0:0:0:0:
384,132,117381,1,0,0:0:0:0:
215,308,117574,1,0,0:0:0:0:
238,99,117768,5,2,0:0:0:0:
405,321,117961,1,2,0:0:0:0:
257,202,118155,6,0,L|243:120,2,75,2|0|0,0:0|0:0|0:0,0:0:0:0:
18,319,118542,6,0,B|80:275|80:275|143:317,1,150,8|0,0:0|0:0,0:0:0:0:
176,233,118832,1,0,0:0:0:0:
176,233,118929,1,0,0:0:0:0:
9,200,119123,1,0,0:0:0:0:
139,15,119316,6,0,L|120:100,1,75
97,203,119510,2,0,L|76:290,1,75
329,90,119703,1,2,0:0:0:0:
329,90,119800,1,0,0:0:0:0:
329,90,119897,2,0,L|437:80,1,75
184,162,120090,6,0,B|231:141|275:171|275:171|317:198|362:180,1,187.5,12|0,0:0|0:0,0:0:0:0:
454,245,120381,2,0,L|466:171,2,75
220,375,120865,6,0,B|182:309|182:309|220:245,1,150,2|0,0:0|0:0,0:0:0:0:
260,163,121155,1,0,0:0:0:0:
260,163,121252,1,0,0:0:0:0:
433,324,121445,1,0,0:0:0:0:
284,310,121639,6,0,L|433:324,1,150,8|0,0:0|0:0,0:0:0:0:
70,288,122026,1,0,0:0:0:0:
70,288,122220,1,0,0:0:0:0:
121,73,122413,5,2,0:0:0:0:
317,208,122607,1,0,0:0:0:0:
317,208,122703,1,0,0:0:0:0:
317,208,122800,1,0,0:0:0:0:
206,14,122994,5,2,0:0:0:0:
206,14,123090,1,2,0:0:0:0:
206,14,123187,2,0,B|242:77|242:77|204:144,1,150,8|0,0:0|0:0,0:0:0:0:
46,80,123574,2,0,L|180:66,2,75
355,57,123961,5,2,0:0:0:0:
120,72,124155,1,2,0:0:0:0:
355,57,124349,2,0,L|336:181,2,75,2|0|0,0:0|0:0|0:0,0:0:0:0:
169,266,124736,6,0,P|223:220|288:249,1,150,8|0,0:0|0:0,0:0:0:0:
400,242,125026,1,0,0:0:0:0:
400,242,125123,1,0,0:0:0:0:
55,273,125316,1,0,0:0:0:0:
288,248,125510,6,0,P|232:294|167:265,1,150
55,273,125800,1,0,0:0:0:0:
55,273,125897,1,2,0:0:0:0:
214,175,126090,1,0,0:0:0:0:
44,122,126284,6,0,B|88:110|129:150|129:150|169:187|215:175,1,187.5,12|0,0:0|0:0,0:0:0:0:
380,65,126671,6,0,L|382:37,1,28.1250010728836,10|0,0:0|0:0,0:0:0:0:
388,61,126768,2,0,L|385:34,1,28.1250010728836,8|0,0:0|0:0,0:0:0:0:
395,57,126865,2,0,L|388:31,1,28.1250010728836,8|0,0:0|0:0,0:0:0:0:
403,53,126961,2,0,L|391:28,1,28.1250010728836,8|0,0:0|0:0,0:0:0:0:
394,25,127058,6,0,P|406:78|385:130,1,112.500004291535,10|0,0:0|0:0,0:0:0:0:
391,235,127349,1,0,0:0:0:0:
391,235,127445,2,0,P|371:183|385:129,1,112.500004291535,2|0,0:0|0:0,0:0:0:0:
506,178,127832,5,6,0:0:0:0:
226,129,128026,1,0,0:0:0:0:
226,129,128123,1,0,0:0:0:0:
226,129,128220,2,0,B|199:93|199:93|163:229|163:229|202:219,1,225.000008583069,2|0,0:0|0:0,0:0:0:0:
310,342,128607,6,0,B|260:317|260:317|205:331,1,112.500004291535,10|0,0:0|0:0,0:0:0:0:
100,320,128897,1,0,0:0:0:0:
100,320,128994,2,0,B|150:345|150:345|204:330,1,112.500004291535,2|8,0:0|0:0,0:0:0:0:
201,219,129284,1,8,0:0:0:0:
201,219,129381,1,6,0:0:0:0:
358,157,129574,5,0,0:0:0:0:
358,157,129671,1,0,0:0:0:0:
358,157,129768,2,0,B|481:176,2,112.500004291535,2|0|0,0:0|0:0|0:0,0:0:0:0:
141,25,130155,6,0,L|153:171,1,112.500004291535,10|0,0:0|0:0,0:0:0:0:
159,249,130445,1,0,0:0:0:0:
159,249,130542,2,0,L|147:103,1,112.500004291535,2|0,0:0|0:0,0:0:0:0:
288,23,130929,5,6,0:0:0:0:
69,193,131123,1,0,0:0:0:0:
69,193,131220,1,0,0:0:0:0:
69,193,131316,2,0,B|93:142|93:142|204:134|204:134|234:182,1,225.000008583069,2|0,0:0|0:0,0:0:0:0:
385,301,131703,6,0,L|459:309,2,75,2|0|0,0:0|0:0|0:0,0:0:0:0:
293,260,131994,1,0,0:0:0:0:
293,260,132090,2,0,P|287:295|287:337,1,75,10|0,0:0|0:0,0:0:0:0:
326,62,132284,1,0,0:0:0:0:
450,171,132478,6,0,B|396:200|341:177|341:177|287:154|233:182,1,225.000008583069,6|0,0:0|0:0,0:0:0:0:
228,107,132768,1,0,0:0:0:0:
228,107,132865,2,0,P|233:145|233:181,1,75,2|0,0:0|0:0,0:0:0:0:
126,363,133252,5,10,0:0:0:0:
106,172,133445,1,0,0:0:0:0:
106,172,133542,1,0,0:0:0:0:
106,172,133639,1,2,0:0:0:0:
126,363,133832,1,0,0:0:0:0:
33,111,134026,6,0,B|-3:178|-3:178|41:237,1,150,6|0,0:0|0:0,0:0:0:0:
280,162,134413,1,2,0:0:0:0:
280,162,134607,1,0,0:0:0:0:
291,40,134800,5,10,0:0:0:0:
272,290,134994,1,0,0:0:0:0:
272,290,135090,1,0,0:0:0:0:
272,290,135187,1,2,0:0:0:0:
427,121,135381,5,8,0:0:0:0:
427,121,135478,1,8,0:0:0:0:
427,121,135574,2,0,B|469:186|469:186|421:240,1,150,6|0,0:0|0:0,0:0:0:0:
280,162,135865,1,0,0:0:0:0:
280,162,135961,2,0,L|290:60,2,75,2|0|0,0:0|0:0|0:0,0:0:0:0:
23,228,136349,6,0,L|17:172,1,56.2500021457673,10|0,0:0|0:0,0:0:0:0:
121,159,136542,2,0,L|128:214,1,56.2500021457673,2|0,0:0|0:0,0:0:0:0:
0,326,136736,6,0,L|71:331,1,56.2500021457673,10|0,0:0|0:0,0:0:0:0:
7,68,136929,2,0,L|62:59,1,56.2500021457673,2|0,0:0|0:0,0:0:0:0:
129,225,137123,6,0,L|120:156,1,67.4999979400635,6|0,0:0|0:0,0:0:0:0:
237,144,137316,2,0,L|246:211,1,67.4999979400635,2|0,0:0|0:0,0:0:0:0:
130,338,137510,6,0,L|208:347,1,67.4999979400635,10|0,0:0|0:0,0:0:0:0:
132,52,137703,2,0,L|198:42,1,67.4999979400635,2|0,0:0|0:0,0:0:0:0:
246,222,137897,6,0,L|235:133,1,78.7499975967408,10|0,0:0|0:0,0:0:0:0:
379,122,138090,2,0,L|392:236,1,78.7499975967408,2|0,0:0|0:0,0:0:0:0:
272,354,138284,6,0,L|379:366,1,78.7499975967408,10|0,0:0|0:0,0:0:0:0:
272,28,138478,2,0,L|355:14,1,78.7499975967408,2|0,0:0|0:0,0:0:0:0:
389,211,138671,6,0,L|377:110,1,89.9999972534181,6|0,0:0|0:0,0:0:0:0:
493,0,138865,1,8,0:0:0:0:
493,0,138961,1,8,0:0:0:0:
493,0,139058,2,0,L|479:219,1,194.999991073609,6|0,0:0|0:0,0:0:0:0:
480,194,139349,1,0,0:0:0:0:
480,194,139445,1,0,0:0:0:0:
78,277,140607,6,0,B|19:255|19:255|16:133|16:133|70:101,1,247.500007553101,6|0,0:0|0:0,0:0:0:0:
117,188,140994,2,0,B|169:163|215:191|215:191|261:218|318:188,1,209.999993591309,6|0,0:0|0:0,0:0:0:0:
497,98,141381,6,0,P|470:89|442:86,1,56.2500021457673
389,173,141574,1,8,0:0:0:0:
389,173,141671,1,0,0:0:0:0:
389,173,141768,6,0,P|357:185|306:186,1,75,6|0,0:0|0:0,0:0:0:0:
360,24,141961,2,0,L|339:98,1,75
289,277,142155,5,8,0:0:0:0:
289,277,142252,1,0,0:0:0:0:
289,277,142348,2,0,L|321:171,1,93.75
185,71,142542,6,0,P|229:97|234:161,1,112.500004291535,6|0,0:0|0:0,0:0:0:0:
149,205,142736,2,0,P|104:178|99:114,1,112.500004291535
71,40,142929,6,0,L|60:201,1,131.250001251698
4,324,143123,1,8,0:0:0:0:
4,324,143219,1,0,0:0:0:0:
4,324,143316,6,0,B|68:287|68:287|137:322,1,150,6|0,0:0|0:0,0:0:0:0:
149,205,143510,2,0,B|218:236|218:236|301:190,1,150
413,361,143703,6,0,B|359:310|391:247|391:247|359:310|295:311,1,247.500007553101,6|0,0:0|0:0,0:0:0:0:
282,200,144090,2,0,B|347:214|347:214|410:167|410:167|474:181,1,209.999993591309,6|0,0:0|0:0,0:0:0:0:
327,110,144477,6,0,L|318:19,1,56.2500021457673
467,86,144671,1,8,0:0:0:0:
222,277,144865,6,0,B|179:214|179:214|208:145,1,150,6|0,0:0|0:0,0:0:0:0:
196,38,145155,1,0,0:0:0:0:
196,38,145252,6,0,P|155:15|109:10,1,93.75,8|0,0:0|0:0,0:0:0:0:
29,134,145445,2,0,P|75:130|117:108,1,93.75
287,84,145639,6,0,B|323:126|323:126|305:180,1,112.500004291535,6|0,0:0|0:0,0:0:0:0:
134,204,145832,2,0,B|98:162|98:162|116:108,1,112.500004291535
193,16,146026,6,0,L|209:149,1,131.250001251698
345,300,146219,1,8,0:0:0:0:
345,300,146316,1,0,0:0:0:0:
345,300,146413,6,0,B|285:249|285:249|305:177,1,150,6|0,0:0|0:0,0:0:0:0:
398,130,146607,2,0,P|406:166|407:203,1,75
53,287,146800,6,0,B|3:252|3:252|13:126|13:126|70:104,1,247.500007553101,6|0,0:0|0:0,0:0:0:0:
304,180,147187,2,0,B|229:168|229:168|176:212|176:212|112:201,1,209.999993591309,6|0,0:0|0:0,0:0:0:0:
210,88,147574,6,0,L|197:33,1,56.2500021457673
388,81,147768,1,8,0:0:0:0:
388,81,147865,1,0,0:0:0:0:
387,81,147961,6,0,L|306:103,1,75,6|0,0:0|0:0,0:0:0:0:
194,19,148155,2,0,L|266:0,1,75
252,278,148348,5,8,0:0:0:0:
252,278,148445,1,0,0:0:0:0:
252,278,148542,2,0,L|274:398,1,93.75
209,87,148736,6,0,L|234:207,1,112.500004291535,6|0,0:0|0:0,0:0:0:0:
422,190,148929,2,0,B|372:167|372:167|320:190,1,112.500004291535
160,266,149123,6,0,B|106:300|106:300|44:274,1,131.250001251698
74,113,149316,1,8,0:0:0:0:
74,113,149413,1,0,0:0:0:0:
74,113,149510,6,0,B|111:83|111:83|97:184,1,150,6|0,0:0|0:0,0:0:0:0:
233,13,149703,2,0,B|195:-15|195:-15|208:86,1,150
283,263,149897,6,0,B|308:243|314:210|314:210|375:221|375:221|432:194|432:194|448:221|474:234,1,247.500007553101,8|0,0:0|0:0,0:0:0:0:
361,131,150284,6,0,L|351:62,1,56.2500021457673,6|0,0:0|0:0,0:0:0:0:
224,188,150477,1,0,0:0:0:0:
483,241,150671,5,0,0:0:0:0:
483,241,150768,1,0,0:0:0:0:
483,241,150865,2,0,P|480:278|478:315,1,75,8|0,0:0|0:0,0:0:0:0:
361,131,151058,6,0,P|354:82|349:34,1,93.75,6|0,0:0|0:0,0:0:0:0:
274,275,151252,1,0,0:0:0:0:
274,275,151348,1,0,0:0:0:0:
274,275,151445,6,0,P|272:342|213:258,1,247.500007553101,8|0,0:0|0:0,0:0:0:0:
377,218,151832,2,0,B|324:221|296:186|296:186|244:205|244:205|219:187|184:191,1,209.999993591309,6|0,0:0|0:0,0:0:0:0:
260,51,152219,6,0,L|248:125,1,56.2500021457673
198,266,152413,1,8,0:0:0:0:
198,266,152510,1,0,0:0:0:0:
198,265,152607,6,0,P|191:229|184:192,1,75,6|0,0:0|0:0,0:0:0:0:
153,81,152800,2,0,P|115:81|78:75,1,75
94,288,152994,6,0,P|11:234|105:207,1,247.500007553101,8|0,0:0|0:0,0:0:0:0:
198,265,153381,2,0,B|239:247|276:261|276:261|307:216|307:216|345:230|392:209,1,209.999993591309,6|0,0:0|0:0,0:0:0:0:
241,338,153768,6,0,P|271:344|300:342,1,56.2500021457673
339,134,153961,1,0,0:0:0:0:
339,134,154058,1,0,0:0:0:0:
339,134,154155,6,0,P|297:132|261:142,1,75,6|0,0:0|0:0,0:0:0:0:
171,86,154348,2,0,L|179:160,1,75
455,260,154542,6,0,B|502:282|502:282|488:134|488:134|447:172,1,247.500007553101,8|0,0:0|0:0,0:0:0:0:
247,89,154929,2,0,B|340:134|340:134|423:58,1,209.999993591309,6|0,0:0|0:0,0:0:0:0:
357,211,155316,6,0,P|358:248|355:289,1,56.2500021457673
320,11,155510,1,8,0:0:0:0:
357,211,155703,6,0,L|251:205,1,75,6|0,0:0|0:0,0:0:0:0:
138,199,155897,2,0,L|54:195,1,75
329,325,156090,6,0,B|386:378|386:378|355:205,1,247.500007553101,8|0,0:0|0:0,0:0:0:0:
248,129,156477,2,0,B|180:134|180:134|126:190|126:190|60:195,1,209.999993591309,6|0,0:0|0:0,0:0:0:0:
218,285,156865,6,0,L|231:195,1,56.2500021457673
251,40,157058,1,8,0:0:0:0:
62,194,157252,6,0,B|46:53|46:53|71:89|113:100,1,225,6|0,0:0|0:0,0:0:0:0:
248,129,157639,6,0,B|302:113|302:113|354:137|354:137|401:117|401:117|456:140,1,225,8|0,0:0|0:0,0:0:0:0:
480,20,158026,6,0,P|443:30|407:36,1,75,6|0,0:0|0:0,0:0:0:0:
298,212,158219,2,0,P|260:223|215:230,1,75
470,272,158413,5,0,0:0:0:0:
193,238,158606,1,8,0:0:0:0:
193,238,158703,1,0,0:0:0:0:
193,238,158800,2,0,B|276:195|276:195|366:227,1,187.5,6|0,0:0|0:0,0:0:0:0:
145,106,159187,6,0,B|221:60|221:60|303:112|272:199,1,247.500007553101,6|0,0:0|0:0,0:0:0:0:
184,244,159574,2,0,B|237:237|273:196|273:196|319:230|373:228,1,209.999993591309,6|0,0:0|0:0,0:0:0:0:
98,289,159961,6,0,L|102:232,1,56.2500021457673
371,148,160155,1,8,0:0:0:0:
183,243,160348,6,0,L|191:169,1,75,6|0,0:0|0:0,0:0:0:0:
377,73,160542,2,0,L|369:160,1,75
306,238,160736,5,8,0:0:0:0:
306,238,160832,1,0,0:0:0:0:
306,238,160929,2,0,P|351:226|405:234,1,93.75
301,49,161123,6,0,B|251:76|251:76|179:56,1,112.500004291535,6|0,0:0|0:0,0:0:0:0:
103,138,161316,2,0,B|53:165|53:165|0:151,1,112.500004291535
322,37,161510,6,0,B|336:100|336:100|293:151,1,131.250001251698
103,138,161703,1,8,0:0:0:0:
103,138,161800,1,0,0:0:0:0:
103,138,161897,6,0,B|71:69|71:69|113:-9,1,150,6|0,0:0|0:0,0:0:0:0:
346,49,162090,2,0,B|194:61,1,150
207,186,162284,6,0,B|271:144|271:144|239:327,1,247.500007553101,8|0,0:0|0:0,0:0:0:0:
132,320,162671,2,0,B|204:311|204:311|253:348|253:348|332:341,1,209.999993591309,6|0,0:0|0:0,0:0:0:0:
380,125,163058,6,0,L|454:134,1,56.2500021457673
488,287,163252,1,8,0:0:0:0:
389,15,163445,6,0,L|372:239,1,225,6|0,0:0|0:0,0:0:0:0:
371,239,163832,6,0,B|311:183|311:183|222:225,1,168.750006437302,8|0,0:0|0:0,0:0:0:0:
226,55,164219,6,0,L|226:132,1,75,6|0,0:0|0:0,0:0:0:0:
233,332,164413,1,0,0:0:0:0:
60,162,164606,6,0,P|97:165|133:178,1,75
233,219,164800,1,8,0:0:0:0:
45,355,164994,6,0,P|52:246|116:334,1,281.25,6|0,0:0|0:0,0:0:0:0:
354,353,165381,6,0,L|375:205,1,150,10|0,0:0|0:0,0:0:0:0:
375,204,165671,1,0,0:0:0:0:
375,204,165768,1,0,0:0:0:0:
385,103,165961,1,0,0:0:0:0:
233,219,166155,6,0,L|173:215,4,37.5,6|0|0|0|0,0:0|0:0|0:0|0:0|0:0,0:0:0:0:
472,272,166542,2,0,B|505:207|505:207|465:142,1,150,2|0,0:0|0:0,0:0:0:0:
133,136,166929,6,0,B|84:193|84:193|115:293,1,150,10|0,0:0|0:0,0:0:0:0:
195,216,167219,1,0,0:0:0:0:
195,216,167316,1,0,0:0:0:0:
99,44,167510,1,0,0:0:0:0:
19,260,167703,6,0,L|5:324,4,37.5,6|0|0|0|0,0:0|0:0|0:0|0:0|0:0,0:0:0:0:
223,68,168090,2,0,L|190:239,1,150,2|0,0:0|0:0,0:0:0:0:
46,128,168477,6,0,B|21:105|21:105|149:140,1,150,10|0,0:0|0:0,0:0:0:0:
285,167,168768,1,0,0:0:0:0:
285,167,168865,1,0,0:0:0:0:
373,22,169058,1,0,0:0:0:0:
423,279,169252,6,0,L|467:259,4,37.5,6|0|0|0|0,0:0|0:0|0:0|0:0|0:0,0:0:0:0:
373,22,169639,2,0,P|415:70|396:151,1,150,2|0,0:0|0:0,0:0:0:0:
282,251,170026,6,0,B|253:157|253:157|290:70,1,150,10|0,0:0|0:0,0:0:0:0:
273,109,170316,1,0,0:0:0:0:
273,109,170413,2,0,P|231:109|191:100,1,75
169,319,170606,1,0,0:0:0:0:
397,148,170800,6,0,L|465:164,4,37.5,6|0|0|0|0,0:0|0:0|0:0|0:0|0:0,0:0:0:0:
75,257,171187,6,0,L|59:182,1,56.2500021457673,2|0,0:0|0:0,0:0:0:0:
140,183,171381,2,0,L|154:238,1,56.2500021457673
306,316,171574,6,0,B|236:287|236:287|137:334,1,150,10|0,0:0|0:0,0:0:0:0:
144,339,171865,1,0,0:0:0:0:
144,339,171961,2,0,P|181:347|225:367,1,75
162,96,172155,1,0,0:0:0:0:
49,332,172348,6,0,L|-17:346,4,37.5,6|0|0|0|0,0:0|0:0|0:0|0:0|0:0,0:0:0:0:
322,131,172736,6,0,L|261:122,1,56.2500021457673,2|0,0:0|0:0,0:0:0:0:
195,190,172929,2,0,L|139:182,1,56.2500021457673
342,45,173123,6,0,B|436:32|436:32|472:73,1,150,10|0,0:0|0:0,0:0:0:0:
485,110,173413,1,0,0:0:0:0:
485,110,173510,2,0,P|444:123|396:126,1,75
239,16,173703,1,0,0:0:0:0:
33,119,173897,6,0,L|28:80,4,37.5,6|0|0|0|0,0:0|0:0|0:0|0:0|0:0,0:0:0:0:
238,15,174284,6,0,L|233:71,1,56.2500021457673,2|0,0:0|0:0,0:0:0:0:
221,187,174477,2,0,L|214:260,1,56.2500021457673
350,186,174671,6,0,B|317:161|317:161|337:267,1,150,10|0,0:0|0:0,0:0:0:0:
344,310,174961,1,0,0:0:0:0:
344,310,175058,2,0,L|247:302,1,75
461,111,175252,2,0,L|387:110,1,75
140,97,175445,6,0,L|143:151,4,37.5,6|0|0|0|0,0:0|0:0|0:0|0:0|0:0,0:0:0:0:
75,302,175832,6,0,P|48:312|21:318,1,56.2500021457673,2|0,0:0|0:0,0:0:0:0:
216,182,176026,2,0,P|243:188|271:190,1,56.2500021457673
202,341,176219,6,0,B|154:284|154:284|184:213,1,150,10|0,0:0|0:0,0:0:0:0:
216,182,176510,1,0,0:0:0:0:
216,182,176606,2,0,P|243:188|282:189,1,56.2500021457673
75,302,176800,2,0,P|42:311|-1:316,1,75
362,263,176994,6,0,L|369:214,4,37.5,6|0|0|0|0,0:0|0:0|0:0|0:0|0:0,0:0:0:0:
58,194,177381,6,0,P|56:167|51:136,1,56.2500021457673,2|0,0:0|0:0,0:0:0:0:
243,82,177574,2,0,P|245:56|250:25,1,56.2500021457673
170,252,177768,6,0,B|230:193|242:103|242:103|253:167|310:187,1,281.25,6|0,0:0|0:0,0:0:0:0:
384,214,178155,2,0,B|402:76|402:76|336:102,1,209.999993591309,4|0,0:0|0:0,0:0:0:0:
51,138,178542,6,0,L|59:212,3,56.2500021457673,10|0|0|0,0:0|0:0|0:0|0:0,0:0:0:0:
135,30,178929,5,4,0:0:0:0:
178,17,179026,1,0,0:0:0:0:
221,6,179123,2,0,L|213:93,1,56.2500021457673
308,186,179316,6,0,P|271:187|235:198,3,75,10|0|0|0,0:0|0:0|0:0|0:0,0:0:0:0:
146,348,179703,5,4,0:0:0:0:
206,378,179800,1,0,0:0:0:0:
271,361,179897,2,0,P|276:309|288:261,1,75
290,99,180090,6,0,P|337:104|375:131,3,93.75,10|0|0|0,0:0|0:0|0:0|0:0,0:0:0:0:
437,223,180477,6,0,L|288:245,1,93.75,4|0,0:0|0:0,0:0:0:0:
280,286,180671,2,0,L|151:301,1,93.75
476,356,180865,6,0,B|455:304|479:256|479:256|503:210|475:159|475:159|467:205|438:223,1,281.25,6|0,0:0|0:0,0:0:0:0:
344,236,181252,2,0,B|253:246,1,75,4|0,0:0|0:0,0:0:0:0:
269,34,181445,1,0,0:0:0:0:
168,246,181639,6,0,B|246:223|246:223|299:256|299:256|390:236,1,225,10|0,0:0|0:0,0:0:0:0:
325,70,182026,2,0,B|268:34|268:34|293:189,1,225,4|0,0:0|0:0,0:0:0:0:
168,246,182413,6,0,P|173:200|182:152,1,75,10|0,0:0|0:0,0:0:0:0:
103,63,182606,1,0,0:0:0:0:
15,302,182800,6,0,B|-21:143|-21:143|27:104,1,225,4|0,0:0|0:0,0:0:0:0:
103,63,183187,6,0,P|109:99|106:137,1,75,10|0,0:0|0:0,0:0:0:0:
317,209,183381,1,0,0:0:0:0:
108,238,183574,6,0,B|157:212|157:212|208:224|208:224|263:196|263:196|315:209,1,225,4|0,0:0|0:0,0:0:0:0:
400,16,183961,6,0,P|285:40|362:129,1,281.25,6|0,0:0|0:0,0:0:0:0:
295,324,184348,2,0,B|259:183|259:183|290:206|321:210,1,209.999993591309,4|0,0:0|0:0,0:0:0:0:
188,39,184736,6,0,P|188:67|185:95,3,56.2500021457673,10|0|0|0,0:0|0:0|0:0|0:0,0:0:0:0:
108,238,185123,5,4,0:0:0:0:
102,193,185219,1,0,0:0:0:0:
95,147,185316,2,0,P|89:120|82:90,1,56.2500021457673
260,182,185510,6,0,P|296:173|333:174,3,75,10|0|0|0,0:0|0:0|0:0|0:0,0:0:0:0:
469,254,185897,5,4,0:0:0:0:
476,195,185994,1,0,0:0:0:0:
479,136,186090,2,0,P|482:99|492:51,1,75
260,182,186284,6,0,P|213:187|166:167,3,93.75,10|0|0|0,0:0|0:0|0:0|0:0,0:0:0:0:
107,237,186671,6,0,L|98:355,1,93.75,4|0,0:0|0:0,0:0:0:0:
226,97,186865,2,0,L|210:-36,1,93.75
369,255,187058,6,0,B|414:238|414:238|394:111|394:111|347:125,1,225,10|0,0:0|0:0,0:0:0:0:
260,182,187445,2,0,B|215:165|215:165|235:38|235:38|281:52,1,225,4|0,0:0|0:0,0:0:0:0:
281,52,187832,6,0,L|156:78,1,75,10|0,0:0|0:0,0:0:0:0:
69,88,188026,1,0,0:0:0:0:
377,32,188219,6,0,B|448:118|448:118|393:217,1,225,4|0,0:0|0:0,0:0:0:0:
309,297,188606,6,0,L|226:292,1,75,10|0,0:0|0:0,0:0:0:0:
223,175,188800,1,0,0:0:0:0:
150,339,188994,6,0,B|308:296|308:296|340:347,1,225,4|0,0:0|0:0,0:0:0:0:
223,175,189381,6,0,L|238:62,1,75,10|0,0:0|0:0,0:0:0:0:
245,0,189574,1,0,0:0:0:0:
327,184,189768,6,0,B|259:193|259:193|184:158|184:158|111:174,1,225,4|0,0:0|0:0,0:0:0:0:
25,322,190155,6,0,B|-1:290|-12:249|-12:249|10:251|28:241|28:241|56:263|96:255|96:255|129:275|167:265|167:265|183:279|206:285|206:285|186:315|150:342,1,393.750015020371,6|0,0:0|0:0,0:0:0:0:
273,366,190929,6,0,L|365:351,1,93.75,2|0,0:0|0:0,0:0:0:0:
312,209,191123,2,0,L|404:192,1,93.75,2|0,0:0|0:0,0:0:0:0:
352,58,191316,6,0,L|445:39,1,93.75,2|0,0:0|0:0,0:0:0:0:
249,142,191510,1,10,0:0:0:0:
458,284,191703,6,0,B|506:270|506:270|524:150|524:150|479:121,1,225,8|0,0:0|0:0,0:0:0:0:
404,191,192090,2,0,P|371:172|321:161,1,75,2|0,0:0|0:0,0:0:0:0:
213,250,192284,1,8,0:0:0:0:
213,250,192381,1,0,0:0:0:0:
213,250,192477,6,0,B|199:95|199:95|224:129|249:142,1,225,4|0,0:0|0:0,0:0:0:0:
335,162,192865,2,0,B|289:165|251:142|251:142|205:186|205:186|174:173|131:176,1,225,2|0,0:0|0:0,0:0:0:0:
83,16,193252,5,8,0:0:0:0:
55,322,193445,1,8,0:0:0:0:
62,97,193639,6,0,B|3:79|3:79|46:260,1,225,10|0,0:0|0:0,0:0:0:0:
132,175,194026,6,0,P|189:90|279:141,1,225,4|0,0:0|0:0,0:0:0:0:
289,253,194413,2,0,P|352:333|438:277,1,225,2|0,0:0|0:0,0:0:0:0:
444,132,194800,6,0,B|413:136|413:136|380:131|380:131|345:140|345:140|310:134|310:134|279:140,1,168.750006437302
187,209,195187,6,0,B|148:131|148:131|201:69,1,168.750006437302,8|0,0:0|0:0,0:0:0:0:
278,140,195574,2,0,L|447:132,1,168.750006437302,4|0,0:0|0:0,0:0:0:0:
465,252,195961,5,4,0:0:0:0:
462,249,196058,1,4,0:0:0:0:
459,246,196155,1,4,0:0:0:0:
457,243,196252,1,4,0:0:0:0:
455,240,196348,6,0,B|483:219|508:185|508:185|464:189|431:165|431:165|397:141|359:152|359:152|322:162|277:140|277:140|288:182|306:208,1,393.750015020371,6|0,0:0|0:0,0:0:0:0:
154,120,197123,6,0,L|141:25,1,93.75,2|0,0:0|0:0,0:0:0:0:
130,269,197316,2,0,P|174:251|221:252,1,93.75,2|0,0:0|0:0,0:0:0:0:
306,208,197510,6,0,L|287:313,1,93.75,2|0,0:0|0:0,0:0:0:0:
38,249,197703,2,0,L|79:353,1,93.75,2|0,0:0|0:0,0:0:0:0:
178,361,197897,6,0,B|195:197|195:197|202:230|219:251,1,225,8|0,0:0|0:0,0:0:0:0:
289,300,198284,2,0,L|398:293,1,75,2|0,0:0|0:0,0:0:0:0:
456,145,198477,1,8,0:0:0:0:
456,145,198574,1,8,0:0:0:0:
456,145,198671,6,0,B|487:194|487:194|444:193|407:215|407:215|363:200|318:217|318:217|342:154,1,300,4|2,0:0|0:0,0:0:0:0:
277,65,199155,1,0,0:0:0:0:
277,65,199252,2,0,P|269:101|259:137,1,75,2|0,0:0|0:0,0:0:0:0:
218,250,199445,5,8,0:0:0:0:
211,4,199639,1,8,0:0:0:0:
65,154,199832,6,0,B|156:89|156:89|257:137,1,225,10|0,0:0|0:0,0:0:0:0:
361,197,200219,2,0,B|378:37|378:37|327:82,1,225,4|0,0:0|0:0,0:0:0:0:
258,137,200606,2,0,B|211:115|211:115|152:127|152:127|91:108|91:108|41:122,1,225,2|0,0:0|0:0,0:0:0:0:
112,3,200994,6,0,B|163:-3|163:-3|202:43|202:43|198:103|198:103|151:126,1,225
83,245,201381,2,0,B|31:251|31:251|-7:204|-7:204|-3:144|-3:144|43:121,1,225,8|0,0:0|0:0,0:0:0:0:
161,208,201768,6,0,B|268:245|268:245|370:199,1,225,4|0,0:0|0:0,0:0:0:0:
458,38,202155,5,4,0:0:0:0:
462,39,202252,1,4,0:0:0:0:
466,40,202349,1,4,0:0:0:0:
469,43,202446,1,4,0:0:0:0:
472,46,202542,6,0,P|458:106|459:173,1,112.500004291535,10|0,0:0|0:0,0:0:0:0:
266,141,202832,1,0,0:0:0:0:
266,141,202929,2,0,P|274:85|270:29,1,112.500004291535,2|0,0:0|0:0,0:0:0:0:
375,13,203316,6,0,L|351:251,1,225.000008583069,4|2,0:0|0:0,0:0:0:0:
194,169,203897,1,0,0:0:0:0:
352,236,204090,6,0,P|295:229|248:258,1,112.500004291535,8|0,0:0|0:0,0:0:0:0:
184,336,204381,1,0,0:0:0:0:
184,336,204477,1,0,0:0:0:0:
194,169,204671,5,8,0:0:0:0:
194,169,204768,1,8,0:0:0:0:
194,169,204865,2,0,B|54:184,1,112.500004291535,4|0,0:0|0:0,0:0:0:0:
37,252,205155,1,0,0:0:0:0:
5,215,205251,1,0,0:0:0:0:
1,166,205348,1,0,0:0:0:0:
24,122,205445,1,0,0:0:0:0:
254,8,205639,6,0,B|288:54|288:54|274:108,1,112.500004291535,2|0,0:0|0:0,0:0:0:0:
389,174,205929,1,0,0:0:0:0:
389,174,206026,2,0,B|355:128|355:128|369:74,1,112.500004291535,2|0,0:0|0:0,0:0:0:0:
241,13,206413,6,0,B|267:260,1,225.000008583069,4|2,0:0|0:0,0:0:0:0:
159,137,206994,1,0,0:0:0:0:
380,206,207187,5,0,0:0:0:0:
339,201,207284,1,0,0:0:0:0:
297,209,207381,1,0,0:0:0:0:
264,236,207477,1,0,0:0:0:0:
245,274,207574,2,0,L|260:345,2,56.2500021457673,8|0|0,0:0|0:0|0:0,0:0:0:0:
418,221,207961,6,0,L|404:349,1,112.500004291535,4|0,0:0|0:0,0:0:0:0:
427,128,208252,2,0,L|495:146,2,56.2500021457673
245,274,208736,6,0,P|191:281|150:244,1,112.500004291535,10|0,0:0|0:0,0:0:0:0:
114,132,209026,1,0,0:0:0:0:
114,132,209123,2,0,P|60:120|17:156,1,112.500004291535,2|0,0:0|0:0,0:0:0:0:
150,10,209510,6,0,P|100:101|180:168,1,225.000008583069,4|2,0:0|0:0,0:0:0:0:
361,24,210090,1,0,0:0:0:0:
266,148,210284,6,0,L|283:9,1,112.500004291535,8|0,0:0|0:0,0:0:0:0:
361,24,210574,1,0,0:0:0:0:
361,24,210671,1,0,0:0:0:0:
374,194,210865,5,8,0:0:0:0:
374,194,210961,1,8,0:0:0:0:
374,194,211058,2,0,L|498:184,1,112.500004291535,4|0,0:0|0:0,0:0:0:0:
418,270,211348,1,0,0:0:0:0:
372,280,211445,1,0,0:0:0:0:
327,268,211542,1,0,0:0:0:0:
299,233,211639,1,0,0:0:0:0:
160,381,211832,6,0,B|123:337|123:337|142:281,1,112.500004291535,10|0,0:0|0:0,0:0:0:0:
221,226,212123,1,0,0:0:0:0:
221,226,212219,2,0,B|257:267|257:267|238:322,1,112.500004291535,2|0,0:0|0:0,0:0:0:0:
34,299,212606,6,0,L|256:267,1,225.000008583069,4|2,0:0|0:0,0:0:0:0:
367,94,213187,1,0,0:0:0:0:
305,172,213381,6,0,L|221:157,3,56.2500021457673
157,119,213768,6,0,L|171:222,1,56.2500021457673,8|0,0:0|0:0,0:0:0:0:
73,126,213961,2,0,L|86:213,1,56.2500021457673
249,162,214155,2,0,L|323:175,1,56.2500021457673,4|0,0:0|0:0,0:0:0:0:
291,68,214348,1,0,0:0:0:0:
242,66,214929,5,2,0:0:0:0:
249,162,215316,1,2,0:0:0:0:
257,258,215703,1,2,0:0:0:0:
264,355,216090,1,2,0:0:0:0:
