osu file format v14

[General]
AudioFilename: audio.mp3
AudioLeadIn: 0
PreviewTime: 140510
Countdown: 0
SampleSet: Normal
StackLeniency: 0.7
Mode: 0
LetterboxInBreaks: 0
WidescreenStoryboard: 1

[Editor]
Bookmarks: 91,15574,40349,52736,77510,89897,102284,114671,127058,140607,165381,177768,184736,190155,202542,214929
DistanceSpacing: 0.9
BeatDivisor: 3
GridSize: 32
TimelineZoom: 2

[Metadata]
Title:EdJean - Alien Invasion (Aeolus Remix)
TitleUnicode:EdJean - Alien Invasion (Aeolus Remix)
Artist:EdJean & Aeolus
ArtistUnicode:EdJean & Aeolus
Creator:_MiaoFUuU_
Version:Easy
Source:
Tags:UFO attack universe war Space ship 51 Area planet galaxy earth Meteorite Human science and technology lastday destroy handsome muscle
BeatmapID:1262579
BeatmapSetID:587985

[Difficulty]
HPDrainRate:2
CircleSize:3
OverallDifficulty:2
ApproachRate:3
SliderMultiplier:1
SliderTickRate:1

[Events]
//Background and Video events
0,0,"BG.jpg",0,0
//Break Periods
2,102484,113231
2,165581,176328
//Storyboard Layer 0 (Background)
//Storyboard Layer 1 (Fail)
//Storyboard Layer 2 (Pass)
//Storyboard Layer 3 (Foreground)
//Storyboard Sound Samples

[TimingPoints]
91,387.096774193548,4,1,2,60,1,0
3187,-100,4,1,2,60,0,0
40349,-100,4,1,3,60,0,0
52736,-100,4,1,4,60,0,0
53510,-100,4,1,3,60,0,0
55832,-100,4,1,4,60,0,0
56607,-100,4,1,3,60,0,0
58929,-100,4,1,4,60,0,0
59703,-100,4,1,3,60,0,0
65123,-100,4,1,4,60,0,0
65897,-100,4,1,3,60,0,0
71316,-100,4,1,4,60,0,0
72090,-100,4,1,3,60,0,0
140607,387.096774193548,4,1,4,65,1,0
140607,-100,4,1,4,65,0,1
140994,-100,4,1,3,65,0,1
143703,-100,4,1,4,65,0,1
144090,-100,4,1,3,65,0,1
146800,-100,4,1,4,65,0,1
147187,-100,4,1,3,65,0,1
159187,-100,4,1,4,65,0,1
159574,-100,4,1,3,65,0,1
165381,-100,4,1,3,65,0,0
177768,-100,4,1,4,65,0,1
178155,-100,4,1,3,65,0,1
180865,-100,4,1,4,65,0,1
181252,-100,4,1,3,65,0,1
183961,-100,4,1,4,65,0,1
184348,-100,4,1,3,65,0,1
190155,-100,4,1,4,60,0,0
190929,-100,4,1,3,60,0,0
196348,-100,4,1,4,60,0,0
197122,-100,4,1,3,60,0,0
214929,-100,4,1,3,60,0,0

[Colours]
Combo1 : 255,128,0
Combo2 : 128,128,128
Combo3 : 150,45,255
Combo4 : 0,128,192
Combo5 : 128,0,0

[HitObjects]
74,286,3187,6,0,B|39:190|39:190|89:105,1,200,2|8,0:0|0:0,0:0:0:0:
172,72,4349,1,0,0:0:0:0:
247,121,4736,2,0,B|461:105,1,200,2|8,0:0|0:0,0:0:0:0:
461,285,6284,6,0,B|239:301,1,200,2|8,0:0|0:0,0:0:0:0:
188,367,7445,1,0,0:0:0:0:
213,188,8220,2,10,P|165:202|115:205,1,100,2|8,0:0|0:0,0:0:0:0:
278,281,9381,6,0,P|325:197|290:104,1,200,2|8,0:0|0:0,0:0:0:0:
206,75,10542,1,0,0:0:0:0:
212,164,10929,2,0,P|200:263|193:363,1,200,2|8,0:0|0:0,0:0:0:0:
370,329,12478,6,0,P|376:229|389:129,1,200,2|8,0:0|0:0,0:0:0:0:
301,106,13639,1,0,0:0:0:0:
479,82,14413,2,0,P|474:149|467:202,1,100,2|8,0:0|0:0,0:0:0:0:
374,329,15574,6,0,B|332:304|332:304|281:313,1,100,2|0,0:0|0:0,0:0:0:0:
202,356,16349,1,8,0:0:0:0:
141,289,16736,1,0,0:0:0:0:
65,338,17123,2,0,P|53:289|65:241,1,100,2|0,0:0|0:0,0:0:0:0:
146,203,17897,2,0,P|155:154|140:107,1,100,8|0,0:0|0:0,0:0:0:0:
101,25,18671,6,0,L|-42:36,2,100,2|2|8,0:0|0:0|0:0,0:0:0:0:
277,57,20220,5,0,0:0:0:0:
362,29,20607,1,2,0:0:0:0:
430,87,20994,2,0,L|439:205,1,100,8|8,0:0|0:0,0:0:0:0:
395,266,21768,6,0,P|359:231|348:183,1,100,2|0,0:0|0:0,0:0:0:0:
270,137,22542,1,8,0:0:0:0:
181,121,22929,1,0,0:0:0:0:
92,104,23316,2,0,L|101:220,1,100,2|0,0:0|0:0,0:0:0:0:
189,220,24090,2,0,L|178:96,1,100,8|0,0:0|0:0,0:0:0:0:
237,50,24865,6,0,P|289:43|336:61,2,100,2|2|8,0:0|0:0|0:0,0:0:0:0:
189,220,26413,5,0,0:0:0:0:
268,178,26800,1,2,0:0:0:0:
339,234,27187,2,0,L|333:333,1,100,8|8,0:0|0:0,0:0:0:0:
249,367,27961,6,0,L|147:337,1,100,2|8,0:0|0:0,0:0:0:0:
193,258,28736,2,0,L|96:231,1,100,2|8,0:0|0:0,0:0:0:0:
43,158,29510,2,0,P|8:221|31:294,2,150,2|0|8,0:0|0:0|0:0,0:0:0:0:
103,91,31058,6,0,L|215:73,1,100,2|8,0:0|0:0,0:0:0:0:
230,160,31832,2,0,L|359:177,1,100,2|8,0:0|0:0,0:0:0:0:
393,109,32607,2,0,P|416:178|384:244,2,150,2|0|8,0:0|0:0|0:0,0:0:0:0:
322,52,34155,6,0,P|273:45|224:33,1,100,2|8,0:0|0:0,0:0:0:0:
217,122,34929,2,0,P|167:128|118:140,1,100,2|8,0:0|0:0,0:0:0:0:
32,164,35703,2,0,L|44:329,2,150,2|0|8,0:0|0:0|0:0,0:0:0:0:
118,139,37252,6,0,L|128:255,1,100,2|8,0:0|0:0,0:0:0:0:
208,275,38026,2,0,L|219:163,1,100,2|8,0:0|0:0,0:0:0:0:
231,86,38800,2,0,B|303:61|303:61|368:93,2,150,2|0|8,0:0|0:0|0:0,0:0:0:0:
142,108,40349,6,0,P|145:58|172:16,2,100,10|2|6,0:0|0:0|0:0,0:0:0:0:
231,86,41510,1,2,0:0:0:0:
296,147,41897,2,0,P|306:194|288:247,2,100,10|2|6,0:0|0:0|0:0,0:0:0:0:
217,190,43058,1,2,0:0:0:0:
127,202,43445,6,0,L|0:223,2,100,10|2|6,0:0|0:0|0:0,0:0:0:0:
184,271,44607,1,2,0:0:0:0:
241,339,44994,2,0,L|382:325,2,100,2|10|6,0:0|0:0|0:0,0:0:0:0:
152,355,46155,1,6,0:0:0:0:
256,192,46542,12,8,51187,0:0:0:0:
119,199,52736,6,0,B|166:178|216:196|216:196|266:213|314:193,1,200,6|6,0:0|0:0,0:0:0:0:
404,150,53897,2,0,L|396:268,1,100,2|8,0:0|0:0,0:0:0:0:
315,306,54671,1,2,0:0:0:0:
225,260,55058,2,0,L|246:53,1,200,6|6,0:0|0:0,0:0:0:0:
317,247,56607,6,0,B|417:267|417:267|481:193,2,200,4|8|4,0:0|0:0|0:0,0:0:0:0:
221,216,58542,1,0,0:0:0:0:
167,301,58929,6,0,P|119:218|163:133,1,200,6|6,0:0|0:0,0:0:0:0:
263,134,60090,1,2,0:0:0:0:
224,41,60478,2,0,P|174:39|124:33,1,100,8|2,0:0|0:0,0:0:0:0:
43,92,61252,1,6,0:0:0:0:
201,214,62026,6,0,B|245:198|245:198|294:212|294:212|343:197|343:197|393:212,2,200,8|4|8,0:0|0:0|0:0,0:0:0:0:
104,241,63961,2,0,L|115:355,1,100,0|4,0:0|0:0,0:0:0:0:
207,376,64736,1,0,0:0:0:0:
300,339,65123,6,0,B|342:226|342:226|304:139,1,200,6|6,0:0|0:0,0:0:0:0:
229,94,66284,1,2,0:0:0:0:
141,44,66671,2,0,P|91:47|41:39,1,100,8|0,0:0|0:0,0:0:0:0:
35,139,67445,2,0,P|85:133|137:140,1,100,4|0,0:0|0:0,0:0:0:0:
230,166,68220,6,0,L|221:227,2,50,8|8|8,0:0|0:0|0:0,0:0:0:0:
299,94,68994,2,0,L|446:74,1,100,4|0,0:0|0:0,0:0:0:0:
488,122,69768,2,0,B|484:234,2,100,0|8|4,0:0|0:0|0:0,0:0:0:0:
482,22,70929,1,4,0:0:0:0:
389,60,71316,6,0,P|297:6|237:81,1,200,6|6,0:0|0:0,0:0:0:0:
186,144,72478,1,2,0:0:0:0:
132,228,72865,2,0,B|83:240|83:240|24:205,1,100,8|0,0:0|0:0,0:0:0:0:
94,131,73639,2,0,B|142:118|142:118|201:153,1,100,4|0,0:0|0:0,0:0:0:0:
235,230,74413,6,0,L|225:279,2,50,8|8|8,0:0|0:0|0:0,0:0:0:0:
300,154,75187,2,0,L|419:136,1,100,4|0,0:0|0:0,0:0:0:0:
476,201,75961,2,0,B|512:244|499:293,2,100,0|8|4,0:0|0:0|0:0,0:0:0:0:
405,271,77123,1,4,0:0:0:0:
321,326,77510,6,0,L|339:119,1,200,8|4,0:0|0:0,0:0:0:0:
400,61,78671,1,0,0:0:0:0:
435,143,79058,2,0,P|373:216|277:207,1,200,8|4,0:0|0:0,0:0:0:0:
256,118,80220,1,0,0:0:0:0:
253,28,80607,6,0,B|203:39|170:83|170:83|138:127|90:135,1,200,8|4,0:0|0:0,0:0:0:0:
88,45,81768,1,0,0:0:0:0:
10,90,82155,2,0,P|10:178|116:226,1,200,8|4,0:0|0:0,0:0:0:0:
173,177,83316,1,0,0:0:0:0:
255,141,83703,6,0,P|175:89|91:134,1,200,8|4,0:0|0:0,0:0:0:0:
100,224,84865,1,0,0:0:0:0:
110,313,85252,2,0,P|200:332|240:249,1,200,8|4,0:0|0:0,0:0:0:0:
304,186,86413,1,0,0:0:0:0:
323,279,86800,6,0,P|379:336|497:313,1,200,8|4,0:0|0:0,0:0:0:0:
503,230,87961,1,0,0:0:0:0:
417,251,88349,2,0,L|416:37,1,200,8|4,0:0|0:0,0:0:0:0:
328,72,89510,1,0,0:0:0:0:
324,161,89897,6,0,P|282:188|233:192,1,100,8|4,0:0|0:0,0:0:0:0:
193,111,90671,2,0,P|151:83|102:79,1,100,8|4,0:0|0:0,0:0:0:0:
30,132,91445,2,0,L|19:252,1,100,8|4,0:0|0:0,0:0:0:0:
101,272,92220,2,0,L|112:149,1,100,8|4,0:0|0:0,0:0:0:0:
102,78,92994,6,0,P|151:71|199:55,1,100,8|4,0:0|0:0,0:0:0:0:
242,133,93768,2,0,P|291:139|339:155,1,100,8|4,0:0|0:0,0:0:0:0:
409,99,94542,2,0,P|426:154|416:210,1,100,8|4,0:0|0:0,0:0:0:0:
348,250,95316,2,0,P|332:204|338:155,1,100,0|4,0:0|0:0,0:0:0:0:
291,77,96090,6,0,B|258:42|258:42|207:34,1,100,8|4,0:0|0:0,0:0:0:0:
211,124,96865,2,0,B|174:158|174:158|124:162,1,100,8|4,0:0|0:0,0:0:0:0:
41,128,97639,2,0,P|30:178|17:232,1,100,8|4,0:0|0:0,0:0:0:0:
100,259,98413,2,0,P|112:208|124:162,1,100,8|4,0:0|0:0,0:0:0:0:
192,220,99187,6,0,P|236:240|284:229,1,100,8|4,0:0|0:0,0:0:0:0:
249,146,99961,2,0,P|296:135|341:155,1,100,8|4,0:0|0:0,0:0:0:0:
411,212,100736,2,0,P|426:164|422:115,1,100,8|4,0:0|0:0,0:0:0:0:
348,63,101510,2,0,L|220:51,1,100,8|4,0:0|0:0,0:0:0:0:
170,99,102284,5,2,0:0:0:0:
436,68,114671,6,0,B|374:61|374:61|302:88|302:88|240:80,1,200,8|4,0:0|0:0,0:0:0:0:
164,33,115832,1,0,0:0:0:0:
94,89,116220,2,0,L|69:239,2,150,8|8|0,0:0|0:0|0:0,0:0:0:0:
169,138,117768,6,0,L|174:210,2,50,8|8|8,0:0|0:0|0:0,0:0:0:0:
234,76,118542,2,0,P|257:119|257:169,1,100,4|0,0:0|0:0,0:0:0:0:
336,210,119316,2,0,P|356:165|361:115,2,100,0|8|4,0:0|0:0|0:0,0:0:0:0:
291,288,120478,1,0,0:0:0:0:
207,253,120865,6,0,B|148:270|148:270|102:327|102:327|38:341,1,200,8|4,0:0|0:0,0:0:0:0:
20,252,122026,1,0,0:0:0:0:
4,163,122413,2,0,L|141:119,1,100,8|0,0:0|0:0,0:0:0:0:
173,81,123187,2,0,B|221:105|221:105|235:148,1,100,4|0,0:0|0:0,0:0:0:0:
325,155,123961,6,0,P|365:157|391:161,2,50,8|8|8,0:0|0:0|0:0,0:0:0:0:
273,229,124736,2,0,B|245:268|245:268|260:324,1,100,4|0,0:0|0:0,0:0:0:0:
344,290,125510,2,0,B|386:262|386:262|433:276,2,100,0|8|4,0:0|0:0|0:0,0:0:0:0:
330,378,126671,1,4,0:0:0:0:
258,322,127058,6,0,P|208:322|167:295,2,100,10|2|6,0:0|0:0|0:0,0:0:0:0:
237,225,128220,1,2,0:0:0:0:
186,138,128607,2,0,P|149:173|137:228,2,100,10|2|6,0:0|0:0|0:0,0:0:0:0:
182,39,129768,1,2,0:0:0:0:
279,13,130155,6,0,P|328:25|367:61,2,100,10|2|6,0:0|0:0|0:0,0:0:0:0:
285,111,131316,1,2,0:0:0:0:
186,140,131703,2,0,P|155:179|111:203,2,100,2|2|6,0:0|0:0|0:0,0:0:0:0:
92,105,132865,1,2,0:0:0:0:
256,192,133252,12,0,139445,0:0:0:0:
256,192,140607,6,0,P|212:168|162:167,1,100,4|4,0:0|0:0,0:0:0:0:
65,144,141381,2,0,L|81:77,2,50,0|8|4,0:0|0:0|0:0,0:0:0:0:
37,239,142155,5,8,0:0:0:0:
132,269,142542,1,4,0:0:0:0:
227,299,142929,2,0,L|215:373,2,50,0|8|4,0:0|0:0|0:0,0:0:0:0:
291,222,143703,6,0,P|321:261|331:312,1,100,6|4,0:0|0:0,0:0:0:0:
422,351,144477,2,0,B|436:246,1,100,0|4,0:0|0:0,0:0:0:0:
449,152,145252,5,8,0:0:0:0:
356,114,145639,1,4,0:0:0:0:
264,73,146026,2,0,L|201:91,2,50,0|8|4,0:0|0:0|0:0,0:0:0:0:
350,17,146800,6,0,P|364:64|356:113,1,100,6|4,0:0|0:0,0:0:0:0:
296,194,147574,2,0,L|190:175,1,100,0|4,0:0|0:0,0:0:0:0:
123,109,148348,5,8,0:0:0:0:
108,208,148736,1,4,0:0:0:0:
91,306,149123,2,0,L|81:367,2,50,0|8|4,0:0|0:0|0:0,0:0:0:0:
185,273,149897,6,0,L|322:301,1,100,8|4,0:0|0:0,0:0:0:0:
380,272,150671,2,0,L|377:198,2,50,0|8|4,0:0|0:0|0:0,0:0:0:0:
478,253,151445,6,0,L|475:139,1,100,8|4,0:0|0:0,0:0:0:0:
392,97,152219,2,0,L|388:42,2,50,0|8|4,0:0|0:0|0:0,0:0:0:0:
321,168,152994,6,0,L|183:179,1,100,8|4,0:0|0:0,0:0:0:0:
132,222,153768,2,0,L|66:244,2,50,0|8|4,0:0|0:0|0:0,0:0:0:0:
149,123,154542,6,0,L|169:7,1,100,8|4,0:0|0:0,0:0:0:0:
265,28,155316,2,0,L|351:4,2,50,0|8|4,0:0|0:0|0:0,0:0:0:0:
251,127,156090,6,0,L|231:252,1,100,8|4,0:0|0:0,0:0:0:0:
170,302,156865,2,0,L|112:323,2,50,0|8|4,0:0|0:0|0:0,0:0:0:0:
264,334,157639,6,0,B|313:348|313:348|358:331,1,100,8|4,0:0|0:0,0:0:0:0:
450,291,158413,2,0,L|510:309,2,50,0|8|4,0:0|0:0|0:0,0:0:0:0:
371,229,159187,6,0,P|363:179|367:129,1,100,6|4,0:0|0:0,0:0:0:0:
461,99,159961,2,0,P|469:149|465:199,1,100,0|4,0:0|0:0,0:0:0:0:
450,291,160736,5,8,0:0:0:0:
354,260,161123,1,4,0:0:0:0:
259,228,161510,2,0,L|247:136,2,50,0|8|4,0:0|0:0|0:0,0:0:0:0:
170,181,162284,6,0,P|122:196|73:208,1,100,8|4,0:0|0:0,0:0:0:0:
8,268,163058,2,0,L|2:319,2,50,0|8|4,0:0|0:0|0:0,0:0:0:0:
97,312,163832,6,0,P|144:297|193:285,1,100,8|4,0:0|0:0,0:0:0:0:
292,271,164606,2,0,L|302:336,2,50,0|8|4,0:0|0:0|0:0,0:0:0:0:
277,171,165381,1,8,0:0:0:0:
0,288,177768,6,0,L|10:156,1,100,6|4,0:0|0:0,0:0:0:0:
7,88,178542,2,0,B|51:65|51:65|101:75,1,100,8|4,0:0|0:0,0:0:0:0:
116,173,179316,2,0,B|161:192|161:192|209:180,1,100,8|4,0:0|0:0,0:0:0:0:
238,83,180090,2,0,B|284:64|284:64|349:84,1,100,8|4,0:0|0:0,0:0:0:0:
432,76,180865,6,0,L|421:198,1,100,6|4,0:0|0:0,0:0:0:0:
352,245,181639,2,0,B|322:205|322:205|326:155,1,100,8|4,0:0|0:0,0:0:0:0:
226,158,182413,2,0,B|231:210|231:210|202:249,1,100,8|4,0:0|0:0,0:0:0:0:
105,225,183187,2,0,B|100:173|100:173|129:134,1,100,8|4,0:0|0:0,0:0:0:0:
198,62,183961,6,0,P|247:73|297:72,1,100,6|4,0:0|0:0,0:0:0:0:
388,32,184736,2,0,L|403:149,1,100,8|4,0:0|0:0,0:0:0:0:
304,157,185510,2,0,L|279:287,1,100,8|4,0:0|0:0,0:0:0:0:
382,278,186284,2,0,L|398:387,1,100,8|4,0:0|0:0,0:0:0:0:
299,354,187058,6,0,P|247:345|202:304,1,100,8|4,0:0|0:0,0:0:0:0:
113,293,187832,2,0,P|151:257|167:198,1,100,8|4,0:0|0:0,0:0:0:0:
139,116,188606,2,0,L|15:151,2,100,8|4|8,0:0|0:0|0:0,0:0:0:0:
236,91,189768,1,4,0:0:0:0:
334,72,190155,6,0,B|318:106|323:144|323:144|287:185|287:185|291:223|276:255,1,200,6|6,0:0|0:0,0:0:0:0:
189,205,191316,1,2,0:0:0:0:
119,277,191703,2,0,P|132:321|136:374,1,100,8|0,0:0|0:0,0:0:0:0:
235,379,192477,2,0,P|237:329|252:281,1,100,4|0,0:0|0:0,0:0:0:0:
189,205,193252,6,0,L|109:176,2,50,8|8|8,0:0|0:0|0:0,0:0:0:0:
288,196,194026,2,0,L|411:167,1,100,4|0,0:0|0:0,0:0:0:0:
455,101,194800,2,8,P|480:143|481:199,2,100,8|8|12,0:0|0:0|0:0,0:0:0:0:
369,48,195961,1,4,0:0:0:0:
273,77,196348,6,0,P|182:43|101:95,1,200,6|6,0:0|0:0,0:0:0:0:
42,175,197510,1,2,0:0:0:0:
140,192,197897,2,0,L|267:213,1,100,8|0,0:0|0:0,0:0:0:0:
331,171,198671,2,0,L|429:187,1,100,4|0,0:0|0:0,0:0:0:0:
508,125,199445,6,0,L|499:76,2,50,8|8|8,0:0|0:0|0:0,0:0:0:0:
412,94,200219,2,0,L|313:78,1,100,4|0,0:0|0:0,0:0:0:0:
218,111,200994,2,0,P|213:62|233:17,2,100,0|8|4,0:0|0:0|0:0,0:0:0:0:
210,210,202155,1,4,0:0:0:0:
308,194,202542,6,0,L|290:334,2,100,10|2|6,0:0|0:0|0:0,0:0:0:0:
371,129,203703,1,2,0:0:0:0:
457,154,204090,2,8,L|470:361,1,200,8|4,0:0|0:0,0:0:0:0:
294,292,205639,6,0,P|336:320|385:319,2,100,10|2|6,0:0|0:0|0:0,0:0:0:0:
231,228,206800,1,0,0:0:0:0:
164,288,207187,2,8,L|44:317,2,100,0|8|4,0:0|0:0|0:0,0:0:0:0:
233,121,208736,6,0,L|231:224,2,100,10|2|4,0:0|0:0|0:0,0:0:0:0:
161,66,209897,1,2,0:0:0:0:
77,99,210284,2,0,L|59:323,1,200,8|4,0:0|0:0,0:0:0:0:
181,164,211832,6,0,P|231:162|289:171,2,100,10|2|6,0:0|0:0|0:0,0:0:0:0:
111,221,212994,1,0,0:0:0:0:
179,279,213381,2,0,P|228:280|279:268,2,100,0|8|4,0:0|0:0|0:0,0:0:0:0:
35,169,214929,6,0,L|20:68,2,100,2|2|2,0:0|0:0|0:0,0:0:0:0:
50,258,216090,1,2,0:0:0:0:
