osu file format v14

[General]
AudioFilename: audio.mp3
AudioLeadIn: 0
PreviewTime: -1
Countdown: 1
SampleSet: None
StackLeniency: 0.7
Mode: 0
LetterboxInBreaks: 0
WidescreenStoryboard: 0

[Editor]
DistanceSpacing: 0.9
BeatDivisor: 8
GridSize: 4
TimelineZoom: 1

[Metadata]
Title:Shape of you
TitleUnicode:Shape of you
Artist:Ed sheeran
ArtistUnicode:Ed sheeran
Creator:fsansy8776
Version:
Source:
Tags:
BeatmapID:1246072
BeatmapSetID:588601

[Difficulty]
HPDrainRate:5
CircleSize:5
OverallDifficulty:5
ApproachRate:5
SliderMultiplier:1.4
SliderTickRate:1

[Events]
//Background and Video events
//Break Periods
2,91091,93078
//Storyboard Layer 0 (Background)
//Storyboard Layer 1 (Fail)
//Storyboard Layer 2 (Pass)
//Storyboard Layer 3 (Foreground)
//Storyboard Sound Samples

[TimingPoints]
7423.67741935484,645.161290322581,4,1,0,100,1,0

[HitObjects]
128,164,1617,5,0,0:0:0:0:
200,200,2020,1,0,0:0:0:0:
300,196,2584,1,0,0:0:0:0:
324,164,2826,1,0,0:0:0:0:
352,76,3310,1,0,0:0:0:0:
256,88,3794,1,0,0:0:0:0:
200,108,4117,1,0,0:0:0:0:
252,180,4601,1,0,0:0:0:0:
352,184,5004,1,0,0:0:0:0:
396,172,5326,1,0,0:0:0:0:
312,156,5810,5,8,0:0:0:0:
212,132,6375,1,8,0:0:0:0:
256,140,6617,1,0,0:0:0:0:
336,112,7101,1,0,0:0:0:0:
256,140,7584,1,0,0:0:0:0:
288,172,7826,1,0,0:0:0:0:
212,176,8230,1,0,0:0:0:0:
212,176,8794,1,0,0:0:0:0:
208,116,9117,1,0,0:0:0:0:
292,124,9601,1,0,0:0:0:0:
348,184,10004,1,0,0:0:0:0:
296,224,10407,1,0,0:0:0:0:
264,208,10649,2,0,P|356:144|144:96,2,507.5
264,208,16617,2,0,P|468:236|412:20,1,507.5
300,88,19601,2,0,P|320:364|468:52,1,910
224,108,25165,1,0,0:0:0:0:
204,116,25326,1,0,0:0:0:0:
272,176,25810,1,0,0:0:0:0:
132,92,26697,5,0,0:0:0:0:
196,156,27181,1,0,0:0:0:0:
308,212,27826,1,0,0:0:0:0:
396,120,28552,1,0,0:0:0:0:
292,104,29117,1,0,0:0:0:0:
200,168,29681,1,0,0:0:0:0:
304,252,30407,1,0,0:0:0:0:
268,220,30649,1,2,0:0:0:0:
232,188,30891,1,2,0:0:0:0:
264,24,31617,1,0,0:0:0:0:
204,100,32181,1,0,0:0:0:0:
160,220,32826,1,2,0:0:0:0:
84,348,33633,1,0,0:0:0:0:
256,264,34681,1,0,0:0:0:0:
184,168,35326,1,0,0:0:0:0:
300,136,35972,1,0,0:0:0:0:
284,264,36617,1,0,0:0:0:0:
164,240,37262,1,0,0:0:0:0:
248,172,37826,1,0,0:0:0:0:
376,180,38552,1,0,0:0:0:0:
332,276,39117,1,0,0:0:0:0:
220,264,39681,1,0,0:0:0:0:
432,140,40084,1,2,0:0:0:0:
432,140,40407,1,2,0:0:0:0:
432,140,40972,1,0,0:0:0:0:
308,128,41617,1,0,0:0:0:0:
252,216,42181,1,0,0:0:0:0:
380,212,42826,1,0,0:0:0:0:
448,108,43472,1,0,0:0:0:0:
332,96,44117,1,0,0:0:0:0:
240,156,44681,1,0,0:0:0:0:
356,236,45407,1,0,0:0:0:0:
424,160,45972,1,0,0:0:0:0:
388,124,46294,1,0,0:0:0:0:
364,140,46617,1,0,0:0:0:0:
300,128,47020,1,0,0:0:0:0:
340,116,47262,1,0,0:0:0:0:
456,252,47826,1,0,0:0:0:0:
388,148,48472,1,0,0:0:0:0:
268,180,49117,1,0,0:0:0:0:
336,148,49520,1,2,0:0:0:0:
336,148,49762,1,2,0:0:0:0:
232,108,50326,1,2,0:0:0:0:
76,180,51617,2,0,P|304:288|448:92,1,525
324,100,54681,2,0,L|192:304,1,227.5
332,168,56697,2,0,L|48:208,1,280
260,176,59117,2,0,L|460:136,1,192.5
380,136,60407,2,0,L|196:184,1,175
292,148,61697,1,0,0:0:0:0:
396,216,62181,2,0,L|216:128,1,192.5
80,128,63794,2,0,B|188:244|444:56|100:36,1,420
128,224,66697,2,0,L|168:192,5,35
376,140,68310,5,0,0:0:0:0:
264,172,68955,1,0,0:0:0:0:
236,180,69117,1,0,0:0:0:0:
120,220,69762,1,0,0:0:0:0:
180,164,71294,5,0,0:0:0:0:
252,184,71697,1,0,0:0:0:0:
324,140,72181,1,0,0:0:0:0:
236,176,72746,1,0,0:0:0:0:
212,184,72907,1,0,0:0:0:0:
176,300,73310,1,0,0:0:0:0:
252,272,73794,1,0,0:0:0:0:
264,228,74036,1,0,0:0:0:0:
168,220,74520,1,0,0:0:0:0:
248,144,75084,1,0,0:0:0:0:
220,172,75326,1,0,0:0:0:0:
332,228,75407,1,0,0:0:0:0:
356,128,75972,1,0,0:0:0:0:
244,120,76617,1,0,0:0:0:0:
192,216,77181,1,0,0:0:0:0:
316,240,77826,1,0,0:0:0:0:
380,172,78310,1,0,0:0:0:0:
248,148,79036,5,0,0:0:0:0:
172,224,79601,1,0,0:0:0:0:
176,216,79681,1,0,0:0:0:0:
192,196,79843,1,0,0:0:0:0:
296,244,80246,1,0,0:0:0:0:
400,160,80972,1,0,0:0:0:0:
312,100,81536,1,0,0:0:0:0:
220,180,82181,1,0,0:0:0:0:
428,192,83310,5,0,0:0:0:0:
284,168,84117,1,0,0:0:0:0:
388,124,84681,1,0,0:0:0:0:
280,124,85246,1,0,0:0:0:0:
292,224,85810,1,4,0:0:0:0:
32,112,86536,5,0,0:0:0:0:
160,120,87181,1,0,0:0:0:0:
260,200,87826,1,0,0:0:0:0:
292,120,88310,1,4,0:0:0:0:
292,200,88714,1,0,0:0:0:0:
292,200,88875,1,0,0:0:0:0:
252,104,89278,1,0,0:0:0:0:
216,172,89681,1,0,0:0:0:0:
360,196,90488,1,0,0:0:0:0:
284,184,90891,1,0,0:0:0:0:
160,72,94278,6,0,B|124:212|356:40|344:148,4,262.5
256,192,99439,12,0,100972,0:0:0:0:
36,164,101617,5,4,0:0:0:0:
136,200,102181,1,4,0:0:0:0:
240,124,102907,1,4,0:0:0:0:
292,204,103391,5,0,0:0:0:0:
200,132,104036,1,0,0:0:0:0:
312,104,104681,1,0,0:0:0:0:
372,212,105326,1,0,0:0:0:0:
268,252,105972,1,0,0:0:0:0:
184,172,106617,1,0,0:0:0:0:
272,140,107101,1,0,0:0:0:0:
364,248,107826,1,0,0:0:0:0:
148,156,109036,1,0,0:0:0:0:
272,184,109762,1,0,0:0:0:0:
188,248,110326,1,0,0:0:0:0:
192,188,110649,1,0,0:0:0:0:
248,168,110972,1,0,0:0:0:0:
312,196,111455,1,0,0:0:0:0:
248,216,111939,1,0,0:0:0:0:
288,104,112343,1,0,0:0:0:0:
340,172,112826,1,0,0:0:0:0:
292,192,113149,1,0,0:0:0:0:
296,144,113391,1,0,0:0:0:0:
296,260,114036,1,0,0:0:0:0:
268,228,114278,1,0,0:0:0:0:
344,208,114681,1,0,0:0:0:0:
384,248,115004,1,0,0:0:0:0:
280,120,115972,1,0,0:0:0:0:
208,116,116375,1,0,0:0:0:0:
196,216,116939,1,0,0:0:0:0:
240,208,117181,1,0,0:0:0:0:
288,52,118068,5,0,0:0:0:0:
140,172,118472,1,0,0:0:0:0:
256,196,119117,1,0,0:0:0:0:
352,152,119681,1,0,0:0:0:0:
244,84,120407,1,0,0:0:0:0:
340,112,120972,1,0,0:0:0:0:
252,308,121617,5,0,0:0:0:0:
328,236,122181,1,0,0:0:0:0:
240,148,122826,1,0,0:0:0:0:
176,252,123472,1,0,0:0:0:0:
288,248,124036,1,0,0:0:0:0:
364,148,124681,1,0,0:0:0:0:
308,140,125004,1,0,0:0:0:0:
264,172,125326,1,0,0:0:0:0:
500,196,126536,5,0,0:0:0:0:
380,140,127262,1,0,0:0:0:0:
272,152,127826,1,0,0:0:0:0:
340,268,128552,1,0,0:0:0:0:
404,180,129117,1,0,0:0:0:0:
404,180,130407,2,0,P|232:56|120:184,1,420
336,280,132746,2,0,L|500:192,1,175
444,192,133794,2,0,B|160:208|304:212,1,227.5
132,124,135810,2,0,P|352:80|456:152,1,350
368,148,137826,5,8,0:0:0:0:
256,192,139117,12,0,139681,0:0:0:0:
216,92,140084,5,8,0:0:0:0:
216,92,140326,1,8,0:0:0:0:
272,128,141133,5,0,0:0:0:0:
268,208,141536,1,0,0:0:0:0:
392,172,142262,1,0,0:0:0:0:
312,112,142826,1,0,0:0:0:0:
204,120,143391,1,0,0:0:0:0:
268,236,144117,1,0,0:0:0:0:
348,160,144681,1,0,0:0:0:0:
232,120,145326,1,0,0:0:0:0:
212,156,145649,1,0,0:0:0:0:
252,196,145972,1,0,0:0:0:0:
292,156,146294,1,0,0:0:0:0:
260,116,146617,1,0,0:0:0:0:
228,160,146939,1,0,0:0:0:0:
240,216,147262,1,0,0:0:0:0:
284,200,147584,1,0,0:0:0:0:
272,136,147907,1,0,0:0:0:0:
104,272,149036,1,0,0:0:0:0:
208,220,149681,1,0,0:0:0:0:
184,96,150326,1,0,0:0:0:0:
128,196,150972,1,0,0:0:0:0:
240,164,151617,1,0,0:0:0:0:
440,24,152907,2,0,B|332:96|212:196|276:188,2,262.5
440,24,155326,2,0,L|244:208,1,262.5
232,188,156697,2,0,P|296:140|360:268,1,262.5
248,132,158794,6,0,B|412:200|412:208|256:224|248:36|412:88,2,350
84,140,162907,2,0,L|344:200,1,262.5
4,84,165972,1,0,0:0:0:0:
120,112,166617,1,0,0:0:0:0:
216,164,167181,1,0,0:0:0:0:
352,156,167907,1,0,0:0:0:0:
280,112,168391,1,0,0:0:0:0:
220,216,169036,1,0,0:0:0:0:
336,208,169681,1,0,0:0:0:0:
404,108,170326,1,0,0:0:0:0:
328,124,170730,5,8,0:0:0:0:
304,128,170891,1,8,0:0:0:0:
172,156,171536,5,0,0:0:0:0:
288,200,172181,1,0,0:0:0:0:
304,136,172504,1,8,0:0:0:0:
304,136,172665,1,8,0:0:0:0:
204,36,173149,5,0,0:0:0:0:
208,72,173391,1,0,0:0:0:0:
240,172,173955,1,0,0:0:0:0:
380,148,174681,1,0,0:0:0:0:
320,132,175004,1,8,0:0:0:0:
320,132,175165,1,8,0:0:0:0:
272,156,175246,5,0,0:0:0:0:
144,172,175891,1,0,0:0:0:0:
264,248,176617,1,0,0:0:0:0:
324,220,177020,1,0,0:0:0:0:
344,204,177181,1,0,0:0:0:0:
304,180,177423,1,0,0:0:0:0:
308,112,177826,1,8,0:0:0:0:
308,112,177988,1,8,0:0:0:0:
128,204,178391,5,0,0:0:0:0:
196,200,178794,1,0,0:0:0:0:
252,164,179197,1,0,0:0:0:0:
352,144,179762,1,0,0:0:0:0:
308,156,180004,1,12,0:0:0:0:
308,96,180326,1,0,0:0:0:0:
308,120,180488,1,0,0:0:0:0:
284,32,181133,5,0,0:0:0:0:
324,80,181455,1,0,0:0:0:0:
336,172,181939,1,0,0:0:0:0:
264,168,182343,1,0,0:0:0:0:
228,108,182746,1,0,0:0:0:0:
264,168,182826,1,12,0:0:0:0:
264,168,182988,1,12,0:0:0:0:
272,292,183714,5,0,0:0:0:0:
220,224,184197,1,0,0:0:0:0:
288,160,184681,1,0,0:0:0:0:
288,160,185084,1,12,0:0:0:0:
288,160,185326,1,12,0:0:0:0:
396,320,185730,5,0,0:0:0:0:
364,308,185972,1,0,0:0:0:0:
316,288,186294,1,0,0:0:0:0:
284,276,186455,1,0,0:0:0:0:
244,260,186697,1,0,0:0:0:0:
184,236,187020,1,0,0:0:0:0:
256,184,187504,1,12,0:0:0:0:
296,152,187826,1,12,0:0:0:0:
256,192,188149,12,0,189681,0:0:0:0:
272,168,190326,5,12,0:0:0:0:
236,144,191214,5,0,0:0:0:0:
288,160,191536,1,0,0:0:0:0:
192,220,192101,1,0,0:0:0:0:
228,88,192826,1,0,0:0:0:0:
316,140,193391,1,0,0:0:0:0:
200,172,194036,1,0,0:0:0:0:
268,168,194439,1,12,0:0:0:0:
268,168,194681,1,12,0:0:0:0:
448,112,195407,2,0,B|216:76|92:200|520:268,1,542.5
428,240,198391,2,0,L|412:88,2,140
308,180,200407,2,0,P|384:76|436:308,1,542.5
384,264,203310,2,0,L|384:108,1,140
364,120,204117,2,0,P|156:136|168:172,1,367.5
188,176,205972,2,0,L|520:64,1,350
88,160,207665,2,0,L|232:344,1,227.5
240,324,208955,2,0,L|236:100,1,210
96,248,210246,2,0,L|344:268,1,245
388,64,211778,2,0,B|12:192|128:244|-260:152|288:200,1,700
304,132,215326,1,0,0:0:0:0:
176,196,215649,1,0,0:0:0:0:
296,244,216052,1,0,0:0:0:0:
364,160,216617,1,0,0:0:0:0:
260,156,217181,1,0,0:0:0:0:
164,244,217907,1,0,0:0:0:0:
248,232,218391,1,0,0:0:0:0:
244,180,218714,1,0,0:0:0:0:
216,164,218875,1,0,0:0:0:0:
180,176,219117,1,0,0:0:0:0:
260,232,219601,1,0,0:0:0:0:
372,140,220407,1,0,0:0:0:0:
264,136,220972,1,0,0:0:0:0:
236,260,221617,1,0,0:0:0:0:
348,212,222262,1,0,0:0:0:0:
308,108,222826,1,0,0:0:0:0:
184,148,223552,1,0,0:0:0:0:
248,240,224117,1,0,0:0:0:0:
336,160,224762,1,0,0:0:0:0:
216,152,225407,1,0,0:0:0:0:
216,152,225730,1,0,0:0:0:0:
284,236,226455,2,0,L|412:180,1,140
376,172,227343,1,0,0:0:0:0:
332,168,227584,1,0,0:0:0:0:
284,152,227907,2,0,B|136:296|456:84|452:84,1,297.5
256,192,230165,12,0,231052,0:0:0:0:
104,168,234439,5,0,0:0:0:0:
132,192,234681,1,0,0:0:0:0:
172,196,234923,1,0,0:0:0:0:
