osu file format v14

[General]
AudioFilename: audio.mp3
AudioLeadIn: 0
PreviewTime: 30605
Countdown: 1
SampleSet: Normal
StackLeniency: 0.7
Mode: 0
LetterboxInBreaks: 0
WidescreenStoryboard: 1

[Editor]
DistanceSpacing: 0.7
BeatDivisor: 4
GridSize: 4
TimelineZoom: 2.3

[Metadata]
Title:Shape Of You ( cover by J.Fla )
TitleUnicode:Shape Of You ( cover by J.Fla )
Artist:Ed Sheeran
ArtistUnicode:Ed Sheeran
Creator:cRyo[iceeicee]
Version:Insane
Source:
Tags:2 7 4 SS
BeatmapID:1256777
BeatmapSetID:594154

[Difficulty]
HPDrainRate:7.5
CircleSize:4.2
OverallDifficulty:8.5
ApproachRate:9.2
SliderMultiplier:1.5
SliderTickRate:1

[Events]
//Background and Video events
0,0,"BG.jpg",0,0
//Break Periods
//Storyboard Layer 0 (Background)
//Storyboard Layer 1 (Fail)
//Storyboard Layer 2 (Pass)
//Storyboard Layer 3 (Foreground)
//Storyboard Sound Samples

[TimingPoints]
59,312.5,4,2,1,100,1,0
59,-133.333333333333,4,2,1,30,0,0
26152,-90.9090909090909,4,2,1,30,0,0
26252,-133.333333333333,4,2,1,30,0,0
30684,-117.647058823529,4,2,1,30,0,0
48184,-100,4,2,1,35,0,0
49434,-133.333333333333,4,2,1,35,0,0
49746,-133.333333333333,4,1,5,70,0,0
50684,-117.647058823529,4,2,1,30,0,0
65684,-200,4,2,1,30,0,0
65784,-117.647058823529,4,2,1,30,0,0
70684,-133.333333333333,4,1,2,27,0,0
71309,-117.647058823529,4,1,2,30,0,0
71934,-95.2380952380952,4,1,2,32,0,0
72559,-68.9655172413793,4,1,2,35,0,0
73184,-117.647058823529,4,1,1,30,0,0
75684,-133.333333333333,4,1,2,27,0,0
76309,-117.647058823529,4,1,2,30,0,0
76934,-95.2380952380951,4,1,2,30,0,0
77559,-71.4285714285714,4,1,2,35,0,0
78184,-117.647058823529,4,1,1,30,0,0
80684,-133.333333333333,4,1,2,27,0,0
81309,-117.647058823529,4,1,2,30,0,0
81934,-95.2380952380951,4,1,2,30,0,0
82559,-71.4285714285714,4,1,2,35,0,0
83184,-117.647058823529,4,1,1,30,0,0
85762,-117.647058823529,4,1,1,30,0,0
90293,-133.333333333333,4,1,1,30,0,0
98184,-133.333333333333,4,1,1,30,0,0
106152,-100,4,1,1,30,0,0
106252,-133.333333333333,4,1,1,30,0,0
110684,-117.647058823529,4,1,1,30,0,0
128184,-100,4,1,1,30,0,0
129746,-117.647058823529,4,1,1,25,0,0
130684,-117.647058823529,4,1,1,30,0,0
145684,-200,4,1,1,30,0,0
145762,-117.647058823529,4,1,1,30,0,0
150684,-133.333333333333,4,1,2,27,0,0
151309,-117.647058823529,4,1,2,30,0,0
151934,-95.238095238095,4,1,2,30,0,0
152559,-71.4285714285714,4,1,2,35,0,0
153184,-117.647058823529,4,1,1,30,0,0
155684,-133.333333333333,4,1,2,27,0,0
156309,-117.647058823529,4,1,2,30,0,0
156934,-95.2380952380951,4,1,2,30,0,0
157559,-71.4285714285714,4,1,2,35,0,0
158184,-117.647058823529,4,1,1,30,0,0
160684,-133.333333333333,4,1,2,27,0,0
161309,-117.647058823529,4,1,2,30,0,0
161934,-95.2380952380951,4,1,2,30,0,0
162559,-71.4285714285714,4,1,2,35,0,0
163184,-117.647058823529,4,1,1,30,0,0

[Colours]
Combo1 : 255,232,159
Combo2 : 255,183,219
Combo3 : 170,208,255
Combo4 : 251,170,182

[HitObjects]
116,120,684,5,2,0:0:0:0:
32,272,840,1,0,0:0:0:0:
148,228,996,1,0,0:0:0:0:
80,184,1152,2,0,L|96:48,1,112.500004291535,2|0,0:0|3:0,0:0:0:0:
93,72,1621,2,0,L|148:61,1,56.2500021457673,2|0,0:0|3:0,0:0:0:0:
432,176,1934,5,2,0:0:0:0:
303,138,2090,1,0,0:0:0:0:
376,232,2246,1,0,0:0:0:0:
316,26,2402,2,0,L|303:138,1,112.500004291535,2|0,0:0|3:0,0:0:0:0:
296,193,2871,2,0,L|303:138,1,56.2500021457673,2|0,0:0|3:0,0:0:0:0:
94,269,3184,5,2,0:0:0:0:
171,327,3340,1,0,0:0:0:0:
196,176,3496,1,0,0:0:0:0:
37,261,3652,2,0,L|153:276,1,112.500004291535,2|0,0:0|3:0,0:0:0:0:
149,276,4121,2,0,P|159:301|173:332,1,56.2500021457673,2|0,0:0|3:0,0:0:0:0:
376,216,4434,5,2,0:0:0:0:
292,256,4590,1,0,0:0:0:0:
436,304,4746,1,0,0:0:0:0:
353,326,4902,2,0,L|376:216,1,112.500004291535,2|0,0:0|3:0,0:0:0:0:
358,162,5371,2,0,L|376:216,1,56.2500021457673,2|0,0:0|3:0,0:0:0:0:
312,48,5684,5,0,1:0:0:0:
84,188,6152,1,0,1:0:0:0:
84,188,6621,6,0,L|144:196,1,56.2500021457673,0|0,1:0|3:0,0:0:0:0:
392,224,6934,1,0,1:0:0:0:
304,272,7246,1,2,3:3:0:0:
304,272,7402,2,0,L|320:156,1,112.500004291535,0|0,1:0|3:0,0:0:0:0:
368,96,7871,5,2,1:3:0:0:
240,192,8027,1,2,0:3:0:0:
396,264,8184,2,0,L|464:244,1,56.2500021457673,0|0,1:0|3:0,0:0:0:0:
340,56,8496,1,2,0:3:0:0:
319,160,8652,2,0,L|310:215,1,56.2500021457673,0|0,1:0|3:0,0:0:0:0:
176,320,8965,5,2,3:0:0:0:
92,264,9121,1,0,1:0:0:0:
88,260,9199,1,2,3:0:0:0:
84,256,9277,1,2,3:0:0:0:
244,188,9434,5,0,1:0:0:0:
120,120,9590,1,2,0:3:0:0:
196,68,9746,1,2,3:0:0:0:
240,212,9902,1,0,1:3:0:0:
320,128,10059,1,2,3:3:0:0:
168,192,10215,5,8,0:3:0:0:
316,232,10371,1,4,1:3:0:0:
236,32,10527,1,4,0:3:0:0:
32,144,10684,6,0,L|124:124,1,84.3750032186509,0|0,1:0|0:0,0:0:0:0:
120,124,10996,1,2,0:2:0:0:
128,120,11152,1,2,0:2:0:0:
268,256,11309,1,8,0:2:0:0:
372,180,11465,6,0,P|344:183|320:198,1,56.2500021457673,0|0,1:1|3:0,0:0:0:0:
300,356,11777,2,0,P|320:332|328:288,1,56.2500021457673,0|0,1:1|0:0,0:0:0:0:
172,260,12090,5,2,0:1:0:0:
160,264,12168,1,2,0:1:0:0:
148,268,12246,1,2,0:1:0:0:
72,216,12402,1,2,2:3:0:0:
200,340,12559,1,8,0:2:0:0:
256,248,12715,1,2,0:3:0:0:
196,356,12871,5,2,0:2:0:0:
120,136,13027,1,2,0:2:0:0:
279,243,13184,2,0,L|390:224,1,112.500004291535,0|2,1:0|2:3,0:0:0:0:
390,224,13809,5,8,0:0:0:0:
175,145,13965,2,0,L|101:133,1,56.2500021457673,2|0,0:2|3:0,0:0:0:0:
260,60,14277,2,0,L|371:41,1,112.500004291535,0|0,1:0|3:3,0:0:0:0:
464,204,14746,1,0,1:2:0:0:
376,160,14902,1,2,0:3:0:0:
388,144,14980,1,2,0:3:0:0:
400,128,15059,1,2,0:3:0:0:
484,212,15215,1,0,1:0:0:0:
324,96,15371,5,8,2:0:0:0:
268,308,15527,1,8,0:2:0:0:
148,220,15684,6,0,L|160:144,1,56.2500021457673,0|0,1:0|0:0,0:0:0:0:
168,80,15996,1,2,2:0:0:0:
304,44,16152,2,0,L|249:58,1,56.2500021457673,0|0,1:0|0:0,0:0:0:0:
402,135,16465,2,0,L|456:120,1,56.2500021457673,0|0,1:0|0:0,0:0:0:0:
280,192,16777,5,2,0:0:0:0:
312,52,16934,1,0,1:0:0:0:
448,196,17090,1,0,1:0:0:0:
288,164,17246,1,2,0:3:0:0:
456,120,17402,1,2,0:3:0:0:
336,52,17559,2,0,L|348:112,1,56.2500021457673,8|0,0:2|0:0,0:0:0:0:
392,280,17871,5,0,1:3:0:0:
220,240,18027,1,0,1:3:0:0:
309,349,18184,2,0,P|314:320|320:279,1,56.2500021457673,0|0,1:0|0:0,0:0:0:0:
240,160,18496,5,2,0:3:0:0:
122,269,18652,2,0,L|189:249,1,56.2500021457673,0|0,1:0|2:0,0:0:0:0:
312,200,18965,2,0,L|320:128,1,56.2500021457673,2|0,0:3|1:0,0:0:0:0:
328,68,19277,1,2,2:0:0:0:
240,160,19434,5,0,1:0:0:0:
396,180,19590,1,2,3:0:0:0:
236,172,19746,1,2,2:3:0:0:
369,274,19902,2,0,P|419:256|475:237,1,112.500004291535,0|2,1:3|2:1,2:3:0:0:
475,237,20293,1,2,2:1:0:0:
475,237,20371,1,2,2:1:0:0:
372,124,20527,5,2,0:2:0:0:
300,232,20684,1,0,1:0:0:0:
236,172,20840,1,0,0:0:0:0:
164,280,20996,1,2,0:3:0:0:
44,148,21152,2,0,L|52:92,1,56.2500021457673,0|0,1:2|0:0,0:0:0:0:
208,96,21465,5,2,2:2:0:0:
28,228,21621,1,2,0:1:0:0:
160,256,21777,1,2,0:1:0:0:
136,112,21934,1,0,1:1:0:0:
56,220,22090,1,2,3:3:0:0:
264,292,22246,1,2,2:2:0:0:
52,340,22402,5,4,3:2:0:0:
248,284,22715,5,2,2:0:0:0:
144,180,23027,5,2,0:0:0:0:
247,163,23184,2,0,L|358:144,1,112.500004291535,0|2,1:0|0:1,0:0:0:0:
358,144,23574,1,2,0:1:0:0:
358,144,23652,1,2,2:1:0:0:
344,348,23809,5,8,0:2:0:0:
344,348,23965,2,0,L|356:220,1,112.500004291535,2|2,0:0|0:0,0:0:0:0:
280,160,24434,2,0,B|276:124|295:93|295:93|286:69|296:29,1,112.500004291535,0|0,1:0|0:0,0:0:0:0:
176,120,24902,2,0,P|124:120|72:72,1,112.500004291535,0|0,1:0|0:0,0:0:0:0:
84,72,25371,5,2,0:0:0:0:
212,184,25527,1,2,0:0:0:0:
86,295,25684,2,0,L|194:264,1,112.500004291535,0|0,1:0|0:0,0:0:0:0:
195,264,26152,6,0,P|203:223|212:183,1,82.5000025177003,2|0,2:0|0:2,0:0:0:0:
292,245,26465,5,2,2:3:0:0:
116,213,26621,1,0,1:3:0:0:
292,121,26777,1,2,2:3:0:0:
112,201,26934,1,0,1:0:0:0:
328,308,27090,1,2,0:2:0:0:
192,221,27246,1,8,0:2:0:0:
388,148,27402,6,0,P|431:164|390:167,1,112.500004291535,0|2,1:0|3:1,0:0:0:0:
388,180,27793,1,2,3:1:0:0:
376,153,27871,1,2,3:1:0:0:
244,304,28027,5,2,0:2:0:0:
160,312,28184,2,0,L|80:296,1,56.2500021457673,0|0,1:0|0:0,0:0:0:0:
328,292,28496,2,0,L|383:303,1,56.2500021457673,2|0,0:3|0:0,0:0:0:0:
440,206,28809,2,0,P|433:145|424:74,1,112.500004291535,8|0,0:0|1:2,0:0:0:0:
204,232,29277,1,0,1:0:0:0:
212,224,29590,5,0,1:0:0:0:
60,176,29746,1,2,0:2:0:0:
152,280,29902,1,0,0:3:0:0:
224,112,30059,1,8,0:2:0:0:
136,200,30215,1,2,0:3:0:0:
316,276,30371,1,4,0:2:0:0:
388,352,30684,6,0,L|404:208,1,127.50000243187,4|2,1:0|0:1,0:0:0:0:
336,184,31100,1,2,0:1:0:0:
336,184,31204,1,2,0:1:0:0:
336,184,31309,2,0,L|344:104,1,63.7500012159348,0|0,1:0|0:0,0:0:0:0:
224,52,31621,6,0,L|160:80,1,63.7500012159348,8|0,1:2|0:0,0:0:0:0:
76,208,31934,2,0,L|148:240,1,63.7500012159348,0|0,1:0|0:0,0:0:0:0:
228,72,32246,2,0,L|164:100,1,63.7500012159348,2|0,0:2|0:0,0:0:0:0:
59,199,32559,6,0,L|46:326,1,127.50000243187,4|0,3:2|1:2,0:0:0:0:
46,326,33184,1,0,1:0:0:0:
171,168,33340,2,0,L|179:88,1,63.7500012159348,2|0,0:2|0:0,0:0:0:0:
332,208,33652,1,2,3:1:0:0:
332,208,33730,1,0,1:1:0:0:
332,208,33809,2,0,L|268:244,1,63.7500012159348,0|0,1:0|0:0,0:0:0:0:
308,68,34121,2,0,L|380:79,1,63.7500012159348,4|0,2:2|0:0,0:0:0:0:
468,224,34434,6,0,L|456:296,1,63.7500012159348,0|0,1:0|0:0,0:0:0:0:
332,208,34746,2,0,L|322:145,1,63.7500012159348,2|0,0:0|0:0,0:0:0:0:
456,104,35059,5,0,1:3:0:0:
322,145,35215,1,0,1:0:0:0:
460,41,35371,2,0,L|456:104,1,63.7500012159348,4|0,0:2|0:0,0:0:0:0:
240,204,35684,2,0,L|248:72,1,127.50000243187,4|2,1:1|3:1,0:0:0:0:
248,77,36074,1,0,1:1:0:0:
248,77,36152,1,2,3:1:0:0:
114,181,36309,21,0,1:0:0:0:
272,289,36465,1,2,2:0:0:0:
100,317,36621,2,0,L|108:249,1,63.7500012159348,4|0,3:2|3:0,0:0:0:0:
248,77,36934,1,0,1:0:0:0:
114,181,37090,1,2,2:0:0:0:
262,213,37246,2,0,L|254:137,1,63.7500012159348,2|0,2:3|0:0,0:0:0:0:
120,152,37559,6,0,L|48:140,1,63.7500012159348,0|0,1:0|0:0,0:0:0:0:
392,232,37871,1,4,2:0:0:0:
204,340,38184,5,0,1:0:0:0:
266,251,38340,2,0,P|328:242|394:231,1,127.50000243187,2|2,0:0|3:1,0:0:0:0:
392,232,38730,1,0,1:0:0:0:
392,232,38809,2,0,P|399:198|408:164,1,63.7500012159348,0|0,1:0|0:0,0:0:0:0:
312,100,39121,2,0,P|302:67|292:28,1,63.7500012159348,4|0,2:0|0:0,0:0:0:0:
48,168,39434,6,0,L|156:148,1,95.6250018239022,0|0,1:0|0:0,0:0:0:0:
208,112,39746,2,0,P|187:89|145:76,1,63.7500012159348,4|0,0:3|0:0,0:0:0:0:
28,172,40059,5,4,1:3:0:0:
208,192,40215,1,8,0:3:0:0:
88,92,40371,1,4,0:2:0:0:
60,272,40527,1,4,0:3:0:0:
246,261,40684,2,0,L|262:125,1,127.50000243187,4|0,1:0|2:0,0:0:0:0:
320,80,41152,5,2,3:1:0:0:
320,80,41230,1,0,1:2:0:0:
320,80,41309,2,0,P|349:68|388:48,1,63.7500012159348,0|0,1:0|0:0,0:0:0:0:
474,164,41621,2,0,P|468:199|463:234,1,63.7500012159348,4|0,1:2|0:0,0:0:0:0:
352,340,41934,2,0,P|343:308|331:261,1,63.7500012159348,0|0,1:0|0:0,0:0:0:0:
184,251,42246,5,2,0:0:0:0:
306,211,42402,1,4,0:3:0:0:
184,171,42559,1,0,1:0:0:0:
260,276,42715,1,2,0:0:0:0:
260,147,42871,2,0,P|269:113|280:72,1,63.7500012159348,4|0,0:2|0:0,0:0:0:0:
200,324,43184,5,0,1:2:0:0:
332,280,43340,2,0,P|365:285|408:292,1,63.7500012159348,2|0,0:0|0:0,0:0:0:0:
192,344,43652,1,0,1:0:0:0:
152,200,43809,2,0,L|136:120,1,63.7500012159348,0|0,1:3|0:0,0:0:0:0:
307,56,44121,2,0,L|319:118,1,63.7500012159348,4|0,2:2|0:0,0:0:0:0:
364,268,44434,6,0,P|320:264|256:256,1,95.6250018239022,0|0,1:2|0:0,0:0:0:0:
189,264,44746,2,0,P|201:231|217:191,1,63.7500012159348,2|0,0:2|0:0,0:0:0:0:
192,60,45059,5,0,1:0:0:0:
240,328,45215,1,4,0:3:0:0:
216,196,45371,2,0,L|204:128,1,63.7500012159348,4|0,1:2|3:0,1:0:0:0:
24,240,45684,2,0,P|82:228|116:193,1,95.6250018239022,4|0,1:1|3:0,0:0:0:0:
132,136,45996,2,0,L|120:68,1,63.7500012159348,2|0,3:3|3:0,0:0:0:0:
380,129,46309,5,0,1:0:0:0:
280,252,46465,1,2,2:2:0:0:
420,232,46621,2,0,L|504:216,1,63.7500012159348,4|0,2:0|0:0,0:0:0:0:
136,288,46934,5,0,1:0:0:0:
283,164,47090,1,2,2:2:0:0:
146,225,47246,2,0,L|135:287,1,63.7500012159348,0|0,1:1|0:0,0:0:0:0:
232,368,47559,2,0,L|208:292,1,63.7500012159348,0|0,1:3|0:0,0:0:0:0:
72,180,47871,2,0,L|84:100,1,63.7500012159348,4|0,3:2|2:0,1:0:0:0:
440,76,48184,5,4,1:0:0:0:
276,188,48340,1,2,2:2:0:0:
424,168,48496,2,0,L|349:178,1,75,2|0,2:2|3:0,1:0:0:0:
48,196,48809,1,8,2:2:0:0:
212,304,48965,1,2,0:2:0:0:
64,288,49121,2,0,L|142:296,1,75,2|0,3:3|3:3,3:3:0:0:
372,324,49434,1,2,3:1:0:0:
408,252,49746,6,0,B|408:219|408:196|408:196|376:252,3,112.500004291535,0|0|0|0,2:3|2:3|2:3|1:3,2:3:0:0:
336,164,50840,5,2,0:3:0:0:
344,148,50918,1,2,0:3:0:0:
354,132,50996,1,2,0:3:0:0:
392,48,51152,1,2,1:2:0:0:
308,64,51309,1,0,1:0:0:0:
220,84,51465,1,2,0:3:0:0:
120,256,51621,21,2,0:0:0:0:
32,160,51777,1,0,0:0:0:0:
36,344,51934,2,0,L|52:272,1,63.7500012159348,0|2,1:0|0:1,0:0:0:0:
48,272,52168,1,2,0:1:0:0:
44,264,52246,1,2,0:1:0:0:
160,44,52402,5,2,1:2:0:0:
196,192,52559,2,0,L|212:260,1,63.7500012159348,0|0,1:0|0:0,0:0:0:0:
336,312,52871,2,0,L|273:301,1,63.7500012159348,4|0,3:2|3:0,1:0:0:0:
68,200,53184,5,0,1:0:0:0:
210,254,53340,1,4,3:3:0:0:
132,112,53496,1,0,1:0:0:0:
8,252,53652,2,0,L|148:224,1,127.50000243187,8|2,0:2|0:1,0:0:0:0:
140,220,54043,1,2,0:1:0:0:
148,212,54121,1,2,0:1:0:0:
244,89,54277,5,2,2:0:0:0:
388,206,54434,2,0,L|264:232,1,127.50000243187,0|0,1:0|1:0,0:0:0:0:
208,296,54902,1,0,1:2:0:0:
320,356,55059,6,0,L|336:280,1,63.7500012159348,0|0,1:0|0:0,0:0:0:0:
232,152,55371,2,0,L|248:72,1,63.7500012159348,4|0,0:2|0:0,0:0:0:0:
23,219,55684,2,0,L|149:194,1,127.50000243187,0|2,1:2|3:1,0:0:0:0:
148,194,56074,1,2,0:1:0:0:
148,194,56152,1,2,0:1:0:0:
148,194,56230,1,2,0:1:0:0:
148,194,56309,1,0,1:1:0:0:
344,112,56465,5,2,0:0:0:0:
164,88,56621,1,4,0:2:0:0:
328,220,56777,1,8,0:2:0:0:
180,320,56934,2,0,L|192:252,1,63.7500012159348,0|0,1:0|3:0,1:0:0:0:
352,212,57246,1,2,3:1:0:0:
376,204,57324,1,2,3:1:0:0:
400,196,57402,1,2,3:1:0:0:
424,188,57480,1,2,3:1:0:0:
448,180,57559,6,0,L|460:104,1,63.7500012159348,0|0,1:0|0:0,0:0:0:0:
344,56,57871,2,0,L|280:72,1,63.7500012159348,4|0,0:2|0:0,0:0:0:0:
80,168,58184,2,0,L|72:104,1,63.7500012159348,0|0,1:0|3:0,0:0:0:0:
72,312,58496,1,2,0:1:0:0:
72,312,58574,1,2,0:1:0:0:
72,312,58652,1,2,0:1:0:0:
72,312,58730,1,2,0:1:0:0:
72,312,58809,2,0,L|84:228,1,63.7500012159348,2|0,0:1|0:0,0:0:0:0:
316,216,59121,5,0,1:0:0:0:
164,100,59277,1,0,1:0:0:0:
224,256,59434,2,0,L|236:192,1,63.7500012159348,4|0,0:2|0:0,0:0:0:0:
120,24,59746,5,0,1:0:0:0:
120,176,59902,1,0,1:0:0:0:
252,96,60059,2,0,B|279:92|298:81|298:81|347:85|387:54,2,127.50000243187,4|0|0,0:2|1:2|1:0,0:0:0:0:
184,184,60840,5,2,0:3:0:0:
180,212,60918,1,2,0:3:0:0:
176,240,60996,1,2,0:3:0:0:
104,332,61152,1,4,1:3:0:0:
256,240,61309,1,0,1:0:0:0:
104,184,61465,1,2,0:3:0:0:
248,320,61621,6,0,L|320:300,1,63.7500012159348,4|0,0:2|0:0,0:0:0:0:
480,224,61934,2,0,L|364:204,1,95.6250018239022,0|0,1:0|0:0,0:0:0:0:
376,208,62246,1,0,1:3:0:0:
196,104,62402,1,2,1:2:0:0:
256,240,62559,6,0,P|262:209|273:157,1,63.7500012159348,0|0,1:3|3:3,1:3:0:0:
104,80,62871,2,0,L|120:164,1,63.7500012159348,4|0,0:2|0:0,0:0:0:0:
272,96,63184,2,0,B|312:88|312:88|358:88|358:88|416:76,1,127.50000243187,0|2,1:0|0:1,0:0:0:0:
376,72,63574,1,2,0:1:0:0:
354,67,63652,1,2,0:1:0:0:
333,62,63730,1,2,0:1:0:0:
312,57,63809,1,0,0:1:0:0:
208,272,63965,5,2,0:2:0:0:
152,156,64121,1,4,0:2:0:0:
344,248,64277,1,0,0:0:0:0:
152,328,64434,6,0,P|100:318|52:308,1,95.6250018239022,0|0,1:0|0:0,0:0:0:0:
0,236,64746,2,0,L|65:224,1,63.7500012159348,4|0,0:2|0:0,0:0:0:0:
248,184,65059,6,0,L|264:84,1,95.6250018239022,0|0,1:0|0:0,0:0:0:0:
328,24,65371,2,0,P|336:54|348:96,1,63.7500012159348,4|0,0:2|0:0,0:0:0:0:
328,288,65684,6,0,L|260:276,1,56.25,4|0,1:1|0:0,0:0:0:0:
256,268,65996,5,2,0:2:0:0:
320,204,66152,1,2,0:2:0:0:
344,292,66309,1,0,1:0:0:0:
240,256,66465,5,2,0:3:0:0:
336,188,66621,1,4,0:2:0:0:
448,328,66777,1,2,2:2:0:0:
488,172,66934,2,0,L|504:96,1,63.7500012159348,0|0,1:0|0:0,0:0:0:0:
332,112,67246,6,0,P|328:77|324:32,1,63.7500012159348,2|0,0:2|0:0,0:0:0:0:
232,172,67559,2,0,P|204:150|176:124,1,63.7500012159348,2|0,1:2|0:0,0:0:0:0:
26,295,67871,1,2,0:1:0:0:
57,300,67949,1,2,0:1:0:0:
89,299,68027,1,2,0:1:0:0:
120,293,68105,1,2,0:1:0:0:
149,279,68184,2,0,P|87:274|20:300,1,127.50000243187,0|2,1:0|3:1,0:0:0:0:
20,288,68574,5,0,1:0:0:0:
64,160,68730,1,2,3:1:0:0:
64,160,68809,2,0,L|76:80,1,63.7500012159348,0|0,1:0|0:0,0:0:0:0:
312,96,69121,5,0,1:0:0:0:
236,272,69277,1,2,0:2:0:0:
144,200,69434,2,0,L|220:184,1,63.7500012159348,4|0,0:2|0:0,0:0:0:0:
308,340,69746,5,0,1:0:0:0:
152,308,69902,1,2,0:2:0:0:
224,184,70059,2,0,B|317:166|317:166|284:148,1,127.50000243187,4|0,0:2|1:0,0:0:0:0:
339,95,70527,1,0,1:0:0:0:
484,160,70684,6,2,B|446:179|446:179|401:175,1,84.3750032186509,0|2,0:0|3:1,0:0:0:0:
339,95,70996,2,0,B|377:76|377:76|422:80,1,84.3750032186509,2|0,0:0|3:1,0:0:0:0:
419,80,71309,6,2,L|404:174,1,95.6250018239022,0|2,0:0|3:1,0:0:0:0:
275,253,71621,2,2,L|290:159,1,95.6250018239022,0|2,0:0|3:1,0:0:0:0:
403,174,71934,6,2,B|347:150|347:150|288:160,1,118.124996395111,0|2,0:0|3:1,0:0:0:0:
209,301,72246,2,2,B|265:325|265:325|324:315,1,118.124996395111,2|2,0:0|3:1,0:0:0:0:
403,174,72559,6,2,L|318:322,1,163.12500497818,2|2,0:0|3:1,0:0:0:0:
109,210,72871,2,2,L|194:62,1,163.12500497818,2|0,0:1|3:1,0:0:0:0:
360,120,73184,5,0,1:0:0:0:
288,156,73340,1,4,3:3:0:0:
292,80,73496,1,4,3:3:0:0:
468,288,73652,5,8,0:2:0:0:
420,196,73809,2,0,L|436:128,1,63.7500012159348,0|0,0:0|3:0,0:0:0:0:
236,268,74121,5,8,2:1:0:0:
368,308,74277,1,2,2:0:0:0:
260,216,74434,2,0,L|184:228,1,63.7500012159348,4|0,2:0|3:0,0:0:0:0:
68,288,74746,5,0,0:3:0:0:
32,136,74902,1,2,2:0:0:0:
192,192,75059,2,0,B|284:176|284:176|264:216,1,127.50000243187,4|8,2:0|1:3,0:0:0:0:
232,280,75527,1,4,0:3:0:0:
496,291,75684,6,2,P|493:249|471:214,1,84.3750032186509,0|2,0:0|3:1,0:0:0:0:
388,200,75996,2,0,L|471:215,1,84.3750032186509,2|0,0:0|3:1,0:0:0:0:
418,114,76309,6,2,P|414:161|388:200,1,95.6250018239022,0|2,0:0|3:1,0:0:0:0:
295,219,76621,2,2,L|394:200,1,95.6250018239022,0|2,0:0|3:1,0:0:0:0:
331,326,76934,6,2,P|326:262|292:217,1,118.124996395111,0|2,0:0|3:1,0:0:0:0:
178,198,77246,2,2,L|327:225,1,118.124996395111,2|2,0:0|3:1,0:0:0:0:
127,65,77559,6,2,P|180:123|173:207,1,157.499995193482,2|2,0:0|3:1,0:0:0:0:
22,227,77871,2,2,L|198:194,1,157.499995193482,2|0,0:1|3:1,0:0:0:0:
272,132,78184,5,0,1:0:0:0:
348,140,78340,1,2,2:3:0:0:
424,152,78496,1,2,2:3:0:0:
496,320,78652,5,8,2:0:0:0:
400,252,78809,2,0,P|363:256|326:273,1,63.7500012159348,0|0,0:0|3:0,0:0:0:0:
191,318,79121,6,0,P|196:285|207:237,1,63.7500012159348,8|2,2:1|2:2,0:0:0:0:
256,196,79355,1,2,2:2:0:0:
256,196,79434,2,0,P|250:163|240:126,1,63.7500012159348,4|0,2:0|3:0,0:0:0:0:
12,184,79746,5,0,1:3:0:0:
172,112,79902,1,2,2:0:0:0:
100,40,80059,2,0,L|88:188,1,127.50000243187,4|8,2:0|0:3,0:0:0:0:
80,292,80527,1,4,0:3:0:0:
208,240,80684,6,2,L|220:150,1,84.3750032186509,0|2,0:0|3:1,0:0:0:0:
280,268,80996,2,0,B|270:296|270:296|211:322,1,84.3750032186509,2|0,0:0|3:1,0:0:0:0:
188,220,81309,6,2,L|203:102,1,95.6250018239022,0|2,0:0|3:1,0:0:0:0:
339,223,81621,2,2,B|359:255|359:255|338:332,1,95.6250018239022,0|2,0:0|3:1,0:0:0:0:
168,200,81934,6,2,L|183:82,1,118.124996395111,0|2,0:0|3:1,0:0:0:0:
348,152,82246,2,2,B|387:158|387:158|429:224,1,118.124996395111,2|2,0:0|3:0,0:0:0:0:
148,180,82559,6,2,L|170:12,1,157.499995193482,2|2,0:0|3:1,0:0:0:0:
380,84,82871,2,2,B|435:93|435:93|494:185,1,157.499995193482,2|0,0:0|3:1,0:0:0:0:
368,332,83184,6,0,B|379:291|376:245|376:245|420:272,1,127.50000243187,4|0,2:0|0:0,0:0:0:0:
312,188,83652,1,8,2:2:0:0:
312,188,83730,1,8,2:2:0:0:
312,188,83809,2,0,L|240:200,1,63.7500012159348,0|0,1:0|3:0,0:0:0:0:
48,320,84121,5,8,2:1:0:0:
172,208,84277,1,2,2:0:0:0:
52,152,84434,2,0,L|76:228,1,63.7500012159348,4|0,2:0|3:0,0:0:0:0:
180,200,84746,5,0,0:2:0:0:
156,64,84902,1,2,2:0:0:0:
48,168,85059,2,0,B|77:265|77:265|52:260,2,127.50000243187,4|2|0,2:0|0:2|0:0,0:0:0:0:
140,104,85840,5,2,3:3:0:0:
148,84,85918,1,2,3:3:0:0:
156,64,85996,1,0,0:0:0:0:
260,128,86152,1,2,2:0:0:0:
176,184,86309,1,0,0:0:0:0:
268,48,86465,5,2,2:0:0:0:
352,188,86621,1,0,0:0:0:0:
216,156,86777,1,2,2:0:0:0:
400,124,86934,2,0,P|426:162|426:210,1,95.6250018239022,4|0,2:0|3:0,0:0:0:0:
448,288,87246,6,0,L|524:268,1,63.7500012159348,0|0,0:0|3:0,0:0:0:0:
352,188,87559,2,0,L|276:208,1,63.7500012159348,0|0,0:0|3:0,0:0:0:0:
112,284,87871,2,0,P|160:300|220:300,1,95.6250018239022,2|0,0:2|3:0,0:0:0:0:
205,302,88184,2,0,P|137:306|89:365,1,127.50000243187,0|0,0:0|2:1,0:0:0:0:
32,208,88652,1,8,2:2:0:0:
32,208,88730,1,2,2:3:0:0:
32,208,88809,2,0,L|48:120,1,63.7500012159348,0|0,0:0|3:0,0:0:0:0:
192,88,89121,5,0,0:0:0:0:
256,228,89277,1,2,2:0:0:0:
120,176,89434,2,0,L|108:64,1,95.6250018239022,4|0,2:0|3:0,0:0:0:0:
96,72,89746,5,0,0:0:0:0:
16,212,89902,1,8,2:0:0:0:
104,272,90059,2,0,P|108:236|116:200,1,63.7500012159348,0|0,0:0|3:0,0:0:0:0:
216,232,90371,2,0,P|228:204|248:172,1,56.2500021457673,4|0,2:0|3:0,0:0:0:0:
288,92,90684,1,0,0:0:0:0:
404,272,90840,5,2,2:2:0:0:
400,276,91152,1,2,2:0:0:0:
396,284,91465,5,2,2:0:0:0:
268,244,91621,1,0,0:0:0:0:
364,208,91777,1,0,0:0:0:0:
200,164,91934,1,2,2:0:0:0:
236,256,92090,1,2,3:3:0:0:
336,200,92246,1,0,0:0:0:0:
208,92,92402,2,0,L|216:28,1,56.2500021457673,2|0,2:0|3:0,0:0:0:0:
272,140,92715,5,0,0:0:0:0:
136,120,92871,1,2,2:0:0:0:
268,160,93027,1,2,2:3:0:0:
296,56,93184,1,0,1:0:0:0:
360,204,93340,1,2,2:3:0:0:
192,188,93496,2,0,L|124:196,1,56.2500021457673,2|0,2:0|3:0,0:0:0:0:
36,208,93809,1,0,0:0:0:0:
276,288,93965,5,2,2:0:0:0:
88,336,94277,5,2,2:0:0:0:
104,264,94590,5,2,2:0:0:0:
184,288,94746,1,0,1:0:0:0:
268,308,94902,1,2,2:0:0:0:
384,232,95215,5,2,2:0:0:0:
396,216,95293,1,2,2:0:0:0:
408,200,95371,2,0,L|416:136,1,56.2500021457673
280,36,95684,2,0,L|267:155,1,112.500004291535
172,120,96152,2,0,L|108:136,1,56.2500021457673,2|0,2:0|3:0,0:0:0:0:
52,300,96465,5,2,2:2:0:0:
128,280,96621,1,0,1:3:0:0:
204,260,96777,2,0,L|209:204,1,56.2500021457673,0|0,1:2|3:0,0:0:0:0:
384,200,97090,5,2,2:2:0:0:
308,220,97246,1,0,1:3:0:0:
232,240,97402,2,0,L|227:296,1,56.2500021457673,0|0,1:2|3:0,0:0:0:0:
160,140,97715,5,2,2:0:0:0:
104,216,97871,1,0,0:0:0:0:
48,92,98027,1,2,2:0:0:0:
176,138,98184,2,0,L|272:126,1,84.3750032186509,0|0,0:0|3:0,0:0:0:0:
272,120,98496,5,2,2:2:0:0:
160,140,98652,1,2,3:3:0:0:
284,112,98809,1,2,2:2:0:0:
144,132,98965,1,2,3:3:0:0:
208,36,99121,5,0,0:0:0:0:
240,296,99277,1,2,2:0:0:0:
48,256,99746,5,8,2:2:0:0:
236,160,99902,1,8,2:0:0:0:
404,292,100059,1,8,2:0:0:0:
432,200,100215,5,2,2:0:0:0:
424,180,100293,1,2,2:0:0:0:
416,160,100371,1,2,2:0:0:0:
260,236,100527,1,4,3:3:0:0:
300,128,100684,5,4,1:2:0:0:
308,108,100840,1,2,2:2:0:0:
252,260,100996,1,0,0:0:0:0:
176,104,101152,5,0,1:3:0:0:
168,84,101309,1,2,1:3:0:0:
244,288,101465,1,0,0:0:0:0:
388,172,101621,2,0,L|452:152,1,56.2500021457673,2|2,2:0|2:3,2:0:0:0:
512,212,101855,5,2,3:3:0:0:
512,212,101934,2,0,L|436:240,1,56.2500021457673,0|0,0:0|1:3,0:0:0:0:
372,92,102246,1,2,2:3:0:0:
440,240,102402,2,0,L|428:312,1,56.2500021457673,2|0,0:2|0:0,0:0:0:0:
441,155,102715,1,2,2:0:0:0:
360,248,102871,2,0,L|292:260,1,56.2500021457673,0|2,0:2|2:0,0:0:0:0:
148,340,103184,5,0,0:0:0:0:
184,256,103340,1,2,2:3:0:0:
236,360,103496,5,0,0:0:0:0:
212,232,103652,1,0,0:0:0:0:
324,336,103809,5,2,2:0:0:0:
240,208,103965,1,2,2:0:0:0:
384,264,104121,5,0,1:0:0:0:
268,184,104277,1,0,0:0:0:0:
412,80,104434,2,0,B|402:126|400:172|400:172|372:152,1,112.500004291535,0|0,0:0|2:0,0:0:0:0:
268,104,104902,1,0,1:1:0:0:
268,104,104980,1,2,3:1:0:0:
268,104,105059,2,0,L|344:92,1,56.2500021457673,0|0,0:0|3:0,0:0:0:0:
476,300,105371,5,2,2:0:0:0:
404,192,105527,1,0,0:0:0:0:
352,352,105684,1,4,2:0:0:0:
484,268,105840,1,2,2:3:0:0:
324,212,105996,1,2,2:3:0:0:
480,136,106152,6,0,L|484:24,1,112.5,2|0,0:2|3:0,0:0:0:0:
408,79,106465,2,0,L|404:191,1,112.500004291535,2|0,0:2|3:0,0:0:0:0:
312,328,106934,5,0,0:0:0:0:
324,212,107090,1,2,2:0:0:0:
424,356,107246,1,0,0:0:0:0:
240,268,107402,2,0,L|248:200,1,56.2500021457673,2|0,0:2|1:0,0:0:0:0:
364,56,107715,5,2,2:2:0:0:
456,148,107871,1,0,0:0:0:0:
324,212,108027,1,2,2:0:0:0:
460,72,108184,5,0,1:2:0:0:
288,44,108340,1,2,2:3:0:0:
388,180,108496,1,0,0:0:0:0:
368,76,108652,1,2,2:3:0:0:
248,152,108809,5,0,0:0:0:0:
408,252,108965,1,2,2:0:0:0:
324,136,109121,1,0,0:0:0:0:
188,236,109277,2,0,L|248:224,1,56.2500021457673,0|0,1:0|1:0,0:0:0:0:
392,324,109590,5,2,1:2:0:0:
476,220,109902,5,0,1:2:0:0:
468,200,109980,1,0,1:2:0:0:
460,180,110059,1,0,1:1:0:0:
368,56,110215,1,0,0:0:0:0:
240,120,110371,2,0,L|304:132,1,56.2500021457673,4|0,2:0|3:0,0:0:0:0:
68,292,110684,6,0,L|52:164,1,127.50000243187,4|0,0:0|0:0,0:0:0:0:
44,88,111100,1,2,3:1:0:0:
44,88,111204,1,2,3:1:0:0:
44,88,111309,2,0,L|112:108,1,63.7500012159348,0|0,0:0|3:0,0:0:0:0:
304,200,111621,2,0,L|184:232,1,95.6250018239022,2|0,1:2|3:0,0:0:0:0:
167,161,111934,2,0,L|188:86,1,63.7500012159348,0|0,0:0|3:0,0:0:0:0:
328,204,112246,5,2,2:0:0:0:
152,176,112402,1,0,1:2:0:0:
300,60,112559,2,0,L|312:132,1,63.7500012159348,4|0,2:2|2:3,0:0:0:0:
396,160,112793,1,2,3:3:0:0:
396,160,112871,2,0,L|468:172,1,63.7500012159348,2|0,1:2|3:0,0:0:0:0:
336,328,113184,5,0,0:0:0:0:
236,256,113340,2,0,L|244:156,1,95.6250018239022,2|0,2:0|3:0,0:0:0:0:
252,148,113652,1,0,0:0:0:0:
100,288,113809,2,0,L|172:268,1,63.7500012159348,0|0,0:0|3:0,0:0:0:0:
376,228,114121,2,0,L|304:208,1,63.7500012159348,4|0,2:2|3:0,0:0:0:0:
148,160,114434,6,0,L|156:56,1,95.6250018239022,0|0,0:0|3:0,0:0:0:0:
236,80,114746,2,0,L|308:63,1,63.7500012159348,2|0,2:0|3:0,0:0:0:0:
416,192,115059,5,0,0:0:0:0:
312,62,115215,1,0,0:0:0:0:
492,176,115371,6,0,L|420:193,1,63.7500012159348,4|0,2:0|3:0,0:0:0:0:
320,224,115684,2,0,P|326:193|340:136,1,63.7500012159348,0|2,0:0|2:3,0:0:0:0:
400,100,115918,1,2,2:3:0:0:
400,100,115996,2,0,L|462:85,1,63.7500012159348,2|0,3:1|1:0,0:0:0:0:
244,140,116309,5,0,1:2:0:0:
429,190,116465,1,2,2:0:0:0:
296,280,116621,2,0,L|316:192,1,63.7500012159348,4|0,2:0|3:0,0:0:0:0:
47,182,116934,5,0,0:0:0:0:
232,232,117090,1,2,2:2:0:0:
180,92,117246,2,0,L|160:180,1,63.7500012159348,2|0,2:3|0:0,0:0:0:0:
96,316,117559,2,0,L|24:300,1,63.7500012159348,0|2,0:0|2:3,0:0:0:0:
32,224,117793,1,2,2:3:0:0:
32,224,117871,2,0,L|94:210,1,63.7500012159348,4|0,0:2|3:1,0:0:0:0:
248,152,118184,6,0,L|256:64,1,63.7500012159348,0|2,0:0|2:2,0:0:0:0:
256,64,118652,5,0,0:0:0:0:
420,144,118809,2,0,P|384:152|348:160,1,63.7500012159348,0|0,0:0|3:0,0:0:0:0:
152,264,119121,2,0,P|188:272|224:280,1,63.7500012159348,4|0,2:2|3:0,0:0:0:0:
376,336,119434,2,0,L|363:241,1,95.6250018239022,0|0,0:0|3:0,0:0:0:0:
360,216,119746,5,0,0:2:0:0:
288,308,119902,1,0,1:2:0:0:
440,240,120059,1,0,0:0:0:0:
280,188,120215,1,4,2:3:0:0:
452,132,120371,1,4,2:2:0:0:
436,268,120527,1,4,2:3:0:0:
364,156,120684,2,0,L|376:20,1,127.50000243187,0|0,0:0|1:1,0:0:0:0:
375,28,121074,1,2,3:1:0:0:
375,28,121152,1,2,3:1:0:0:
240,88,121309,6,0,L|160:108,1,63.7500012159348,0|0,0:0|3:0,0:0:0:0:
68,132,121621,1,4,2:2:0:0:
152,36,121777,1,2,2:3:0:0:
132,184,121934,2,0,L|124:256,1,63.7500012159348,0|0,0:0|3:0,0:0:0:0:
252,352,122246,5,2,2:0:0:0:
277,242,122402,1,0,0:0:0:0:
209,284,122559,1,0,0:0:0:0:
319,309,122715,1,2,2:0:0:0:
404,208,122871,2,0,L|416:120,1,63.7500012159348,4|0,2:0|3:0,0:0:0:0:
296,52,123184,6,0,L|208:68,1,63.7500012159348,0|2,0:0|2:0,0:0:0:0:
224,68,123652,5,2,2:2:0:0:
36,216,123809,2,0,B|72:204|104:204|104:204|152:176,1,95.6250018239022,0|0,0:0|3:0,0:0:0:0:
188,144,124121,2,0,P|159:123|116:116,1,63.7500012159348,4|0,0:2|3:0,0:0:0:0:
96,304,124434,6,0,L|191:286,1,95.6250018239022,0|0,0:0|3:0,0:0:0:0:
248,232,124746,2,0,L|264:160,1,63.7500012159348,0|0,1:0|3:0,0:0:0:0:
452,144,125059,5,0,1:2:0:0:
152,112,125215,1,0,0:0:0:0:
292,48,125371,2,0,L|305:110,1,63.7500012159348,4|0,2:0|3:0,0:0:0:0:
136,256,125684,2,0,B|96:248|66:249|66:249|32:224,1,95.6250018239022,0|0,0:0|3:0,0:0:0:0:
28,160,125996,2,0,L|40:84,1,63.7500012159348,0|4,1:1|3:0,0:0:0:0:
305,110,126309,5,0,0:0:0:0:
104,176,126465,1,2,2:0:0:0:
344,248,126621,1,4,2:0:0:0:
320,240,126934,5,0,0:0:0:0:
128,172,127090,1,2,2:0:0:0:
280,96,127246,2,0,L|288:20,1,63.7500012159348,2|0,2:3|0:0,0:0:0:0:
392,144,127559,2,0,P|423:150|454:157,1,63.7500012159348,0|0,0:0|3:0,0:0:0:0:
304,236,127871,2,0,P|269:243|226:253,1,63.7500012159348,4|0,0:2|3:0,0:0:0:0:
120,176,128184,5,4,0:0:0:0:
392,208,128340,1,2,3:2:0:0:
144,168,128496,2,0,L|153:85,1,75,2|0,2:0|3:0,0:0:0:0:
368,216,128809,5,8,2:2:0:0:
168,160,128965,1,2,2:0:0:0:
344,224,129121,2,0,L|334:302,1,75,2|0,3:3|3:0,0:0:0:0:
256,84,129434,5,2,3:1:0:0:
340,124,129746,2,0,P|382:103|429:93,1,95.6250018239022,2|0,3:3|3:3,2:3:0:0:
438,88,130058,2,0,P|390:77|347:56,1,95.6250018239022,2|0,3:3|3:0,3:0:0:0:
338,60,130371,2,0,P|333:89|331:122,1,63.7500012159348,2|0,3:3|3:0,3:0:0:0:
188,220,130684,6,0,B|136:224|100:240|100:240|48:220,1,127.50000243187,0|0,0:0|2:0,0:0:0:0:
80,96,131152,1,8,2:0:0:0:
80,96,131230,1,8,2:0:0:0:
80,96,131309,2,0,P|90:132|100:172,1,63.7500012159348,0|0,0:0|3:0,0:0:0:0:
140,332,131621,5,8,1:2:0:0:
240,204,131777,1,2,2:0:0:0:
108,256,131934,2,0,L|8:248,1,95.6250018239022,4|0,2:0|3:0,3:0:0:0:
8,240,132246,5,0,1:0:0:0:
108,348,132402,1,2,2:0:0:0:
177,214,132559,2,0,L|249:202,1,63.7500012159348,0|0,1:0|3:0,3:0:0:0:
364,308,132871,2,0,P|371:242|384:156,1,127.50000243187,4|0,2:0|0:0,0:0:0:0:
428,60,133340,5,2,3:0:0:0:
428,60,133418,1,2,3:0:0:0:
428,60,133496,1,2,3:0:0:0:
452,176,133652,1,8,0:2:0:0:
500,104,133809,1,0,0:0:0:0:
260,184,133965,5,2,2:0:0:0:
392,244,134121,1,2,0:3:0:0:
320,104,134277,1,2,2:3:0:0:
192,248,134434,2,0,L|176:132,1,95.6250018239022,4|0,2:0|3:0,0:0:0:0:
184,136,134746,5,0,0:0:0:0:
112,296,134902,1,8,1:2:0:0:
284,300,135059,2,0,L|356:284,1,63.7500012159348,0|0,0:0|3:0,0:0:0:0:
416,192,135371,2,0,L|488:176,1,63.7500012159348,4|0,2:0|3:0,0:0:0:0:
348,84,135684,2,0,L|340:228,1,127.50000243187
400,260,136074,1,2,3:1:0:0:
408,252,136152,1,2,3:1:0:0:
412,240,136230,1,2,3:1:0:0:
412,228,136309,1,2,3:1:0:0:
248,160,136465,5,2,2:0:0:0:
184,256,136621,1,4,2:0:0:0:
64,104,136777,1,0,0:0:0:0:
108,276,136934,6,0,L|116:204,1,63.7500012159348,0|0,1:0|3:0,0:0:0:0:
240,72,137246,2,0,L|247:135,1,63.7500012159348,0|0,1:0|3:0,0:0:0:0:
32,296,137559,2,0,L|40:224,1,63.7500012159348,0|0,1:0|3:0,0:0:0:0:
232,208,137871,2,0,L|340:192,1,95.6250018239022,4|0,2:0|3:0,0:0:0:0:
412,136,138184,6,0,L|392:276,1,127.50000243187,0|0,1:0|2:0,0:0:0:0:
464,332,138652,1,8,0:2:0:0:
464,332,138730,1,8,0:2:0:0:
464,332,138809,2,0,L|476:260,1,63.7500012159348,0|0,0:0|3:0,0:0:0:0:
326,193,139121,5,0,0:0:0:0:
495,171,139277,1,2,2:0:0:0:
344,56,139434,2,0,L|336:119,1,63.7500012159348,4|0,2:0|3:0,0:0:0:0:
312,288,139746,5,0,0:0:0:0:
228,236,139902,1,2,2:0:0:0:
332,144,140059,2,0,B|432:156|432:156|460:176,2,127.50000243187,4|0|0,2:0|0:0|0:0,0:0:0:0:
232,88,140840,5,2,2:3:0:0:
212,92,140918,1,2,2:3:0:0:
192,96,140996,1,2,2:3:0:0:
44,176,141152,1,8,2:0:0:0:
60,80,141309,1,4,1:3:0:0:
172,232,141465,1,2,2:3:0:0:
64,316,141621,6,0,L|52:244,1,63.7500012159348,4|0,2:0|3:0,0:0:0:0:
181,158,141934,2,0,L|193:86,1,63.7500012159348,0|0,1:0|3:0,0:0:0:0:
360,72,142246,1,2,2:0:0:0:
264,144,142402,1,8,0:2:0:0:
408,256,142559,2,0,L|420:184,1,63.7500012159348,0|2,0:0|3:3,0:0:0:0:
424,184,142793,1,2,3:3:0:0:
432,172,142871,1,4,2:0:0:0:
468,340,143027,5,0,0:2:0:0:
298,265,143184,2,0,L|172:280,1,127.50000243187,0|0,1:0|2:0,0:0:0:0:
56,336,143652,1,8,1:2:0:0:
56,336,143730,1,8,1:2:0:0:
56,336,143809,1,0,0:0:0:0:
176,200,143965,5,2,2:0:0:0:
68,148,144121,1,0,0:0:0:0:
212,56,144277,1,2,2:0:0:0:
88,92,144434,6,0,L|96:188,1,95.6250018239022,4|0,2:0|3:0,0:0:0:0:
40,304,144746,2,0,L|34:231,1,63.7500012159348
192,144,145059,6,0,L|296:156,1,95.6250018239022,4|0,2:0|3:0,0:0:0:0:
408,188,145371,2,0,L|346:203,1,63.7500012159348,0|0,0:2|3:0,0:0:0:0:
248,328,145684,6,0,L|316:312,1,56.25,4|0,0:0|3:0,0:0:0:0:
316,304,145996,5,2,2:0:0:0:
228,320,146152,1,2,2:0:0:0:
328,292,146309,1,0,0:0:0:0:
192,236,146465,1,2,2:0:0:0:
340,172,146621,1,0,0:0:0:0:
156,112,146777,1,2,0:2:0:0:
288,28,146934,6,0,L|276:144,1,95.6250018239022,0|0,0:0|3:0,0:0:0:0:
364,168,147246,2,0,L|440:152,1,63.7500012159348,2|0,2:0|3:0,0:0:0:0:
208,160,147559,2,0,L|201:225,1,63.7500012159348,2|0,0:2|3:0,0:0:0:0:
60,324,147871,1,0,1:1:0:0:
60,324,147949,1,2,3:1:0:0:
60,324,148027,1,0,1:1:0:0:
60,324,148105,1,2,3:1:0:0:
60,324,148184,6,0,L|44:184,1,127.50000243187,0|4,0:0|0:3,0:0:0:0:
96,96,148652,1,8,2:0:0:0:
184,220,148809,2,0,L|196:140,1,63.7500012159348,0|0,1:3|3:0,0:0:0:0:
300,60,149121,5,8,1:2:0:0:
300,60,149277,1,2,2:0:0:0:
408,160,149434,2,0,L|488:144,1,63.7500012159348,4|0,2:0|3:0,0:0:0:0:
268,188,149746,5,0,1:0:0:0:
268,188,149902,1,8,2:0:0:0:
340,296,150059,2,0,L|485:266,1,127.50000243187,4|8,2:0|0:3,0:0:0:0:
384,208,150527,1,4,0:3:0:0:
200,308,150684,6,2,L|112:284,1,84.3750032186509,0|2,0:0|3:1,0:0:0:0:
96,192,150996,2,0,L|104:284,1,84.3750032186509,2|0,0:0|3:1,0:0:0:0:
204,200,151309,6,2,L|194:95,1,95.6250018239022,0|2,0:0|3:1,0:0:0:0:
92,172,151621,2,2,L|184:197,1,95.6250018239022,0|2,0:0|3:1,0:0:0:0:
308,112,151934,6,2,L|188:79,1,118.124996395111,0|2,0:0|3:1,0:0:0:0:
80,36,152246,2,2,L|90:154,1,118.124996395111,2|2,0:0|3:1,0:0:0:0:
328,288,152559,6,2,L|313:122,1,157.499995193482,2|2,0:0|3:1,0:0:0:0:
92,228,152871,2,2,L|257:213,1,157.499995193482,2|0,0:0|3:1,0:0:0:0:
448,332,153184,5,0,0:0:0:0:
408,228,153340,1,2,2:3:0:0:
412,216,153418,1,2,2:3:0:0:
416,204,153496,1,2,2:3:0:0:
332,348,153652,1,8,2:0:0:0:
204,276,153809,2,0,L|268:292,1,63.7500012159348,0|0,0:0|3:0,0:0:0:0:
68,240,154121,5,8,2:1:0:0:
152,348,154277,1,2,2:0:0:0:
224,192,154434,2,0,L|208:76,1,95.6250018239022,4|0,2:0|3:0,0:0:0:0:
204,88,154746,5,0,0:0:0:0:
288,240,154902,1,2,2:0:0:0:
104,256,155059,2,0,P|172:252|232:292,1,127.50000243187,4|8,2:0|0:3,0:0:0:0:
148,328,155527,1,4,0:3:0:0:
176,136,155684,6,2,P|196:96|192:52,1,84.3750032186509,0|2,0:0|3:1,0:0:0:0:
40,96,155996,2,0,L|132:80,1,84.3750032186509,2|0,0:0|3:1,0:0:0:0:
198,225,156309,6,2,P|174:177|179:125,1,95.6250018239022,0|2,0:0|3:1,0:0:0:0:
348,144,156621,2,2,L|253:160,1,95.6250018239022,0|2,0:0|3:1,0:0:0:0:
173,335,156934,6,2,P|201:278|195:217,1,118.124996395111,0|2,0:0|3:1,0:0:0:0:
8,244,157246,2,2,L|127:264,1,118.124996395111,2|2,0:0|3:1,0:0:0:0:
244,364,157559,6,2,P|292:308|260:220,1,157.499995193482,2|2,0:0|3:1,0:0:0:0:
272,36,157871,2,2,P|224:92|256:180,1,157.499995193482,2|0,0:0|3:1,0:0:0:0:
424,180,158184,5,0,0:0:0:0:
352,208,158340,1,4,3:3:0:0:
412,256,158496,1,4,3:3:0:0:
484,92,158652,1,8,0:2:0:0:
484,92,158730,1,8,0:2:0:0:
484,92,158809,2,0,L|412:80,1,63.7500012159348,0|0,0:0|3:0,0:0:0:0:
224,168,159121,5,8,0:1:0:0:
320,284,159277,1,2,2:0:0:0:
400,180,159434,2,0,P|316:188|276:228,1,127.50000243187,4|0,2:0|0:0,0:0:0:0:
168,296,159902,1,2,2:0:0:0:
64,196,160059,2,0,L|80:48,1,127.50000243187,4|0,2:0|0:0,0:0:0:0:
196,52,160527,1,4,0:3:0:0:
216,256,160684,6,2,L|208:164,1,84.3750032186509,0|2,0:0|3:1,0:0:0:0:
296,128,160996,2,0,L|304:220,1,84.3750032186509,2|0,0:0|3:1,0:0:0:0:
199,281,161309,6,2,L|180:177,1,95.6250018239022,0|2,0:0|3:1,0:0:0:0:
312,102,161621,2,2,L|330:205,1,95.6250018239022,0|2,0:0|3:1,0:0:0:0:
187,309,161934,6,2,L|155:194,1,118.124996395111,0|2,0:0|3:1,0:0:0:0:
324,74,162246,2,2,L|354:188,1,118.124996395111,2|2,0:0|3:1,0:0:0:0:
179,340,162559,6,2,L|125:191,1,157.499995193482,2|2,0:0|3:1,0:0:0:0:
332,43,162871,2,2,L|385:191,1,157.499995193482,2|0,0:1|3:1,0:0:0:0:
448,344,163184,6,0,L|460:276,1,63.7500012159348,4|2,2:2|2:3,0:0:0:0:
360,308,163418,1,2,2:3:0:0:
360,308,163496,2,0,L|292:328,1,63.7500012159348,2|4,2:3|0:3,0:0:0:0:
276,208,163809,2,0,L|288:140,1,63.7500012159348,0|0,0:0|3:0,0:0:0:0:
80,96,164121,5,8,0:1:0:0:
208,160,164277,1,2,2:0:0:0:
44,240,164434,2,0,L|36:152,1,63.7500012159348,4|0,2:0|3:0,0:0:0:0:
232,152,164746,5,0,0:0:0:0:
116,264,164902,1,2,2:0:0:0:
232,308,165059,2,0,B|256:304|276:296|276:296|320:308|372:284,2,127.50000243187,4|0|0,2:0|0:0|0:0,0:0:0:0:
116,180,165840,5,2,2:3:0:0:
120,168,165918,1,2,2:3:0:0:
124,156,165996,1,2,2:3:0:0:
232,212,166152,1,0,0:0:0:0:
340,84,166309,1,0,0:0:0:0:
212,132,166465,5,2,2:0:0:0:
344,192,166621,1,0,0:0:0:0:
160,284,166777,1,2,2:0:0:0:
284,348,166934,2,0,L|296:252,1,95.6250018239022,0|0,0:0|3:0,0:0:0:0:
344,192,167246,6,0,L|420:176,1,63.7500012159348,0|0,0:0|3:0,0:0:0:0:
284,84,167559,2,0,L|208:100,1,63.7500012159348,0|0,0:0|3:0,0:0:0:0:
112,232,167871,1,0,1:1:0:0:
92,236,167949,1,2,3:1:0:0:
72,240,168027,1,2,3:1:0:0:
52,244,168105,1,2,3:1:0:0:
28,248,168184,6,0,L|164:268,1,127.50000243187
240,328,168652,1,4,0:3:0:0:
340,224,168809,2,0,L|352:148,1,63.7500012159348,0|0,0:0|3:0,0:0:0:0:
240,36,169121,5,8,1:2:0:0:
160,152,169277,1,0,0:0:0:0:
40,104,169434,2,0,P|92:100|131:76,1,95.6250018239022,4|0,2:0|3:0,0:0:0:0:
136,60,169746,5,2,1:3:0:0:
116,256,169902,1,8,1:2:0:0:
16,200,170059,2,0,L|88:184,1,63.7500012159348,2|0,2:0|3:0,0:0:0:0:
196,244,170371,2,0,L|184:324,1,63.7500012159348,4|0,2:0|3:0,0:0:0:0:
256,360,170684,5,2,2:2:0:0:
