osu file format v14

[General]
AudioFilename: audio.mp3
AudioLeadIn: 0
PreviewTime: 132682
Countdown: 0
SampleSet: Soft
StackLeniency: 0.7
Mode: 0
LetterboxInBreaks: 0
WidescreenStoryboard: 1

[Editor]
DistanceSpacing: 0.9
BeatDivisor: 4
GridSize: 4
TimelineZoom: 1.8

[Metadata]
Title:Lego House
TitleUnicode:Lego House
Artist:Ed Sheeran
ArtistUnicode:Ed Sheeran
Creator:flake
Version:Insane
Source:
Tags:+ plus folk pop english acoustic guitar alternative
BeatmapID:3802921
BeatmapSetID:1565050

[Difficulty]
HPDrainRate:4.5
CircleSize:4
OverallDifficulty:8
ApproachRate:8.3
SliderMultiplier:1
SliderTickRate:1

[Events]
//Background and Video events
0,0,"scott-webb-lnRPKo7Lo5Q-unsplash2.jpg",0,0
//Break Periods
2,132882,143978
//Storyboard Layer 0 (Background)
//Storyboard Layer 1 (Fail)
//Storyboard Layer 2 (Pass)
//Storyboard Layer 3 (Foreground)
//Storyboard Layer 4 (Overlay)
//Storyboard Sound Samples

[TimingPoints]
682,375,4,2,0,40,1,0
3682,-100,4,2,0,40,0,0
29744,-100,4,2,0,20,0,0
30682,-57.1428571428571,4,2,0,70,0,0
42682,-44.4444444444445,4,2,0,80,0,0
43244,-57.1428571428571,4,2,0,80,0,0
54682,-44.4444444444445,4,2,0,80,0,0
55244,-57.1428571428571,4,2,0,80,0,0
68932,-57.1428571428571,4,2,0,50,0,0
71932,-100,4,2,0,50,0,0
72682,-66.6666666666667,4,2,0,50,0,0
96682,-44.4444444444445,4,2,0,80,0,0
97244,-57.1428571428571,4,2,0,80,0,0
108682,-44.4444444444445,4,2,0,80,0,0
109244,-57.1428571428571,4,2,0,80,0,0
120682,-57.1428571428571,4,2,0,80,0,0
126682,-44.4444444444445,4,2,0,80,0,0
127994,-57.1428571428571,4,2,0,80,0,0
129682,-44.4444444444445,4,2,0,80,0,0
131932,-57.1428571428571,4,2,0,80,0,0
132682,-57.1428571428571,4,2,0,40,0,0
141869,-57.1428571428571,4,2,0,50,0,0
143369,-57.1428571428571,4,2,0,80,0,0
143744,-57.1428571428571,4,2,0,60,0,0
144119,-57.1428571428571,4,2,0,40,0,0
144682,-44.4444444444445,4,2,0,90,0,0
145244,-57.1428571428571,4,2,0,90,0,0
156682,-44.4444444444445,4,2,0,90,0,0
157244,-57.1428571428571,4,2,0,90,0,0
168682,389.61038961039,4,2,0,40,1,0
168682,-80,4,2,0,40,0,0
169266,-80,4,2,0,40,0,0
169853,465.116279069767,4,2,0,40,1,0
170783,389.61038961039,4,2,0,40,1,0
171367,437.956204379563,4,2,0,40,1,0
171695,547.945205479453,4,2,0,40,1,0
172244,389.61038961039,4,2,0,40,1,0
172828,375,4,2,0,40,1,0
173203,375,4,2,0,40,1,0
173203,-80,4,2,0,40,0,0
176203,413.793103448276,4,2,0,40,1,0
177858,387.096774193548,4,2,0,40,1,0
179019,408.163265306122,4,2,0,50,1,0
179019,-74.0740740740741,4,2,0,50,0,0

[Colours]
Combo1 : 159,114,111
Combo2 : 239,236,112
Combo3 : 242,175,94
Combo4 : 245,80,80
Combo5 : 139,230,85
Combo6 : 78,148,73
Combo7 : 145,234,227
Combo8 : 56,87,231

[HitObjects]
311,179,682,6,0,L|252:191,2,50,2|0|0,0:0|0:0|0:0,0:0:0:0:
386,172,1244,2,0,P|362:191|339:256,1,100,2|0,0:0|0:0,0:0:0:0:
467,188,1807,2,0,P|479:216|469:284,1,100,2|0,0:0|0:0,0:0:0:0:
458,365,2369,2,0,L|506:355,2,50
260,266,2932,5,2,0:0:0:0:
209,330,3119,2,0,P|179:332|118:295,1,100,2|2,0:0|0:0,0:0:0:0:
48,262,3682,6,0,P|27:268|5:287,2,50,2|0|0,0:0|0:0|0:0,0:0:0:0:
117,220,4244,2,0,L|101:118,1,100,2|0,0:0|0:0,0:0:0:0:
195,111,4807,2,0,L|196:210,1,100,2|0,0:0|0:0,0:0:0:0:
260,266,5369,2,0,P|281:268|306:283,2,50
352,174,5932,5,2,0:0:0:0:
414,225,6119,2,0,P|445:228|507:188,1,100,2|2,0:0|0:0,0:0:0:0:
512,120,6682,6,0,L|504:65,3,50,2|0|0|0,0:3|0:0|0:0|0:0,0:0:0:0:
298,24,7619,5,2,0:0:0:0:
227,64,7807,2,0,P|200:59|172:52,1,50,2|0,0:0|0:0,0:0:0:0:
93,30,8182,6,0,L|101:88,1,50,2|0,0:0|0:0,0:0:0:0:
18,149,8557,2,0,L|75:159,1,50,2|0,0:0|0:0,0:0:0:0:
107,257,8932,2,0,L|134:205,1,50,2|0,0:0|0:0,0:0:0:0:
238,205,9307,1,2,0:0:0:0:
238,205,9494,1,0,0:0:0:0:
299,259,9682,6,0,P|337:261|392:222,1,100,2|2,0:3|0:0,0:0:0:0:
387,228,10994,1,2,0:0:0:0:
424,160,11182,2,0,P|462:158|517:197,1,100,2|0,0:0|0:0,0:0:0:0:
322,188,11744,1,2,0:0:0:0:
458,267,11932,2,0,P|464:297|461:320,1,50,2|0,0:0|0:0,0:0:0:0:
303,370,12307,2,0,P|277:352|264:333,1,50,2|0,0:0|0:0,0:0:0:0:
113,217,12682,6,0,L|107:273,3,50,2|0|0|0,0:3|0:0|0:0|0:0,0:0:0:0:
107,266,13994,1,2,0:0:0:0:
36,222,14182,2,0,L|24:110,1,100,2|0,0:0|0:0,0:0:0:0:
187,105,14932,2,0,L|197:204,1,100,2|0,0:0|0:0,0:0:0:0:
197,204,15494,1,2,0:0:0:0:
289,245,15682,2,0,P|284:221|288:196,1,50,2|2,0:3|0:0,0:0:0:0:
390,222,16057,2,0,P|377:249|363:264,1,50,2|0,0:0|0:0,0:0:0:0:
505,75,17932,5,2,0:0:0:0:
449,130,18119,2,0,P|398:128|359:89,1,100,2|2,0:0|0:0,0:0:0:0:
294,59,18682,6,0,L|302:5,3,50,2|0|0|0,0:3|0:0|0:0|0:0,0:0:0:0:
301,9,19619,1,2,0:0:0:0:
212,51,19807,2,0,L|220:105,1,50,2|0,0:0|0:0,0:0:0:0:
59,211,20182,6,0,P|83:194|110:187,1,50,2|0,0:0|0:0,0:0:0:0:
135,116,20557,2,0,P|158:133|173:157,1,50,2|0,0:0|0:0,0:0:0:0:
248,158,20932,2,0,P|238:185|220:207,1,50,2|0,0:0|0:0,0:0:0:0:
243,279,21307,1,2,0:0:0:0:
243,279,21494,1,0,0:0:0:0:
296,339,21682,6,0,L|408:325,1,100,2|2,0:3|0:0,0:0:0:0:
395,326,22994,1,2,0:0:0:0:
463,290,23182,2,0,P|430:256|378:250,1,100,2|0,0:0|0:0,0:0:0:0:
402,126,23744,2,0,P|394:150|378:170,1,50,2|0,0:0|0:0,0:0:0:0:
304,181,24119,1,2,0:0:0:0:
309,64,24307,2,0,P|322:85|327:110,1,50,2|0,0:0|0:0,0:0:0:0:
174,203,24682,6,0,L|168:149,3,50,2|0|0|0,0:3|0:0|0:0|0:0,0:0:0:0:
168,153,26369,1,2,0:0:0:0:
90,165,26557,2,0,L|96:111,1,50,2|0,0:0|0:0,0:0:0:0:
263,0,26932,5,2,0:0:0:0:
78,38,27119,2,0,P|170:30|236:118,1,200,2|2,0:0|0:0,0:0:0:0:
234,106,27963,1,2,0:0:0:0:
234,106,28057,1,2,0:0:0:0:
498,321,29744,6,0,L|488:374,2,50,2|2|2,0:0|0:0|0:0,0:0:0:0:
13,226,30682,5,4,0:3:0:0:
5,148,30869,1,2,0:0:0:0:
43,139,30963,1,2,0:0:0:0:
68,169,31057,1,2,0:0:0:0:
131,124,31244,1,6,0:3:0:0:
157,152,31338,1,2,0:0:0:0:
144,189,31432,1,2,1:2:0:0:
216,220,31619,2,0,P|201:246|188:256,1,43.7500004172325,2|0,0:0|0:0,0:0:0:0:
179,262,31807,2,0,P|245:273|280:329,1,131.250001251698,2|2,0:0|0:0,0:0:0:0:
298,181,32369,5,6,1:3:0:0:
328,149,32463,1,2,0:0:0:0:
371,153,32557,1,2,0:0:0:0:
421,81,32744,1,6,0:3:0:0:
464,91,32838,1,2,0:0:0:0:
482,130,32932,1,2,1:2:0:0:
438,205,33119,1,2,0:0:0:0:
495,270,33307,5,2,0:0:0:0:
348,238,33494,2,0,L|356:280,1,43.7500004172325,0|0,1:0|1:0,0:0:0:0:
360,295,33682,6,0,B|302:288|302:288|275:311,2,87.500000834465,6|0|2,0:3|0:0|0:0,0:0:0:0:
408,365,34244,1,4,0:3:0:0:
205,339,34432,6,0,P|163:299|130:186,1,175.00000166893,0|2,1:0|0:0,0:0:0:0:
129,189,34994,6,0,P|86:210|48:212,1,87.500000834465,4|0,0:3|0:0,0:0:0:0:
95,26,35369,2,0,P|134:53|155:85,1,87.500000834465,0|2,1:0|0:0,0:0:0:0:
130,282,35744,1,4,0:3:0:0:
334,143,35932,5,2,1:2:0:0:
210,196,36119,2,0,B|268:189|268:189|295:212,1,87.500000834465,2|0,0:0|0:0,0:0:0:0:
290,207,36494,2,0,L|279:258,1,43.7500004172325,0|0,1:0|1:0,0:0:0:0:
255,328,36682,5,4,0:3:0:0:
329,373,36869,1,2,0:0:0:0:
361,343,36963,1,2,0:0:0:0:
404,348,37057,1,2,0:0:0:0:
485,380,37244,1,6,0:3:0:0:
498,338,37338,1,0,0:0:0:0:
509,295,37432,6,0,B|449:281|449:281|427:257,1,87.500000834465,2|2,1:2|0:0,0:0:0:0:
377,33,37807,1,2,0:0:0:0:
410,178,37994,2,0,L|430:79,1,87.500000834465,6|0,0:3|0:0,0:0:0:0:
377,33,38369,5,2,1:2:0:0:
333,39,38463,1,2,0:0:0:0:
289,46,38557,1,2,0:0:0:0:
217,95,38744,1,6,0:3:0:0:
184,64,38838,1,2,0:0:0:0:
205,25,38932,1,2,1:2:0:0:
290,116,39119,1,2,0:0:0:0:
139,136,39307,1,2,0:0:0:0:
222,173,39494,2,0,L|229:234,1,43.7500004172325,0|0,1:0|1:0,0:0:0:0:
226,228,39682,5,6,0:3:0:0:
337,350,39869,2,0,L|215:336,1,87.500000834465,2|0,0:0|0:0,0:0:0:0:
250,340,40244,1,6,0:3:0:0:
388,246,40432,1,2,1:2:0:0:
321,91,40619,2,0,B|309:152|309:152|323:172,1,87.500000834465,2|0,0:0|0:0,0:0:0:0:
494,248,40994,2,0,B|505:186|505:186|491:166,1,87.500000834465,6|0,0:3|0:0,0:0:0:0:
492,167,42682,6,0,B|424:151|372:200|425:218|375:276|268:250,1,225.000008583069,6|0,1:1|0:0,0:0:0:0:
304,256,43244,2,0,B|373:265|373:265|390:291,2,87.500000834465,6|2|0,0:3|1:2|0:0,0:0:0:0:
165,298,43807,1,2,0:0:0:0:
245,384,43994,6,0,B|256:370|256:370|243:301,1,87.500000834465,6|0,0:3|0:0,0:0:0:0:
214,124,44369,1,0,1:0:0:0:
158,185,44557,1,2,0:3:0:0:
86,156,44744,1,4,0:3:0:0:
356,117,44932,6,0,B|303:129|263:91|304:77|265:31|182:52,1,175.00000166893,2|2,1:2|0:0,0:0:0:0:
210,48,45494,2,0,L|264:42,1,43.7500004172325,0|0,1:0|1:0,0:0:0:0:
512,26,45682,6,0,P|471:62|435:185,1,175.00000166893,4|2,0:3|0:3,0:0:0:0:
434,173,46244,1,4,0:3:0:0:
388,337,46432,6,0,P|412:296|417:246,1,87.500000834465,2|2,1:2|0:0,0:0:0:0:
191,209,46807,2,0,P|214:250|255:279,1,87.500000834465,2|4,0:0|0:3,0:0:0:0:
400,102,47182,5,2,0:1:0:0:
400,102,47557,2,0,P|352:101|306:122,1,87.500000834465,2|0,0:0|0:0,0:0:0:0:
120,256,47932,2,0,P|72:256|26:235,1,87.500000834465,2|2,1:2|0:0,0:0:0:0:
12,83,48307,1,2,0:0:0:0:
114,34,48494,5,0,1:0:0:0:
114,34,48588,1,0,1:0:0:0:
114,34,48682,2,0,L|94:169,1,131.250001251698,4|0,1:1|0:0,0:0:0:0:
92,178,49057,1,0,0:0:0:0:
192,202,49244,1,6,0:3:0:0:
192,202,49432,2,0,P|216:242|221:292,1,87.500000834465,0|2,1:0|0:0,0:0:0:0:
193,371,49807,1,2,0:0:0:0:
408,336,49994,5,6,0:3:0:0:
408,336,50088,1,0,0:0:0:0:
408,336,50182,2,0,B|391:271|391:271|399:248,1,87.500000834465,2|0,0:0|1:0,0:0:0:0:
511,193,50557,2,0,B|443:189|443:189|424:174,1,87.500000834465,2|6,0:0|0:3,0:0:0:0:
406,50,50932,2,0,B|381:112|381:112|361:126,1,87.500000834465,2|0,1:2|0:0,0:0:0:0:
238,105,51307,2,0,B|289:147|289:147|297:170,1,87.500000834465,2|0,0:0|1:0,0:0:0:0:
315,246,51588,1,0,1:0:0:0:
315,246,51682,6,0,P|258:249|203:354,1,175.00000166893,6|0,0:3|0:0,0:0:0:0:
201,341,52244,1,6,0:3:0:0:
127,384,52432,2,0,L|113:292,1,87.500000834465,0|2,1:2|0:0,0:0:0:0:
19,153,52807,5,2,0:0:0:0:
148,228,52994,1,6,0:3:0:0:
238,105,53182,1,2,0:0:0:0:
170,74,53369,5,0,1:0:0:0:
210,188,53557,2,0,L|313:171,1,87.500000834465,2|0,0:0|0:0,0:0:0:0:
148,228,53932,5,2,1:2:0:0:
238,105,54120,1,2,0:0:0:0:
368,181,54307,1,2,0:0:0:0:
233,272,54494,5,0,1:0:0:0:
233,272,54588,1,0,1:0:0:0:
233,272,54682,2,0,B|301:256|353:305|299:323|349:381|456:355,1,225.000008583069,6|0,1:1|0:0,0:0:0:0:
421,362,55244,2,0,B|466:359|466:359|505:388,2,87.500000834465,6|0|0,0:3|1:2|0:0,0:0:0:0:
348,384,55807,1,2,0:0:0:0:
481,245,55994,6,0,P|500:206|502:159,1,87.500000834465,6|0,0:3|0:0,0:0:0:0:
312,162,56369,1,0,1:0:0:0:
359,220,56557,1,0,0:0:0:0:
424,184,56744,1,6,0:3:0:0:
178,97,56932,6,0,L|372:64,1,175.00000166893,0|0,1:0|0:0,0:0:0:0:
350,67,57494,2,0,L|304:59,1,43.7500004172325,0|0,1:0|1:0,0:0:0:0:
76,115,57682,6,0,P|127:107|211:201,1,175.00000166893,4|0,0:3|0:0,0:0:0:0:
209,186,58244,1,6,0:3:0:0:
95,291,58432,2,0,P|139:265|181:262,1,87.500000834465,2|2,1:2|0:0,0:0:0:0:
309,369,58807,1,2,0:0:0:0:
307,201,58994,5,6,0:3:0:0:
307,201,59088,1,0,0:0:0:0:
307,201,59182,2,0,L|288:301,1,87.500000834465,2|0,0:1|0:0,0:0:0:0:
76,115,59557,2,0,L|95:215,1,87.500000834465,2|0,0:0|0:0,0:0:0:0:
181,362,59932,6,0,L|213:190,1,175.00000166893,0|2,1:0|0:0,0:0:0:0:
213,190,60494,2,0,P|208:163|200:146,1,43.7500004172325,6|0,0:3|0:0,0:0:0:0:
309,369,60682,6,0,P|378:369|426:271,1,175.00000166893,4|0,1:0|0:0,0:0:0:0:
428,285,61244,1,4,0:3:0:0:
495,218,61432,2,0,L|397:202,1,87.500000834465,0|2,1:0|0:0,0:0:0:0:
213,190,61807,1,2,0:0:0:0:
213,190,61994,1,6,0:3:0:0:
336,101,62182,6,0,P|323:164|311:188,1,87.500000834465,2|0,0:0|1:0,0:0:0:0:
169,49,62557,2,0,P|224:80|244:99,1,87.500000834465,2|6,0:0|0:3,0:0:0:0:
67,191,62932,2,0,P|114:147|138:135,1,87.500000834465,2|0,1:2|0:0,0:0:0:0:
171,332,63307,2,0,P|144:273|140:246,1,87.500000834465,2|0,0:0|1:0,0:0:0:0:
337,277,63588,1,0,1:0:0:0:
337,277,63682,5,4,0:3:0:0:
254,254,63869,1,0,0:0:0:0:
250,167,64057,1,0,0:0:0:0:
330,136,64244,1,4,0:3:0:0:
385,204,64432,1,0,1:0:0:0:
380,74,64619,6,0,B|445:64|445:64|474:80,2,87.500000834465,2|2|6,0:0|0:0|0:3,0:0:0:0:
330,136,65182,1,2,0:0:0:0:
512,192,65369,1,0,1:0:0:0:
337,277,65557,2,0,L|352:373,1,87.500000834465,2|6,0:0|0:3,0:0:0:0:
350,363,65932,6,0,B|360:302|360:302|390:286,1,87.500000834465,2|2,1:2|0:0,0:0:0:0:
464,74,66307,2,0,B|453:134|453:134|423:150,1,87.500000834465,2|2,0:0|1:3,0:0:0:0:
430,146,66588,1,2,1:3:0:0:
430,146,66682,1,4,0:3:0:0:
437,153,68932,6,0,B|384:141|342:183|385:189|341:243|259:208,1,175.00000166893,2|2,0:0|0:0,0:0:0:0:
288,216,71932,5,2,0:0:0:0:
243,152,72119,2,0,P|204:146|148:183,1,100,2|2,0:0|0:0,0:0:0:0:
146,182,72682,5,4,0:3:0:0:
188,243,72869,1,0,0:0:0:0:
174,316,73057,1,2,0:0:0:0:
111,357,73244,1,4,0:3:0:0:
35,353,73432,1,0,1:0:0:0:
250,290,73994,6,0,L|334:305,1,75.0000028610231,4|2,0:3|0:0,0:0:0:0:
397,318,74369,2,0,L|481:333,1,75.0000028610231,0|2,1:0|0:0,0:0:0:0:
348,376,74744,5,4,0:3:0:0:
389,173,74932,1,2,1:2:0:0:
109,105,75494,1,0,1:0:0:0:
109,105,75587,1,0,1:0:0:0:
109,105,75681,5,4,0:3:0:0:
159,48,75869,1,0,0:0:0:0:
226,80,76057,1,2,0:0:0:0:
276,23,76244,1,4,0:3:0:0:
343,55,76432,1,0,1:0:0:0:
184,145,76994,6,0,P|199:190|201:220,1,75.0000028610231,4|2,0:3|0:0,0:0:0:0:
295,319,77369,2,0,P|299:281|312:246,1,75.0000028610231,0|0,1:0|0:0,0:0:0:0:
312,246,77744,1,4,0:3:0:0:
388,310,77932,5,0,1:0:0:0:
219,384,78119,2,0,P|205:348|201:311,1,75.0000028610231,2|0,0:0|0:0,0:0:0:0:
428,141,78494,1,0,1:0:0:0:
428,141,78588,1,0,1:0:0:0:
428,141,78682,6,0,L|265:162,1,150.000005722046,4|2,0:3|0:0,0:0:0:0:
279,160,79244,1,4,0:3:0:0:
208,0,79432,1,0,1:0:0:0:
208,0,79994,6,0,P|182:44|181:77,1,75.0000028610231,4|2,0:3|0:0,0:0:0:0:
85,130,80369,2,0,P|101:178|126:200,1,75.0000028610231,0|2,1:0|0:0,0:0:0:0:
285,165,80744,5,4,0:3:0:0:
149,289,80932,2,0,L|297:269,1,150.000005722046,2|2,1:2|0:0,0:0:0:0:
297,269,81494,2,0,P|316:287|326:306,1,37.5000014305115,0|0,1:0|1:0,0:0:0:0:
377,356,81682,6,0,P|452:363|509:303,1,150.000005722046,4|2,0:3|0:0,0:0:0:0:
377,101,82244,1,4,0:3:0:0:
512,240,82432,2,0,B|501:185|501:185|480:174,1,75.0000028610231,0|0,1:0|0:0,0:0:0:0:
297,269,82807,1,0,0:0:0:0:
392,197,82994,1,4,0:3:0:0:
392,197,84682,6,0,L|165:174,1,225.000008583069,4|4,0:3|0:3,0:0:0:0:
168,174,85432,2,0,P|191:209|196:246,1,75.0000028610231,0|0,1:0|0:0,0:0:0:0:
141,324,85807,1,2,0:0:0:0:
281,376,85994,1,4,0:3:0:0:
281,376,86369,2,0,P|239:374|192:353,1,75.0000028610231,0|2,1:0|0:0,0:0:0:0:
208,362,86744,1,4,0:3:0:0:
118,234,86932,2,0,P|76:236|29:257,1,75.0000028610231,2|0,1:2|0:0,0:0:0:0:
0,309,87307,1,2,0:0:0:0:
64,155,87494,5,0,1:0:0:0:
64,155,87588,1,0,1:0:0:0:
64,155,87682,2,0,L|45:-10,1,150.000005722046,4|2,0:3|0:0,0:0:0:0:
47,5,88244,2,0,L|91:16,1,37.5000014305115,4|0,0:3|0:0,0:0:0:0:
227,68,88432,6,0,P|184:77|150:105,1,75.0000028610231,0|0,1:0|0:0,0:0:0:0:
270,239,88807,2,0,P|283:197|276:153,1,75.0000028610231,2|4,0:0|0:3,0:0:0:0:
172,0,89182,5,2,0:1:0:0:
328,73,89369,1,0,1:0:0:0:
184,173,89557,1,2,0:0:0:0:
32,98,89744,1,6,0:3:0:0:
117,100,89932,6,0,B|98:224|98:224|113:257,1,150.000005722046,0|0,1:0|0:0,0:0:0:0:
108,246,90494,2,0,P|85:255|70:271,1,37.5000014305115,0|0,1:0|1:0,0:0:0:0:
258,332,90682,6,0,P|282:282|156:178,1,225.000008583069,4|4,0:3|0:3,0:0:0:0:
183,172,91432,2,0,P|227:157|251:127,1,75.0000028610231,0|2,1:0|0:0,0:0:0:0:
122,20,91807,2,0,P|112:65|126:101,1,75.0000028610231,2|4,0:0|0:3,0:0:0:0:
284,43,92182,5,2,3:0:0:0:
284,43,92557,1,2,0:0:0:0:
95,172,92744,2,0,L|109:252,1,75.0000028610231,4|2,3:3|1:2,0:0:0:0:
353,78,93119,2,0,L|339:158,1,75.0000028610231,2|2,3:3|0:0,0:0:0:0:
282,259,93494,1,0,1:0:0:0:
282,259,93588,1,0,1:0:0:0:
282,259,93682,6,0,P|333:242|446:361,1,225.000008583069,4|4,0:3|0:3,0:0:0:0:
446,344,94432,2,0,L|366:357,1,75.0000028610231,0|0,1:0|0:0,0:0:0:0:
169,384,94807,1,0,0:0:0:0:
201,305,94994,1,4,0:3:0:0:
201,305,96682,6,0,B|171:285|171:285|155:127|155:127|130:107,1,225.000008583069,4|0,1:1|0:0,0:0:0:0:
131,108,97244,2,0,B|199:100|199:100|220:77,2,87.500000834465,4|2|0,0:3|1:2|0:0,0:0:0:0:
70,53,97807,1,2,0:0:0:0:
263,173,97994,6,0,B|195:181|195:181|174:204,1,87.500000834465,4|0,0:3|0:0,0:0:0:0:
93,322,98369,1,0,1:0:0:0:
86,249,98557,1,0,0:0:0:0:
79,177,98744,1,4,0:3:0:0:
157,379,98932,6,0,P|180:333|310:319,1,175.00000166893,2|2,1:2|0:0,0:0:0:0:
292,308,99494,2,0,L|288:354,1,43.7500004172325,0|0,1:0|1:0,0:0:0:0:
402,384,99682,6,0,L|386:200,1,175.00000166893,4|2,0:3|0:0,0:0:0:0:
386,209,100244,1,4,0:3:0:0:
512,119,100432,2,0,P|470:146|427:149,1,87.500000834465,2|2,1:2|0:0,0:0:0:0:
285,74,100807,2,0,P|243:47|200:44,1,87.500000834465,2|4,0:0|0:3,0:0:0:0:
121,254,101182,5,2,0:1:0:0:
121,254,101557,2,0,L|133:157,1,87.500000834465,2|0,0:0|0:0,0:0:0:0:
40,300,101932,1,2,1:2:0:0:
108,359,102119,1,2,0:0:0:0:
185,313,102307,1,2,0:0:0:0:
142,90,102494,1,0,1:0:0:0:
142,90,102588,1,0,1:0:0:0:
142,90,102682,6,0,L|281:75,1,131.250001251698,6|0,1:2|0:0,0:0:0:0:
285,74,103057,1,0,0:0:0:0:
268,159,103244,1,4,0:3:0:0:
268,159,103432,2,0,L|354:168,1,87.500000834465,0|2,1:0|0:0,0:0:0:0:
458,171,103807,1,2,0:0:0:0:
458,171,103994,1,4,0:3:0:0:
441,312,104182,6,0,P|423:267|402:229,1,87.500000834465,2|0,0:0|1:0,0:0:0:0:
268,159,104557,2,0,P|273:115|284:73,1,87.500000834465,2|4,0:0|0:3,0:0:0:0:
271,358,104932,6,0,P|304:330|335:298,1,87.500000834465,2|0,1:2|0:0,0:0:0:0:
362,146,105307,2,0,P|405:138|448:135,1,87.500000834465,2|0,0:0|1:0,0:0:0:0:
251,252,105588,1,0,1:0:0:0:
251,252,105682,6,0,P|204:247|74:183,1,175.00000166893,4|0,0:3|0:0,0:0:0:0:
114,86,106244,1,4,0:3:0:0:
38,261,106432,2,0,P|10:221|-2:171,1,87.500000834465,0|2,1:2|0:0,0:0:0:0:
26,50,106807,5,2,0:0:0:0:
114,86,106994,1,4,0:3:0:0:
188,29,107182,1,2,0:0:0:0:
98,0,107369,5,0,0:0:0:0:
162,148,107557,2,0,P|210:146|257:134,1,87.500000834465,2|0,0:0|0:0,0:0:0:0:
114,86,107932,5,2,1:2:0:0:
188,29,108120,1,2,0:0:0:0:
276,65,108307,1,2,0:0:0:0:
213,225,108494,1,0,1:0:0:0:
213,225,108588,1,0,1:0:0:0:
213,225,108682,6,0,B|264:220|264:220|352:312|352:312|410:303,1,225.000008583069,4|0,1:1|0:0,0:0:0:0:
397,304,109244,2,0,B|381:327|381:327|388:399,2,87.500000834465,4|2|0,0:3|1:2|0:0,0:0:0:0:
474,281,109807,1,2,0:0:0:0:
217,328,109994,6,0,P|268:322|302:296,1,87.500000834465,4|0,0:3|0:0,0:0:0:0:
359,88,110369,2,0,P|411:89|447:112,1,87.500000834465,0|0,1:0|0:0,0:0:0:0:
512,199,110744,1,4,0:3:0:0:
397,304,110932,2,0,L|383:159,1,131.250001251698,2|0,1:2|0:0,0:0:0:0:
384,161,111307,1,2,0:0:0:0:
96,264,111494,5,0,1:0:0:0:
96,264,111588,1,0,1:0:0:0:
96,264,111682,2,0,L|117:91,1,175.00000166893,4|2,0:3|0:0,0:0:0:0:
117,90,112244,1,4,0:3:0:0:
85,164,112432,1,2,1:2:0:0:
210,204,112619,1,2,0:0:0:0:
186,51,112807,1,2,0:0:0:0:
186,51,113182,6,0,P|210:103|233:126,1,87.500000834465,2|0,0:1|0:0,0:0:0:0:
357,13,113557,2,0,P|332:64|329:97,1,87.500000834465,2|4,0:0|0:3,0:0:0:0:
490,121,113932,2,0,P|434:135|407:154,1,87.500000834465,2|0,1:2|0:0,0:0:0:0:
309,217,114307,1,2,0:0:0:0:
448,356,114494,1,0,1:0:0:0:
448,356,114588,1,0,1:0:0:0:
448,356,114682,6,0,L|263:377,1,175.00000166893,4|0,0:3|0:0,0:0:0:0:
274,376,115244,1,4,0:3:0:0:
309,217,115432,2,0,P|347:251|358:288,1,87.500000834465,0|2,1:0|0:0,0:0:0:0:
123,370,115807,1,2,0:0:0:0:
282,295,115994,1,4,0:3:0:0:
282,295,116088,1,0,0:0:0:0:
282,295,116182,6,0,P|237:289|189:284,1,87.500000834465,2|0,0:0|1:0,0:0:0:0:
150,145,116557,2,0,P|117:115|85:85,1,87.500000834465,2|4,0:0|0:3,0:0:0:0:
123,370,116932,6,0,P|115:326|106:284,1,87.500000834465,2|0,1:2|0:0,0:0:0:0:
223,199,117307,2,0,P|240:159|259:119,1,87.500000834465,2|0,0:0|1:0,0:0:0:0:
77,198,117588,1,0,1:0:0:0:
77,198,117682,5,4,0:3:0:0:
150,145,117869,1,0,0:0:0:0:
223,199,118057,1,0,0:0:0:0:
195,284,118244,1,4,0:3:0:0:
104,284,118432,1,0,1:2:0:0:
77,198,118619,5,2,0:0:0:0:
150,145,118807,2,0,P|141:103|121:63,1,87.500000834465,2|4,0:0|0:3,0:0:0:0:
121,63,119182,1,2,0:0:0:0:
58,115,119369,5,0,1:0:0:0:
223,199,119557,2,0,P|245:159|251:59,1,131.250001251698,2|0,0:0|0:0,0:0:0:0:
253,62,119932,5,2,1:2:0:0:
349,75,120119,1,2,0:0:0:0:
395,180,120307,5,2,0:0:0:0:
223,199,120494,2,0,L|235:249,1,43.7500004172325,0|0,1:0|1:0,0:0:0:0:
236,253,120682,6,0,P|280:230|323:337,1,175.00000166893,4|0,0:3|0:0,0:0:0:0:
339,314,121244,1,4,0:3:0:0:
129,354,121432,2,0,P|141:302|146:257,1,87.500000834465,0|2,1:0|0:0,0:0:0:0:
31,153,121807,1,0,0:0:0:0:
278,119,121994,5,4,0:3:0:0:
278,119,122088,1,0,0:0:0:0:
278,119,122182,2,0,P|224:112|123:183,1,175.00000166893,2|2,0:0|0:0,0:0:0:0:
31,153,122744,2,0,L|47:249,1,87.500000834465,2|0,0:0|1:0,0:0:0:0:
236,253,123119,1,2,0:0:0:0:
236,253,123213,1,2,0:0:0:0:
236,253,123307,2,0,L|220:349,1,87.500000834465,2|2,0:0|1:2,0:0:0:0:
222,345,123588,1,2,1:2:0:0:
222,353,123682,6,0,L|315:339,1,87.500000834465,6|0,0:3|0:0,0:0:0:0:
390,328,124057,1,2,0:0:0:0:
352,215,124244,1,6,0:3:0:0:
352,215,124338,1,0,0:0:0:0:
352,215,124432,2,0,L|492:232,1,131.250001251698,0|0,1:0|0:0,0:0:0:0:
498,234,124807,1,0,0:0:0:0:
278,59,124994,6,0,P|232:59|184:91,1,87.500000834465,4|0,0:3|0:0,0:0:0:0:
236,253,125369,2,0,P|259:213|255:155,1,87.500000834465,0|2,1:0|0:0,0:0:0:0:
88,119,125744,1,4,0:3:0:0:
88,119,125932,2,0,P|110:158|162:184,1,87.500000834465,0|2,1:0|0:0,0:0:0:0:
325,120,126307,1,2,0:0:0:0:
236,253,126494,5,0,1:0:0:0:
236,253,126588,1,0,1:0:0:0:
236,253,126682,2,0,L|352:239,1,112.500004291535,6|0,1:1|0:0,0:0:0:0:
393,173,127057,1,2,0:0:0:0:
308,324,127244,1,2,0:0:0:0:
193,67,127432,6,0,P|267:47|321:111,1,168.750006437302,0|0,1:0|0:0,0:0:0:0:
325,120,127807,1,2,0:0:0:0:
428,10,127994,6,0,P|406:51|400:102,1,87.500000834465,4|0,0:3|0:0,0:0:0:0:
236,253,128369,2,0,P|232:209|214:169,1,87.500000834465,0|0,1:0|0:0,0:0:0:0:
27,127,128744,1,4,0:3:0:0:
153,12,128932,1,0,1:0:0:0:
161,234,129119,5,2,0:0:0:0:
161,234,129307,2,0,L|60:214,1,87.500000834465,2|0,0:0|1:0,0:0:0:0:
76,218,129588,1,0,1:0:0:0:
77,219,129682,6,0,P|20:239|6:348,1,168.750006437302,6|0,1:1|0:0,0:0:0:0:
4,348,130057,1,2,0:0:0:0:
264,211,130244,5,6,0:3:0:0:
264,211,130338,1,0,0:0:0:0:
264,211,130432,2,0,P|235:166|175:153,1,112.500004291535,0|0,1:0|0:0,0:0:0:0:
91,307,130807,1,2,0:0:0:0:
225,384,130994,1,4,0:3:0:0:
225,384,131088,1,2,0:0:0:0:
225,384,131182,1,2,0:0:0:0:
291,309,131369,1,0,1:0:0:0:
390,337,131557,1,0,0:0:0:0:
390,337,131932,6,0,B|405:279|405:279|387:250,1,87.500000834465,0|0,1:0|0:0,0:0:0:0:
377,60,132307,2,0,B|362:118|362:118|380:147,1,87.500000834465,2|0,0:0|1:0,0:0:0:0:
376,141,132588,1,0,1:0:0:0:
376,141,132682,1,2,0:3:0:0:
407,29,144682,6,0,P|333:61|425:101,1,225.000008583069,4|0,1:1|0:0,0:0:0:0:
419,110,145244,2,0,P|462:106|496:139,2,87.500000834465,6|2|2,0:3|1:2|0:0,0:0:0:0:
352,226,145807,1,2,0:0:0:0:
449,293,145994,6,0,L|436:199,1,87.500000834465,4|0,0:3|0:0,0:0:0:0:
247,107,146369,2,0,L|258:20,1,87.500000834465,0|0,1:0|0:0,0:0:0:0:
120,264,146744,1,6,0:3:0:0:
352,226,146932,6,0,P|301:217|229:308,1,175.00000166893,2|2,1:2|0:0,0:0:0:0:
228,302,147494,2,0,P|245:322|252:346,1,43.7500004172325,0|0,1:0|1:0,0:0:0:0:
69,143,147682,6,0,P|126:122|180:213,1,175.00000166893,4|2,0:3|0:0,0:0:0:0:
182,203,148244,1,6,0:3:0:0:
39,262,148432,1,2,1:2:0:0:
11,80,148619,1,2,0:0:0:0:
148,96,148807,2,0,P|156:51|173:12,1,87.500000834465,2|6,0:0|0:3,0:0:0:0:
429,212,149182,5,2,0:1:0:0:
429,212,149557,2,0,P|386:227|343:232,1,87.500000834465,2|6,0:0|0:3,0:0:0:0:
280,160,149932,1,2,1:2:0:0:
302,344,150119,1,2,0:0:0:0:
302,344,150213,1,0,0:0:0:0:
302,344,150307,2,0,P|258:338|217:323,1,87.500000834465,2|0,0:0|1:0,0:0:0:0:
186,249,150588,1,0,1:0:0:0:
186,249,150682,6,0,P|149:207|13:204,2,175.00000166893,4|2|0,0:3|0:3|1:0,0:0:0:0:
280,160,151619,1,2,0:0:0:0:
293,87,151807,1,2,0:0:0:0:
308,14,151994,1,6,0:3:0:0:
148,56,152182,6,0,P|197:50|240:33,1,87.500000834465,2|0,0:0|1:0,0:0:0:0:
362,181,152557,2,0,P|342:226|335:272,1,87.500000834465,2|6,0:0|0:3,0:0:0:0:
146,303,152932,2,0,P|116:263|80:234,1,87.500000834465,2|0,1:2|0:0,0:0:0:0:
148,56,153307,1,2,0:0:0:0:
0,131,153494,5,0,1:0:0:0:
0,131,153588,1,0,1:0:0:0:
0,131,153682,2,0,L|187:151,1,175.00000166893,4|0,0:3|0:0,0:0:0:0:
174,149,154244,1,6,0:3:0:0:
146,303,154432,1,0,1:2:0:0:
216,258,154619,1,2,0:0:0:0:
201,226,154807,2,0,L|288:216,1,87.500000834465,2|4,0:0|0:3,0:0:0:0:
384,344,155182,5,2,0:0:0:0:
460,280,155369,1,0,1:0:0:0:
370,222,155557,1,2,0:0:0:0:
429,171,155744,5,6,0:3:0:0:
429,171,155838,1,0,0:0:0:0:
429,171,155932,1,2,1:2:0:0:
303,92,156119,1,2,0:0:0:0:
409,0,156307,1,2,0:0:0:0:
289,177,156494,5,0,1:0:0:0:
289,177,156588,1,0,1:0:0:0:
289,177,156682,2,0,P|213:236|187:145,1,225.000008583069,4|0,1:1|0:0,0:0:0:0:
187,144,157244,2,0,P|208:112|185:72,2,87.500000834465,6|2|0,0:3|1:2|0:0,0:0:0:0:
89,225,157807,5,2,0:0:0:0:
138,13,157994,2,0,B|81:22|81:22|63:51,1,87.500000834465,6|0,0:3|0:0,0:0:0:0:
89,225,158369,1,0,1:0:0:0:
5,93,158557,2,0,L|25:186,1,87.500000834465,0|6,0:0|0:3,0:0:0:0:
143,332,158932,6,0,P|118:282|0:283,1,175.00000166893,2|2,1:2|0:0,0:0:0:0:
10,274,159494,2,0,L|20:321,1,43.7500004172325,0|0,1:0|1:0,0:0:0:0:
220,384,159682,6,0,L|248:183,1,175.00000166893,4|2,0:3|0:0,0:0:0:0:
244,210,160244,1,6,0:3:0:0:
158,232,160432,1,2,1:2:0:0:
112,49,160619,1,2,0:0:0:0:
284,91,160807,1,2,0:0:0:0:
209,129,160994,5,6,0:3:0:0:
209,129,161088,1,0,0:0:0:0:
209,129,161182,2,0,P|191:77|193:34,1,87.500000834465,2|0,0:1|0:0,0:0:0:0:
428,154,161557,2,0,P|426:197|410:237,1,87.500000834465,2|6,0:0|0:3,0:0:0:0:
235,313,161932,5,2,1:2:0:0:
324,276,162119,1,0,0:0:0:0:
390,348,162307,1,2,0:0:0:0:
486,91,162494,1,0,1:0:0:0:
486,91,162588,1,0,1:0:0:0:
486,91,162682,6,0,P|427:69|339:140,1,175.00000166893,4|0,1:1|0:0,0:0:0:0:
342,128,163244,1,6,0:3:0:0:
220,216,163432,2,0,L|208:130,1,87.500000834465,0|2,1:0|0:0,0:0:0:0:
122,90,163807,5,2,0:0:0:0:
25,125,163994,1,6,0:3:0:0:
25,125,164088,1,0,0:0:0:0:
25,125,164182,2,0,P|40:83|41:34,1,87.500000834465,2|0,0:0|1:0,0:0:0:0:
192,8,164557,2,0,P|220:41|262:67,1,87.500000834465,2|6,0:0|0:3,0:0:0:0:
209,211,164932,2,0,P|165:219|122:242,1,87.500000834465,2|0,1:2|0:0,0:0:0:0:
89,313,165307,1,2,0:0:0:0:
274,384,165494,1,0,1:0:0:0:
274,384,165588,1,0,1:0:0:0:
274,384,165682,6,0,L|293:194,1,175.00000166893,4|0,0:3|0:0,0:0:0:0:
291,209,166244,1,6,0:3:0:0:
449,196,166432,2,0,L|438:104,1,87.500000834465,0|2,1:2|0:0,0:0:0:0:
423,34,166807,1,2,0:0:0:0:
423,34,166994,1,6,0:3:0:0:
507,92,167182,5,2,0:0:0:0:
338,57,167369,1,0,1:0:0:0:
405,282,167557,2,0,L|502:269,1,87.500000834465,2|6,0:0|0:3,0:0:0:0:
423,34,167932,5,2,1:2:0:0:
410,110,168119,1,2,0:0:0:0:
394,186,168307,1,2,0:0:0:0:
295,213,168494,2,0,L|302:260,1,43.7500004172325,0|0,1:0|1:0,0:0:0:0:
307,292,168682,5,2,0:0:0:0:
307,292,169266,1,2,0:0:0:0:
251,343,169461,1,2,0:0:0:0:
185,306,169656,1,2,0:0:0:0:
228,173,169850,1,2,0:0:0:0:
23,196,170783,5,2,0:0:0:0:
97,184,170977,1,2,0:0:0:0:
160,224,171172,1,2,0:0:0:0:
110,110,171367,1,2,0:0:0:0:
110,110,172244,5,2,0:0:0:0:
167,61,172438,1,2,0:0:0:0:
232,96,172633,1,2,0:0:0:0:
292,51,172828,1,2,0:0:0:0:
427,227,173203,6,0,L|292:211,1,125,2|2,0:0|0:0,0:0:0:0:
302,212,173953,2,0,P|316:245|314:275,1,62.5,2|2,0:0|0:0,0:0:0:0:
228,193,174328,2,0,P|199:214|186:241,1,62.5,2|2,0:0|0:0,0:0:0:0:
229,341,174703,1,0,0:0:0:0:
64,366,175640,5,2,0:0:0:0:
64,366,175828,2,0,L|52:299,1,62.5,2|2,0:0|0:0,0:0:0:0:
35,227,176203,5,2,0:0:0:0:
89,155,176616,1,2,0:0:0:0:
178,147,177030,1,2,0:0:0:0:
253,196,177444,1,2,0:0:0:0:
290,277,177858,1,2,0:0:0:0:
290,277,179019,5,2,0:0:0:0:
290,277,179223,1,2,0:0:0:0:
290,277,179427,2,0,B|340:270|340:270|349:257,1,67.5000002574921,2|0,0:0|0:0,0:0:0:0:
471,192,179835,2,0,B|420:198|420:198|411:211,1,67.5000002574921,2|0,0:0|0:0,0:0:0:0:
397,345,180243,1,2,0:0:0:0:
397,345,180447,1,2,0:0:0:0:
397,345,180651,1,2,0:0:0:0:
