osu file format v14

[General]
AudioFilename: audio.mp3
AudioLeadIn: 0
PreviewTime: 179564
Countdown: 0
SampleSet: Soft
StackLeniency: 0.7
Mode: 0
LetterboxInBreaks: 0
WidescreenStoryboard: 0

[Editor]
Bookmarks: 32954,70587,108219,136443,147811,180348,211708,236796,285013
DistanceSpacing: 1.2
BeatDivisor: 8
GridSize: 4
TimelineZoom: 1

[Metadata]
Title:I See Fire
TitleUnicode:I See Fire
Artist:Ed Sheeran
ArtistUnicode:Ed Sheeran
Creator:ReFaller
Version:Majster
Source:
Tags:
BeatmapID:1602431
BeatmapSetID:762133

[Difficulty]
HPDrainRate:5
CircleSize:4
OverallDifficulty:4
ApproachRate:5
SliderMultiplier:1.4
SliderTickRate:1

[Events]
//Background and Video events
0,0,"wallhaven-498609.jpg",0,0
//Break Periods
2,136643,146611
2,203676,209332
//Storyboard Layer 0 (Background)
//Storyboard Layer 1 (Fail)
//Storyboard Layer 2 (Pass)
//Storyboard Layer 3 (Foreground)
//Storyboard Layer 4 (Overlay)
//Storyboard Sound Samples

[TimingPoints]
32955,784.006272050176,4,2,1,30,1,0
180348,-100,4,2,1,35,0,0
236796,-100,4,2,1,45,0,1
285013,-100,4,2,1,30,0,0

[Colours]
Combo1 : 17,254,176
Combo2 : 173,255,95
Combo3 : 255,88,100
Combo4 : 255,94,55

[HitObjects]
64,96,32954,6,0,L|140:84,1,70,2|0,0:0|0:0,0:0:0:0:
212,84,33739,1,8,0:0:0:0:
280,120,34131,1,0,0:0:0:0:
128,304,35307,1,8,0:0:0:0:
128,304,36091,5,0,0:0:0:0:
200,280,36483,1,2,0:0:0:0:
276,300,36875,1,8,0:0:0:0:
344,336,37267,2,0,P|412:336|464:284,1,140
488,216,38443,1,8,0:0:0:0:
488,216,39227,6,0,P|490:173|484:144,1,70,2|0,0:0|0:0,0:0:0:0:
452,76,40011,1,8,0:0:0:0:
400,16,40403,1,0,0:0:0:0:
164,72,41579,1,8,0:0:0:0:
164,72,42363,6,0,L|24:112,1,140,2|8,0:0|0:0,0:0:0:0:
24,204,43539,2,0,L|158:165,1,140
240,188,44715,6,0,P|252:212|252:240,2,52.5,8|0|0,0:0|0:0|0:0,0:0:0:0:
168,252,45499,2,0,P|200:308|272:324,1,140,2|8,0:0|0:0,0:0:0:0:
356,288,46675,2,0,P|422:302|457:360,1,140,2|0,0:0|0:0,0:0:0:0:
372,376,47851,1,8,0:0:0:0:
372,376,48635,6,0,L|348:232,1,140,0|8,0:0|0:0,0:0:0:0:
440,240,49811,2,0,L|464:96,1,140,2|0,0:0|0:0,0:0:0:0:
463,101,50987,1,8,0:0:0:0:
463,101,51771,6,0,P|408:60|323:61,1,140,2|8,0:0|0:0,0:0:0:0:
252,100,52947,2,0,P|307:141|392:140,1,140
468,128,54123,1,8,0:0:0:0:
468,128,54907,6,0,L|484:200,1,70,0|2,0:0|0:0,0:0:0:0:
472,284,55691,1,8,0:0:0:0:
408,344,56083,1,0,0:0:0:0:
220,228,57259,2,0,P|249:219|284:220,2,52.5,8|0|0,0:0|0:0|0:0,0:0:0:0:
140,268,58043,6,0,P|104:208|100:132,1,140,2|8,0:0|0:0,0:0:0:0:
148,64,59219,2,0,B|187:40|244:76|292:48,1,140,2|0,0:0|0:0,0:0:0:0:
372,76,60395,1,8,0:0:0:0:
372,76,61179,6,0,L|456:84,1,70
480,164,61963,1,8,0:0:0:0:
480,164,62355,2,0,P|484:216|456:264,2,105,2|0|8,0:0|0:0|0:0,0:0:0:0:
396,196,63923,1,0,0:0:0:0:
396,196,64315,6,0,P|374:238|388:328,1,140,2|8,0:0|0:0,0:0:0:0:
472,352,65491,2,0,P|429:330|340:344,1,140,2|0,0:0|0:0,0:0:0:0:
256,368,66667,2,0,L|184:356,1,70,8|0,0:0|0:0,0:0:0:0:
208,272,67451,5,2,0:0:0:0:
208,272,69803,1,0,0:0:0:0:
224,252,70195,1,2,0:0:0:0:
240,236,70587,6,0,P|256:200|256:168,1,70,4|0,0:1|0:0,0:0:0:0:
232,88,71371,1,8,0:0:0:0:
164,32,71763,2,0,L|124:36,1,35,4|0,0:0|0:0,0:0:0:0:
320,72,72939,1,8,0:0:0:0:
320,72,73723,6,0,L|392:60,1,70,2|0,0:0|0:0,0:0:0:0:
472,72,74507,1,8,0:0:0:0:
456,156,74899,1,2,0:0:0:0:
320,248,75683,1,0,0:0:0:0:
320,248,75879,1,0,0:0:0:0:
320,248,76075,1,8,0:0:0:0:
336,164,76467,1,2,0:0:0:0:
308,84,76859,6,0,L|164:68,1,140,4|8,0:0|0:0,0:0:0:0:
84,84,78035,1,2,0:0:0:0:
244,196,79211,1,8,0:0:0:0:
328,168,79603,1,0,0:0:0:0:
344,176,79799,1,0,0:0:0:0:
360,184,79995,6,0,P|380:240|364:320,1,140,4|8,0:0|0:0,0:0:0:0:
288,368,81171,1,0,0:0:0:0:
204,348,81563,2,0,L|156:356,1,35,2|0,0:0|0:0,0:0:0:0:
76,256,82347,2,0,L|128:247,2,52.5,8|0|0,0:0|0:0|0:0,0:0:0:0:
32,176,83131,6,0,P|12:108|24:36,1,140,4|8,0:0|0:0,0:0:0:0:
112,52,84307,2,0,P|180:32|252:44,1,140,2|0,0:0|0:0,0:0:0:0:
340,56,85483,2,0,L|416:48,1,70,8|0,0:0|0:0,0:0:0:0:
492,88,86267,5,4,0:0:0:0:
492,88,86659,2,0,P|500:124|488:172,1,70,2|8,0:0|0:0,0:0:0:0:
488,244,87443,2,0,L|348:236,1,140
272,276,88619,2,0,P|267:307|274:339,2,52.5,8|0|0,0:0|0:0|0:0,0:0:0:0:
348,236,89403,6,0,P|371:175|356:100,1,140,4|8,0:0|0:0,0:0:0:0:
288,28,90579,2,0,P|264:88|280:164,1,140,2|0,0:0|0:0,0:0:0:0:
324,240,91755,1,8,0:0:0:0:
324,240,92539,6,0,L|252:232,1,70,4|0,0:0|0:0,0:0:0:0:
172,264,93323,1,8,0:0:0:0:
172,264,93715,2,0,P|182:315|164:365,2,105,2|0|8,0:0|0:0|0:0,0:0:0:0:
132,184,95283,1,2,0:0:0:0:
92,104,95675,6,0,L|240:88,1,140,4|8,0:0|0:0,0:0:0:0:
316,124,96851,2,0,L|464:140,1,140,2|0,0:0|0:0,0:0:0:0:
512,68,98027,1,8,0:0:0:0:
512,68,98811,6,0,P|488:128|504:204,1,140,2|8,0:0|0:0,0:0:0:0:
464,280,99987,2,0,L|312:260,1,140
244,296,101163,2,0,L|184:288,2,52.5,8|2|0,0:0|0:0|0:0,0:0:0:0:
256,208,101947,6,0,P|236:140|256:64,1,140,4|8,0:0|0:0,0:0:0:0:
320,8,103123,2,0,P|340:76|320:152,1,140,2|0,0:0|0:0,0:0:0:0:
344,228,104299,1,8,0:0:0:0:
256,208,104691,1,0,0:0:0:0:
168,188,105083,6,0,B|80:176|120:200|28:188,1,140,2|0,0:0|0:0,0:0:0:0:
28,188,107435,1,8,0:0:0:0:
28,188,108219,5,4,0:1:0:0:
92,108,108611,1,0,0:0:0:0:
8,52,109003,1,8,0:0:0:0:
92,108,109395,2,0,P|142:94|232:96,1,140,4|0,0:3|0:0,0:0:0:0:
320,132,110571,2,0,L|408:124,1,70,8|0,0:0|0:0,0:0:0:0:
456,48,111355,5,4,0:1:0:0:
488,140,111747,1,2,0:0:0:0:
472,236,112139,1,8,0:0:0:0:
416,316,112531,2,0,L|276:332,1,140,8|0,0:3|0:0,0:0:0:0:
180,312,113707,1,8,0:0:0:0:
180,312,114099,1,2,0:0:0:0:
180,312,114491,5,4,0:1:0:0:
244,236,114883,1,0,0:0:0:0:
276,331,115275,1,8,0:0:0:0:
180,312,115667,2,0,L|100:320,1,70,4|0,0:1|0:0,0:0:0:0:
76,120,116843,1,8,0:0:0:0:
76,120,117627,5,4,0:3:0:0:
136,40,118019,1,2,0:0:0:0:
228,4,118411,1,8,0:0:0:0:
228,4,118803,2,0,L|372:16,1,140,8|0,0:3|0:0,0:0:0:0:
456,60,119979,1,8,0:0:0:0:
367,15,120371,1,2,0:0:0:0:
372,116,120763,6,0,P|368:168|400:252,1,140,4|8,0:1|0:0,0:0:0:0:
488,288,121939,2,0,P|436:284|352:316,1,140,4|0,0:1|0:0,0:0:0:0:
276,376,123115,1,8,0:0:0:0:
276,376,123899,5,4,0:1:0:0:
260,276,124291,1,2,0:0:0:0:
354,314,124683,1,8,0:0:0:0:
276,376,125075,2,0,L|136:368,1,140,8|0,0:3|0:0,0:0:0:0:
128,276,126251,1,8,0:0:0:0:
112,368,126643,1,2,0:0:0:0:
108,276,127035,6,0,P|80:208|100:136,1,140,4|8,0:1|0:0,0:0:0:0:
160,72,128211,2,0,P|188:140|168:212,1,140,4|0,0:1|0:0,0:0:0:0:
132,292,129387,1,8,0:0:0:0:
132,292,130171,6,0,L|212:284,1,70,4|2,0:3|0:0,0:0:0:0:
284,336,130955,1,8,0:0:0:0:
288,240,131347,1,4,0:1:0:0:
288,240,135659,1,8,0:0:0:0:
288,240,136443,5,4,0:1:0:0:
216,48,147811,6,0,L|136:56,1,70,2|8,0:0|0:0,0:0:0:0:
60,92,148595,1,0,0:0:0:0:
60,92,148987,2,0,P|60:152|100:220,1,140,4|8,0:1|0:0,0:0:0:0:
44,292,150163,2,0,P|102:254|171:252,1,140,2|0,0:0|0:0,0:0:0:0:
260,296,151339,2,0,L|320:312,2,52.5,8|2|0,0:0|0:0|0:0,0:0:0:0:
252,208,152123,6,0,P|229:150|240:72,1,140,4|8,0:0|0:0,0:0:0:0:
312,4,153299,2,0,P|334:61|324:140,1,140
284,224,154475,1,8,0:0:0:0:
224,152,154867,1,2,0:0:0:0:
172,232,155259,6,0,P|148:296|156:368,1,140,4|8,0:1|0:0,0:0:0:0:
248,376,156435,2,0,P|316:368|388:368,1,140
460,304,157611,2,0,L|468:236,2,52.5,8|2|0,0:0|0:0|0:0,0:0:0:0:
368,276,158396,6,0,P|298:275|228:284,1,140,4|8,0:0|0:0,0:0:0:0:
136,312,159572,1,0,0:0:0:0:
136,312,160748,2,0,L|85:325,2,52.5,8|2|0,0:0|0:0|0:0,0:0:0:0:
156,216,161532,6,0,P|120:156|116:80,1,140,4|8,0:1|0:0,0:0:0:0:
184,24,162708,2,0,B|223:0|280:36|328:8,1,140,2|0,0:0|0:0,0:0:0:0:
408,48,163884,1,8,0:0:0:0:
408,48,164668,6,0,P|412:80|400:132,1,70,4|0,0:0|0:0,0:0:0:0:
384,208,165452,1,8,0:0:0:0:
384,208,165844,2,0,L|492:196,2,105,0|2|8,0:0|0:0|0:0,0:0:0:0:
292,188,167412,1,0,0:0:0:0:
292,188,167804,6,0,P|270:230|284:320,1,140,4|8,0:1|0:0,0:0:0:0:
376,344,168980,2,0,P|333:322|244:336,1,140,2|0,0:0|0:0,0:0:0:0:
152,360,170156,2,0,L|80:348,1,70,8|0,0:0|0:0,0:0:0:0:
82,348,170940,6,0,P|65:281|90:217,1,140,4|8,0:0|0:0,0:0:0:0:
184,236,172116,2,0,P|209:171|192:105,1,140,2|0,0:0|0:0,0:0:0:0:
100,96,173292,2,0,L|44:86,2,52.5,8|2|0,0:0|0:0|0:0,0:0:0:0:
192,105,174076,6,0,P|256:80|332:84,1,140,4|8,0:1|0:0,0:0:0:0:
276,176,175252,2,0,P|212:201|136:197,1,140,2|0,0:0|0:0,0:0:0:0:
52,164,176428,1,8,0:0:0:0:
100,80,176820,1,0,0:0:0:0:
192,105,177212,5,2,0:0:0:0:
416,56,178388,1,0,0:0:0:0:
320,168,179564,1,8,0:0:0:0:
320,168,180348,5,4,0:1:0:0:
332,276,180740,1,0,0:0:0:0:
424,212,181132,1,8,0:0:0:0:
332,276,181524,2,0,P|272:272|196:304,1,140,4|0,0:1|0:0,0:0:0:0:
124,384,182700,2,0,L|112:308,1,70,8|0,0:0|0:0,0:0:0:0:
96,204,183484,5,4,0:1:0:0:
200,244,183876,1,2,0:0:0:0:
184,136,184268,1,8,0:0:0:0:
288,176,184660,2,0,P|356:164|432:172,1,140,4|0,0:1|0:0,0:0:0:0:
444,280,185836,1,8,0:0:0:0:
456,184,186228,1,2,0:0:0:0:
468,296,186620,6,0,L|456:368,1,70,4|0,0:1|0:0,0:0:0:0:
348,344,187404,1,8,0:0:0:0:
348,344,187796,2,0,P|280:332|204:340,1,140,4|0,0:1|0:0,0:0:0:0:
104,364,188972,1,8,0:0:0:0:
104,364,189756,5,4,0:1:0:0:
132,260,190148,1,2,0:0:0:0:
120,152,190540,1,8,0:0:0:0:
220,192,190932,2,0,P|300:156|328:108,1,140,4|0,0:1|0:0,0:0:0:0:
220,80,192108,1,8,0:0:0:0:
300,8,192500,1,2,0:0:0:0:
326,113,192892,6,0,L|436:104,1,105,4|0,0:1|0:0,0:0:0:0:
430,104,193676,1,8,0:0:0:0:
508,184,194068,2,0,P|428:220|400:268,1,140,4|0,0:1|0:0,0:0:0:0:
384,368,195244,1,8,0:0:0:0:
384,368,196028,6,0,L|308:360,1,70,4|2,0:1|0:0,0:0:0:0:
204,360,196812,1,8,0:0:0:0:
264,268,197204,2,0,P|196:256|120:264,1,140,4|0,0:1|0:0,0:0:0:0:
20,288,198380,1,8,0:0:0:0:
120,244,198772,1,2,0:0:0:0:
32,180,199164,6,0,P|20:128|28:76,1,105,4|0,0:1|0:0,0:0:0:0:
27,77,199948,1,8,0:0:0:0:
132,104,200340,2,0,L|272:92,1,140,4|0,0:1|0:0,0:0:0:0:
372,48,201516,1,8,0:0:0:0:
372,48,202300,6,0,L|360:132,1,70,4|2,0:1|0:0,0:0:0:0:
348,224,203084,1,8,0:0:0:0:
452,184,203476,1,4,0:1:0:0:
172,372,210532,5,2,0:0:0:0:
64,352,210924,1,8,0:0:0:0:
84,244,211316,1,0,0:0:0:0:
192,264,211708,6,0,P|194:187|200:124,1,140,4|8,0:0|0:0,0:0:0:0:
300,72,212884,2,0,P|297:148|292:212,1,140,4|0,0:0|0:0,0:0:0:0:
284,324,214060,1,8,0:0:0:0:
284,324,214844,6,0,L|360:312,1,70,4|2,0:0|0:0,0:0:0:0:
292,211,215628,1,8,0:0:0:0:
404,208,216020,2,0,P|410:138|411:68,1,140,4|0,0:0|0:0,0:0:0:0:
304,28,217196,1,8,0:0:0:0:
188,16,217588,1,2,0:0:0:0:
304,48,217980,6,0,P|297:117|296:187,1,140,4|8,0:0|0:0,0:0:0:0:
400,240,219156,2,0,P|332:224|261:232,1,140,4|0,0:0|0:0,0:0:0:0:
156,256,220332,1,8,0:0:0:0:
156,256,221116,6,0,L|148:172,1,70,4|2,0:0|0:0,0:0:0:0:
128,80,221900,1,8,0:0:0:0:
44,152,222292,1,4,0:0:0:0:
300,348,223468,1,8,0:0:0:0:
404,320,223860,1,2,0:0:0:0:
300,348,224252,6,0,L|288:236,1,105,4|0,0:0|0:0,0:0:0:0:
288,243,225036,1,8,0:0:0:0:
368,164,225428,2,0,P|312:144|216:160,1,140,4|0,0:0|0:0,0:0:0:0:
124,176,226604,2,0,L|112:120,2,52.5,8|2|0,0:0|0:0|0:0,0:0:0:0:
166,291,227388,6,0,P|114:294|64:280,1,105,4|0,0:0|0:0,0:0:0:0:
63,279,228172,1,8,0:0:0:0:
80,168,228564,2,0,L|44:20,1,140,4|0,0:0|0:0,0:0:0:0:
160,60,229740,2,0,P|188:72|220:68,2,52.5,8|2|0,0:0|0:0|0:0,0:0:0:0:
46,31,230524,6,0,L|63:100,1,70,4|0,0:0|0:0,0:0:0:0:
72,124,231112,2,0,L|55:192,1,70,2|0,0:0|0:0,0:0:0:0:
48,216,231700,2,0,L|200:240,1,140,4|0,0:0|0:0,0:0:0:0:
288,188,232876,2,0,P|304:160|304:128,2,52.5,8|2|0,0:0|0:0|0:0,0:0:0:0:
280,296,233660,6,0,L|348:279,1,70,4|0,0:0|0:0,0:0:0:0:
372,270,234248,2,0,L|440:286,1,70,2|0,0:0|0:0,0:0:0:0:
464,294,234836,2,0,L|488:142,1,140,4|0,0:0|0:0,0:0:0:0:
336,64,236012,1,8,0:0:0:0:
440,60,236404,1,4,0:0:0:0:
296,156,236796,5,4,0:1:0:0:
