osu file format v14

[General]
AudioFilename: audio.ogg
AudioLeadIn: 0
PreviewTime: 110019
Countdown: 1
SampleSet: Soft
StackLeniency: 0.7
Mode: 0
LetterboxInBreaks: 1
WidescreenStoryboard: 1

[Editor]
Bookmarks: 9944,19740,29536,53999,63795,73591,98108,110353,120149,129944,139740,149536,159332,166652
DistanceSpacing: 0.8
BeatDivisor: 4
GridSize: 4
TimelineZoom: 0.5999998

[Metadata]
Title:How Bad Can I Be?
TitleUnicode:How Bad Can I Be?
Artist:Ed Helms (feat. The Lorax Singers)
ArtistUnicode:Ed Helms (feat. The Lorax Singers)
Creator:Aranel
Version:Normal
Source:Dr. Seuss’ The Lorax
Tags:english pop ost original motion picture film soundtrack the once-ler kool kojak cinco paul john powell allan peter grigg christopher "tricky" stewart jounzan evilelvis evilelvis2 reiji-rj natteke desu
BeatmapID:4220125
BeatmapSetID:2003064

[Difficulty]
HPDrainRate:3
CircleSize:3
OverallDifficulty:5
ApproachRate:6
SliderMultiplier:1.9
SliderTickRate:1

[Events]
//Background and Video events
0,0,"Once-ler.full.1216261.jpg",0,0
Video,-220,"loraks.mp4"
//Break Periods
//Storyboard Layer 0 (Background)
//Storyboard Layer 1 (Fail)
//Storyboard Layer 2 (Pass)
//Storyboard Layer 3 (Foreground)
//Storyboard Layer 4 (Overlay)
//Storyboard Sound Samples

[TimingPoints]
122,612.244897959184,4,2,1,60,1,0
122,-125,4,2,1,60,0,0
9917,-111.111111111111,4,2,1,80,0,0
28285,-111.111111111111,4,2,1,50,0,0
29509,-111.111111111111,4,2,1,70,0,0
47877,-111.111111111111,4,2,1,60,0,0
49101,-111.111111111111,4,2,1,70,0,0
53999,-111.111111111111,4,2,1,80,0,0
70828,-111.111111111111,4,2,1,70,0,0
90734,-111.111111111111,4,2,1,40,0,0
93183,-111.111111111111,4,2,1,70,0,0
95632,-111.111111111111,4,2,1,60,0,0
106652,-111.111111111111,4,2,1,65,0,0
110326,-111.111111111111,4,2,1,80,0,0
129917,-111.111111111111,4,2,1,85,0,1
158693,-111.111111111111,4,2,1,85,0,0
159305,-100,4,2,1,85,0,1
166652,-100,4,2,1,70,0,0

[Colours]
Combo1 : 174,30,58
Combo2 : 30,210,62
Combo3 : 225,81,99
Combo4 : 22,118,58

[HitObjects]
34,64,122,6,0,P|114:34|186:42,1,152,2|8,3:2|0:1,0:0:0:0:
325,119,1346,2,0,P|368:114|405:104,1,76,2|2,3:2|0:0,0:0:0:0:
474,142,1958,1,8,0:1:0:0:
399,291,2570,2,0,P|400:327|417:379,2,76,2|2|8,3:2|0:0|0:1,0:0:0:0:
336,235,3489,1,2,0:0:0:0:
213,348,4101,2,0,L|134:334,1,76,2|8,0:0|0:1,0:0:0:0:
31,206,5019,6,0,L|191:176,1,152,2|8,3:2|0:1,0:0:0:0:
343,141,6244,2,0,P|352:104|357:66,1,76,2|2,3:2|0:0,0:0:0:0:
300,5,6855,1,8,0:1:0:0:
151,83,7468,2,0,P|141:119|136:157,2,76,2|2|8,3:2|0:0|0:1,0:0:0:0:
101,15,8387,1,2,0:0:0:0:
1,149,8999,1,2,3:2:0:0:
238,358,9917,5,6,3:2:0:0:
238,358,10224,1,2,0:0:0:0:
332,384,10530,1,10,0:0:0:0:
332,384,10836,1,2,0:0:0:0:
424,365,11142,2,0,P|453:286|460:201,1,170.999994781494,2|8,3:2|0:2,0:0:0:0:
391,35,12366,6,0,L|476:22,2,85.4999973907472,2|2|10,3:2|0:2|0:0,0:0:0:0:
319,95,13285,1,2,0:0:0:0:
310,87,13438,2,0,L|220:72,1,85.4999973907472,2|2,0:0|0:0,0:0:0:0:
177,1,14050,1,2,0:0:0:0:
166,7,14203,1,10,0:0:0:0:
14,93,14815,5,2,3:2:0:0:
14,93,15122,1,2,0:0:0:0:
36,189,15428,1,10,0:0:0:0:
36,189,15734,1,2,0:0:0:0:
120,230,16040,2,0,B|218:247|192:270|283:283,1,170.999994781494,2|8,3:2|0:2,0:0:0:0:
440,184,17264,6,0,P|427:144|419:100,1,85.4999973907472,2|2,3:2|0:2,0:0:0:0:
327,79,17877,2,0,P|298:108|275:129,1,42.7499986953736,10|2,0:0|0:0,0:0:0:0:
258,136,18183,1,2,0:0:0:0:
286,228,18489,2,0,P|325:237|367:251,1,85.4999973907472,2|2,3:2|3:2,0:0:0:0:
444,305,19101,1,8,0:0:0:0:
276,384,19713,5,6,3:2:0:0:
276,384,20019,1,2,0:0:0:0:
188,366,20326,1,10,0:0:0:0:
188,366,20632,1,2,0:0:0:0:
96,345,20938,2,0,P|58:285|64:189,1,170.999994781494,2|8,3:2|0:2,0:0:0:0:
226,92,22162,6,0,L|236:6,2,85.4999973907472,2|2|10,3:2|0:2|0:0,0:0:0:0:
274,179,23081,1,2,0:0:0:0:
280,189,23234,2,0,L|268:290,1,85.4999973907472,2|2,0:0|0:0,0:0:0:0:
313,350,23846,1,2,0:0:0:0:
319,361,23999,1,10,0:0:0:0:
473,247,24611,5,2,3:2:0:0:
473,247,24917,1,2,0:0:0:0:
493,158,25224,1,10,0:0:0:0:
493,158,25530,1,2,0:0:0:0:
401,136,25836,2,0,B|315:149|336:175|233:188,1,170.999994781494,2|8,3:2|0:2,0:0:0:0:
154,228,26754,1,2,3:2:0:0:
154,228,28285,6,0,P|119:236|55:248,2,85.4999973907472,0|0|0,3:2|3:2|3:2,0:0:0:0:
337,155,29509,6,0,P|373:171|430:186,1,85.4999973907472,6|2,3:2|0:2,0:0:0:0:
476,253,30122,1,10,0:2:0:0:
476,253,30428,1,2,0:2:0:0:
422,319,30734,2,0,P|376:325|331:341,2,85.4999973907472,2|2|10,3:2|3:2|0:2,0:0:0:0:
471,155,31958,5,2,3:2:0:0:
471,155,32264,1,2,0:2:0:0:
471,155,32570,2,0,L|458:62,1,85.4999973907472,10|2,0:2|0:2,0:0:0:0:
389,21,33183,2,0,B|293:36|323:64|223:82,1,170.999994781494,0|10,3:2|0:2,0:0:0:0:
156,50,34101,1,2,0:0:0:0:
156,50,34407,2,0,P|112:35|70:29,2,85.4999973907472,2|2|10,3:2|0:2|0:2,0:0:0:0:
265,180,35632,2,0,P|309:165|351:159,2,85.4999973907472,2|2|10,3:2|3:2|0:2,0:0:0:0:
141,297,36856,6,0,P|102:284|47:275,1,85.4999973907472,2|2,3:2|0:2,0:0:0:0:
24,197,37468,2,0,P|37:158|46:103,1,85.4999973907472,10|2,0:2|0:2,0:0:0:0:
122,73,38081,1,2,3:2:0:0:
122,73,38387,1,0,3:2:0:0:
194,117,38693,1,10,0:2:0:0:
246,279,39305,6,0,P|255:331|265:380,1,85.4999973907472,6|2,3:2|0:0,0:0:0:0:
344,381,39917,2,0,P|352:339|359:296,1,85.4999973907472,10|2,0:0|0:0,0:0:0:0:
439,266,40530,2,0,P|448:318|458:367,2,85.4999973907472,2|2|10,3:2|3:2|0:2,0:0:0:0:
488,196,41448,1,2,0:2:0:0:
421,142,41754,2,0,P|359:163|234:169,1,170.999994781494,2|10,3:2|0:0,0:0:0:0:
176,148,42673,1,2,0:0:0:0:
176,148,42979,1,0,3:0:0:0:
222,312,43591,6,0,P|160:291|35:285,1,170.999994781494,12|2,0:0|3:2,0:0:0:0:
4,214,44509,1,2,0:0:0:0:
4,214,44815,2,0,P|15:176|23:121,1,85.4999973907472,10|2,0:0|0:0,0:0:0:0:
115,146,45428,1,2,3:2:0:0:
115,146,45734,1,2,3:2:0:0:
115,146,46040,2,0,P|109:103|97:62,1,85.4999973907472,10|2,0:0|0:0,0:0:0:0:
171,18,46652,1,2,3:2:0:0:
307,121,47264,2,0,P|295:162|289:204,2,85.4999973907472,10|2|2,0:0|0:0|0:0,0:0:0:0:
171,18,48489,1,2,0:0:0:0:
307,121,49101,5,6,3:2:0:0:
307,121,49407,1,2,0:2:0:0:
389,100,49713,1,10,0:2:0:0:
389,100,50019,1,2,0:2:0:0:
470,74,50326,1,2,3:2:0:0:
491,243,50938,1,10,0:2:0:0:
332,289,51550,6,0,P|321:331|314:375,1,85.4999973907472,2|2,3:2|0:2,0:0:0:0:
229,360,52162,2,0,P|235:317|246:276,1,85.4999973907472,10|2,0:2|0:0,0:0:0:0:
160,258,52775,2,0,P|149:300|142:344,2,85.4999973907472,2|2|10,3:2|3:2|0:2,0:0:0:0:
45,147,53999,5,6,3:2:0:0:
45,147,54305,1,2,0:0:0:0:
26,59,54611,1,10,0:0:0:0:
26,59,54917,1,2,0:0:0:0:
106,13,55224,2,0,B|205:8|182:48|275:42,1,170.999994781494,2|8,3:2|0:2,0:0:0:0:
423,153,56448,6,0,P|462:144|508:140,2,85.4999973907472,2|2|10,3:2|0:2|0:0,0:0:0:0:
365,228,57367,1,2,0:0:0:0:
359,239,57519,2,0,P|367:290|386:337,1,85.4999973907472,2|2,0:0|0:0,0:0:0:0:
310,372,58132,1,2,0:0:0:0:
297,368,58285,1,10,0:0:0:0:
194,233,58897,5,2,3:2:0:0:
194,233,59204,1,2,0:0:0:0:
214,144,59510,1,10,0:0:0:0:
214,144,59816,1,2,0:0:0:0:
236,52,60122,2,0,P|163:9|71:18,1,170.999994781494,2|8,3:2|0:2,0:0:0:0:
23,194,61346,6,0,P|38:233|48:276,1,85.4999973907472,2|2,3:2|0:2,0:0:0:0:
141,293,61959,2,0,P|168:262|201:230,1,85.4999973907472,10|2,0:0|0:0,0:0:0:0:
174,142,62571,2,0,P|134:135|97:123,1,42.7499986953736,2|0,3:2|0:0,0:0:0:0:
87,120,62877,1,2,3:2:0:0:
23,194,63183,1,8,0:0:0:0:
75,374,63795,5,6,3:2:0:0:
75,374,64101,1,2,0:0:0:0:
168,362,64408,1,10,0:0:0:0:
168,362,64714,1,2,0:0:0:0:
259,341,65020,2,0,P|339:355|441:378,1,170.999994781494,2|8,3:2|0:2,0:0:0:0:
500,201,66244,6,0,P|490:169|478:116,2,85.4999973907472,2|2|10,3:2|0:2|0:0,0:0:0:0:
435,269,67163,1,2,0:0:0:0:
425,277,67315,2,0,P|372:264|327:258,1,85.4999973907472,2|2,0:0|0:0,0:0:0:0:
314,164,67928,1,2,0:0:0:0:
309,151,68081,1,10,0:0:0:0:
166,56,68693,5,2,3:2:0:0:
166,56,68999,1,2,0:0:0:0:
84,21,69306,1,10,0:0:0:0:
84,21,69612,1,2,0:0:0:0:
10,79,69918,2,0,P|25:163|37:257,1,170.999994781494,2|8,3:2|0:2,0:0:0:0:
118,292,70836,5,2,3:2:0:0:
118,292,71142,2,0,P|156:268|217:241,1,85.4999973907472,2|2,3:2|0:0,0:0:0:0:
280,218,71754,1,10,0:0:0:0:
359,268,72060,1,6,0:0:0:0:
482,125,72673,2,0,P|414:76|337:33,1,170.999994781494,4|2,1:1|0:0,0:0:0:0:
249,0,73591,6,0,L|150:16,1,85.4999973907472,6|2,3:2|0:2,0:0:0:0:
108,78,74203,1,10,0:2:0:0:
108,78,74509,1,2,0:2:0:0:
156,148,74815,2,0,L|255:164,1,85.4999973907472,2|2,3:2|3:2,0:0:0:0:
297,232,75428,1,10,0:2:0:0:
297,232,75734,1,2,0:0:0:0:
379,211,76040,6,0,B|413:129|391:42,1,170.999994781494,2|10,3:2|0:2,0:0:0:0:
317,11,76958,1,2,0:2:0:0:
317,11,77264,1,0,3:2:0:0:
160,80,77877,2,0,P|121:72|61:66,1,85.4999973907472,8|2,0:2|0:0,0:0:0:0:
10,122,78489,5,2,3:2:0:0:
10,122,78795,1,2,0:2:0:0:
56,193,79101,1,10,0:2:0:0:
226,204,79713,2,0,P|265:196|325:190,1,85.4999973907472,2|2,3:2|3:2,0:0:0:0:
375,135,80326,1,10,0:2:0:0:
425,303,80938,5,2,3:2:0:0:
425,303,81244,1,2,0:2:0:0:
354,351,81550,2,0,L|260:335,1,85.4999973907472,10|2,0:2|0:2,0:0:0:0:
220,267,82162,2,0,B|117:247,1,85.4999973907472,2|2,3:2|3:2,0:0:0:0:
87,180,82775,1,12,0:2:0:0:
182,38,83387,5,6,3:2:0:0:
267,30,83693,1,2,0:0:0:0:
352,22,83999,1,10,0:0:0:0:
454,159,84611,5,2,3:2:0:0:
418,236,84917,1,2,3:2:0:0:
382,314,85223,1,10,0:2:0:0:
213,334,85836,5,2,3:2:0:0:
164,264,86142,1,2,0:0:0:0:
118,191,86448,2,0,P|121:147|133:79,1,85.4999973907472,10|2,0:0|0:0,0:0:0:0:
201,64,87060,2,0,P|255:78|300:95,2,85.4999973907472,0|2|10,3:0|3:2|0:0,0:0:0:0:
127,106,87979,1,2,0:0:0:0:
57,60,88285,5,6,3:2:0:0:
57,60,88591,1,2,0:0:0:0:
57,60,88897,2,0,P|13:131|16:216,1,170.999994781494,10|2,0:0|3:2,0:0:0:0:
71,291,89815,1,0,3:2:0:0:
71,291,90122,2,0,L|182:305,1,85.4999973907472,8|2,0:0|0:0,0:0:0:0:
215,362,90734,1,0,3:2:0:0:
215,362,91958,6,0,L|400:339,2,170.999994781494,2|2|2,3:2|0:0|3:2,0:0:0:0:
155,301,93489,1,2,0:0:0:0:
194,225,93795,1,10,0:0:0:0:
132,166,94101,1,2,0:0:0:0:
180,95,94407,2,0,P|187:65|199:3,2,85.4999973907472,2|0|8,3:2|3:2|0:0,0:0:0:0:
21,31,95632,1,8,0:3:0:0:
21,31,96856,2,0,P|34:115|54:198,1,170.999994781494,4|0,0:3|1:2,0:0:0:0:
104,362,98081,6,0,L|0:344,2,85.4999973907472,6|2|2,3:2|0:0|1:2,0:0:0:0:
254,281,99305,2,0,L|358:299,2,85.4999973907472,2|2|2,3:2|0:2|1:2,0:0:0:0:
143,150,100530,1,2,3:2:0:0:
143,150,100836,1,2,0:0:0:0:
143,150,101142,1,2,1:2:0:0:
293,69,101754,1,2,3:2:0:0:
293,69,102060,1,2,0:0:0:0:
293,69,102366,2,0,L|397:87,1,85.4999973907472,2|2,1:2|0:0,0:0:0:0:
452,42,102979,5,6,3:2:0:0:
475,211,103591,2,0,L|371:229,1,85.4999973907472,2|2,1:2|0:0,0:0:0:0:
331,287,104203,2,0,L|227:305,1,85.4999973907472,2|2,3:2|0:0,0:0:0:0:
191,366,104815,2,0,L|87:384,2,85.4999973907472,2|2|2,1:2|0:0|0:0,0:0:0:0:
331,287,106040,1,6,2:2:0:0:
256,192,106652,12,0,109713,3:2:0:0:
439,167,110326,5,6,3:2:0:0:
439,167,110632,1,2,0:0:0:0:
465,76,110938,1,10,0:0:0:0:
465,76,111244,1,2,0:0:0:0:
385,25,111551,2,0,P|299:37|208:33,1,170.999994781494,2|8,3:2|0:2,0:0:0:0:
67,150,112775,6,0,P|112:157|152:171,1,85.4999973907472,2|2,3:2|0:2,0:0:0:0:
168,262,113387,2,0,P|195:271|223:274,2,42.7499986953736,10|2|2,0:0|0:0|0:0,0:0:0:0:
104,334,113999,2,0,P|61:327|21:312,2,85.4999973907472,2|2|8,3:2|3:2|0:0,0:0:0:0:
288,374,115224,5,6,3:2:0:0:
288,374,115531,1,2,0:0:0:0:
372,333,115837,1,10,0:0:0:0:
372,333,116143,1,2,0:0:0:0:
462,309,116448,2,0,P|469:263|484:196,2,85.4999973907472,2|2|8,3:2|3:2|0:2,0:0:0:0:
256,192,117673,12,12,119509,0:0:0:0:
67,383,120122,5,6,3:2:0:0:
67,383,120428,1,2,0:0:0:0:
31,302,120734,1,10,0:0:0:0:
31,302,121040,1,2,0:0:0:0:
80,221,121347,2,0,P|69:146|76:36,1,170.999994781494,2|8,3:2|0:2,0:0:0:0:
153,2,122264,1,2,3:2:0:0:
225,62,122571,6,0,L|314:46,1,85.4999973907472,2|2,3:2|0:2,0:0:0:0:
401,27,123183,1,10,0:0:0:0:
401,27,123490,1,2,0:0:0:0:
464,95,123795,2,0,L|392:264,1,170.999994781494,2|10,3:2|0:0,0:0:0:0:
228,168,125020,5,6,3:2:0:0:
228,168,125327,1,2,0:0:0:0:
136,145,125633,1,10,0:0:0:0:
136,145,125939,1,2,0:0:0:0:
43,127,126245,2,0,P|2:201|14:293,1,170.999994781494,2|8,3:2|0:2,0:0:0:0:
75,353,127162,1,2,3:2:0:0:
75,353,127469,6,0,P|118:355|162:330,1,85.4999973907472,2|2,3:2|0:2,0:0:0:0:
241,375,128082,2,0,P|274:342|280:289,1,85.4999973907472,10|2,0:0|0:0,0:0:0:0:
373,280,128694,2,0,P|370:239|346:198,2,85.4999973907472,2|2|10,3:2|3:2|0:2,0:0:0:0:
155,336,129917,5,6,3:2:0:0:
61,320,130224,1,2,0:3:0:0:
50,226,130530,1,10,0:2:0:0:
138,194,130836,1,2,0:3:0:0:
203,260,131142,1,2,3:2:0:0:
388,292,131754,1,8,0:2:0:0:
458,229,132060,6,0,L|454:159,1,42.7499986953736,2|2,0:0|0:0,0:0:0:0:
478,145,132366,2,0,P|486:87|460:16,1,128.249996086121,2|2,3:2|0:2,0:0:0:0:
416,18,132979,1,10,0:2:0:0:
335,65,133285,1,2,0:2:0:0:
256,12,133591,2,0,L|161:0,2,85.4999973907472,2|2|8,3:2|3:2|0:2,0:0:0:0:
363,166,134815,5,6,3:2:0:0:
383,258,135122,1,2,0:2:0:0:
404,349,135428,1,10,0:2:0:0:
310,342,135734,1,2,0:2:0:0:
216,334,136040,1,2,3:2:0:0:
31,371,136652,1,8,0:2:0:0:
9,279,136958,6,0,L|23:210,1,42.7499986953736,2|2,0:0|0:0,0:0:0:0:
28,194,137264,1,2,3:2:0:0:
28,194,137417,2,0,P|84:237|167:238,1,128.249996086121,2|10,0:0|0:2,0:0:0:0:
227,209,138183,1,2,0:2:0:0:
290,278,138489,2,0,L|271:371,2,85.4999973907472,0|2|8,3:2|3:2|0:2,0:0:0:0:
419,141,139713,5,6,3:2:0:0:
439,48,140020,1,2,0:3:0:0:
347,26,140326,1,10,0:2:0:0:
255,3,140632,1,2,0:3:0:0:
230,93,140938,1,2,3:2:0:0:
47,138,141550,1,8,0:2:0:0:
89,221,141856,6,0,L|144:231,1,42.7499986953736,2|2,0:0|0:0,0:0:0:0:
166,259,142162,1,2,3:2:0:0:
166,259,142315,2,0,P|227:269|292:226,1,128.249996086121,2|10,0:0|0:2,0:0:0:0:
334,158,143081,1,2,0:2:0:0:
374,73,143387,2,0,L|469:61,2,85.4999973907472,2|2|8,3:2|3:2|0:2,0:0:0:0:
194,17,144611,5,6,3:2:0:0:
109,59,144918,1,2,0:2:0:0:
175,124,145224,1,10,0:2:0:0:
94,171,145530,1,2,0:2:0:0:
168,228,145836,1,2,3:2:0:0:
8,327,146448,1,8,0:2:0:0:
85,379,146754,6,0,L|148:366,1,42.7499986953736,2|2,0:0|0:0,0:0:0:0:
159,336,147060,2,0,P|208:363|270:355,1,85.4999973907472,2|2,3:2|0:0,0:0:0:0:
307,301,147673,1,10,0:2:0:0:
443,327,148132,1,2,0:2:0:0:
443,327,148285,2,0,L|462:237,2,85.4999973907472,2|2|8,3:2|3:2|0:2,0:0:0:0:
236,364,149509,5,6,3:2:0:0:
142,373,149816,1,2,0:2:0:0:
130,279,150122,1,10,0:2:0:0:
223,268,150428,1,2,0:2:0:0:
236,364,150734,1,2,3:2:0:0:
50,330,151346,1,8,0:2:0:0:
21,245,151652,5,2,0:0:0:0:
21,245,151805,2,0,L|42:94,1,128.249996086121,2|2,0:0|0:0,0:0:0:0:
130,99,152570,2,0,L|142:203,1,85.4999973907472,10|2,0:2|0:0,0:0:0:0:
175,214,153030,1,2,0:2:0:0:
175,214,153183,1,2,3:2:0:0:
242,279,153489,2,0,P|285:303|335:299,1,85.4999973907472,2|8,3:2|0:2,0:0:0:0:
477,200,154407,5,6,3:2:0:0:
493,107,154714,1,2,0:2:0:0:
427,40,155020,1,10,0:2:0:0:
333,35,155326,1,2,0:2:0:0:
265,100,155632,1,2,3:2:0:0:
242,279,156244,1,8,0:2:0:0:
169,338,156550,5,2,0:0:0:0:
169,338,156703,1,2,0:0:0:0:
169,338,156856,2,0,P|113:295|64:292,1,85.4999973907472,2|2,3:2|0:0,0:0:0:0:
27,231,157468,1,10,0:2:0:0:
96,167,157775,1,2,0:0:0:0:
35,95,158081,2,0,L|54:2,2,85.4999973907472,2|2|8,3:2|3:2|0:2,0:0:0:0:
96,167,158999,1,2,0:2:0:0:
182,108,159305,6,0,B|280:126|268:72|369:99,1,190,4|8,1:1|0:0,0:0:0:0:
468,130,160224,1,4,0:0:0:0:
437,229,160530,1,0,3:2:0:0:
233,278,161142,5,8,0:2:0:0:
267,376,161448,1,6,0:2:0:0:
364,338,161754,2,0,P|440:340|505:383,2,142.5,2|2|6,3:2|1:2|1:2,0:0:0:0:
341,235,162979,2,0,P|396:182|472:167,1,142.5,2|2,3:2|1:2,0:0:0:0:
507,147,163591,1,8,0:2:0:0:
491,43,163897,1,4,1:2:0:0:
387,56,164203,1,4,1:1:0:0:
256,192,164509,12,2,166652,3:2:0:0:
