osu file format v14

[General]
AudioFilename: audio.ogg
AudioLeadIn: 0
PreviewTime: 110019
Countdown: 1
SampleSet: Soft
StackLeniency: 0.7
Mode: 0
LetterboxInBreaks: 1
WidescreenStoryboard: 1

[Editor]
Bookmarks: 9944,19740,29536,53999,63795,73591,98108,110353,120149,125019,129944,139740,149536,159332,166652
DistanceSpacing: 0.8
BeatDivisor: 4
GridSize: 4
TimelineZoom: 2.799999

[Metadata]
Title:How Bad Can I Be?
TitleUnicode:How Bad Can I Be?
Artist:Ed Helms (feat. The Lorax Singers)
ArtistUnicode:Ed Helms (feat. The Lorax Singers)
Creator:Aranel
Version:Hard
Source:Dr. Seuss’ The Lorax
Tags:english pop ost original motion picture film soundtrack the once-ler kool kojak cinco paul john powell allan peter grigg christopher "tricky" stewart jounzan evilelvis evilelvis2 reiji-rj natteke desu
BeatmapID:4169077
BeatmapSetID:2003064

[Difficulty]
HPDrainRate:4
CircleSize:4
OverallDifficulty:6
ApproachRate:7.2
SliderMultiplier:2.5
SliderTickRate:1

[Events]
//Background and Video events
0,0,"Once-ler.full.1216261.jpg",0,0
Video,-220,"loraks.mp4"
//Break Periods
//Storyboard Layer 0 (Background)
//Storyboard Layer 1 (Fail)
//Storyboard Layer 2 (Pass)
//Storyboard Layer 3 (Foreground)
//Storyboard Layer 4 (Overlay)
//Storyboard Sound Samples

[TimingPoints]
122,612.244897959184,4,2,1,60,1,0
122,-125,4,2,1,60,0,0
8999,-111.111111111111,4,2,1,60,0,0
9917,-100,4,2,1,80,0,0
11295,-100,4,2,1,80,0,0
11754,-100,4,2,1,80,0,0
12060,-100,4,2,1,80,0,0
12366,-100,4,2,1,80,0,0
13132,-100,4,2,1,80,0,0
13285,-100,4,2,1,80,0,0
14509,-100,4,2,1,80,0,0
14815,-100,4,2,1,80,0,0
16193,-100,4,2,1,80,0,0
16652,-100,4,2,1,80,0,0
16958,-100,4,2,1,80,0,0
17264,-100,4,2,1,80,0,0
18336,-100,4,2,1,80,0,0
18489,-100,4,2,1,80,0,0
18948,-100,4,2,1,80,0,0
19101,-100,4,2,1,80,0,0
19407,-100,4,2,1,80,0,0
19713,-100,4,2,1,80,0,0
21091,-100,4,2,1,80,0,0
21550,-100,4,2,1,80,0,0
21856,-100,4,2,1,80,0,0
22162,-100,4,2,1,80,0,0
22928,-100,4,2,1,80,0,0
23081,-100,4,2,1,80,0,0
24305,-100,4,2,1,80,0,0
24611,-100,4,2,1,80,0,0
25989,-100,4,2,1,80,0,0
26448,-100,4,2,1,80,0,0
28285,-117.647058823529,4,2,1,50,0,0
29356,-117.647058823529,4,2,1,50,0,0
29509,-105.263157894737,4,2,1,70,0,0
29968,-105.263157894737,4,2,1,70,0,0
30122,-105.263157894737,4,2,1,70,0,0
31193,-105.263157894737,4,2,1,70,0,0
31346,-105.263157894737,4,2,1,70,0,0
31652,-105.263157894737,4,2,1,70,0,0
31958,-105.263157894737,4,2,1,70,0,0
32111,-105.263157894737,4,2,1,70,0,0
32264,-105.263157894737,4,2,1,70,0,0
32417,-105.263157894737,4,2,1,70,0,0
32570,-105.263157894737,4,2,1,70,0,0
33030,-105.263157894737,4,2,1,70,0,0
33183,-105.263157894737,4,2,1,70,0,0
33489,-105.263157894737,4,2,1,70,0,0
33795,-105.263157894737,4,2,1,70,0,0
34254,-105.263157894737,4,2,1,70,0,0
34407,-105.263157894737,4,2,1,70,0,0
34560,-105.263157894737,4,2,1,70,0,0
34713,-105.263157894737,4,2,1,70,0,0
34866,-105.263157894737,4,2,1,70,0,0
35019,-105.263157894737,4,2,1,70,0,0
35172,-105.263157894737,4,2,1,70,0,0
35632,-105.263157894737,4,2,1,70,0,0
36091,-105.263157894737,4,2,1,70,0,0
36244,-105.263157894737,4,2,1,70,0,0
36397,-105.263157894737,4,2,1,70,0,0
36856,-105.263157894737,4,2,1,70,0,0
37009,-105.263157894737,4,2,1,70,0,0
37162,-105.263157894737,4,2,1,70,0,0
37315,-105.263157894737,4,2,1,70,0,0
37468,-105.263157894737,4,2,1,70,0,0
38693,-133.333333333333,4,2,1,70,0,0
39152,-133.333333333333,4,2,1,70,0,0
39305,-100,4,2,1,70,0,0
39458,-100,4,2,1,70,0,0
39611,-100,4,2,1,70,0,0
39764,-100,4,2,1,70,0,0
39917,-100,4,2,1,70,0,0
40377,-100,4,2,1,70,0,0
40530,-100,4,2,1,70,0,0
42060,-100,4,2,1,70,0,0
42366,-100,4,2,1,70,0,0
42826,-100,4,2,1,70,0,0
42979,-100,4,2,1,70,0,0
43285,-100,4,2,1,70,0,0
43591,-90.9090909090909,4,2,1,70,0,0
43897,-90.9090909090909,4,2,1,70,0,0
44203,-100,4,2,1,70,0,0
44356,-100,4,2,1,70,0,0
44509,-100,4,2,1,70,0,0
44662,-100,4,2,1,70,0,0
44815,-100,4,2,1,70,0,0
44968,-100,4,2,1,70,0,0
45122,-100,4,2,1,70,0,0
45275,-100,4,2,1,70,0,0
45428,-100,4,2,1,70,0,0
45581,-100,4,2,1,70,0,0
45734,-100,4,2,1,70,0,0
45887,-100,4,2,1,70,0,0
46040,-100,4,2,1,70,0,0
46193,-100,4,2,1,70,0,0
46346,-100,4,2,1,70,0,0
47877,-111.111111111111,4,2,1,60,0,0
49101,-99.9999999999999,4,2,1,70,0,0
50632,-99.9999999999999,4,2,1,70,0,0
50938,-99.9999999999999,4,2,1,70,0,0
51244,-99.9999999999999,4,2,1,70,0,0
51550,-99.9999999999999,4,2,1,70,0,0
52622,-99.9999999999999,4,2,1,70,0,0
52775,-99.9999999999999,4,2,1,70,0,0
52928,-99.9999999999999,4,2,1,70,0,0
53081,-99.9999999999999,4,2,1,70,0,0
53693,-99.9999999999999,4,2,1,70,0,0
53999,-100,4,2,1,80,0,0
55377,-100,4,2,1,80,0,0
55836,-100,4,2,1,80,0,0
56142,-100,4,2,1,80,0,0
56448,-100,4,2,1,80,0,0
57214,-100,4,2,1,80,0,0
57367,-100,4,2,1,80,0,0
58591,-100,4,2,1,80,0,0
58897,-100,4,2,1,80,0,0
60275,-100,4,2,1,80,0,0
60734,-100,4,2,1,80,0,0
61040,-100,4,2,1,80,0,0
61346,-100,4,2,1,80,0,0
62112,-100,4,2,1,80,0,0
62265,-100,4,2,1,80,0,0
62418,-100,4,2,1,80,0,0
62571,-100,4,2,1,80,0,0
63489,-100,4,2,1,80,0,0
63795,-100,4,2,1,80,0,0
65173,-100,4,2,1,80,0,0
65632,-100,4,2,1,80,0,0
65938,-100,4,2,1,80,0,0
66244,-100,4,2,1,80,0,0
67010,-100,4,2,1,80,0,0
67163,-100,4,2,1,80,0,0
68387,-100,4,2,1,80,0,0
68693,-100,4,2,1,80,0,0
70071,-100,4,2,1,80,0,0
70530,-100,4,2,1,80,0,0
70828,-100,4,2,1,70,0,0
70836,-100,4,2,1,70,0,0
71142,-100,4,2,1,70,0,0
71601,-100,4,2,1,70,0,0
71754,-100,4,2,1,70,0,0
72366,-200,4,2,1,70,0,0
72673,-80,4,2,1,70,0,0
72979,-100,4,2,1,70,0,0
73285,-133.333333333333,4,2,1,70,0,0
73591,-105.263157894737,4,2,1,70,0,0
73744,-105.263157894737,4,2,1,70,0,0
73897,-105.263157894737,4,2,1,70,0,0
74050,-105.263157894737,4,2,1,70,0,0
74204,-105.263157894737,4,2,1,70,0,0
74968,-105.263157894737,4,2,1,70,0,0
75122,-105.263157894737,4,2,1,70,0,0
75275,-105.263157894737,4,2,1,70,0,0
75428,-105.263157894737,4,2,1,70,0,0
75887,-105.263157894737,4,2,1,70,0,0
76040,-105.263157894737,4,2,1,70,0,0
76193,-105.263157894737,4,2,1,70,0,0
76652,-105.263157894737,4,2,1,70,0,0
77570,-105.263157894737,4,2,1,70,0,0
77877,-105.263157894737,4,2,1,70,0,0
78030,-105.263157894737,4,2,1,70,0,0
78183,-105.263157894737,4,2,1,70,0,0
78336,-105.263157894737,4,2,1,70,0,0
78489,-105.263157894737,4,2,1,70,0,0
78642,-105.263157894737,4,2,1,70,0,0
78795,-105.263157894737,4,2,1,70,0,0
78948,-105.263157894737,4,2,1,70,0,0
79101,-105.263157894737,4,2,1,70,0,0
79254,-105.263157894737,4,2,1,70,0,0
79713,-105.263157894737,4,2,1,70,0,0
79866,-105.263157894737,4,2,1,70,0,0
80019,-105.263157894737,4,2,1,70,0,0
80172,-105.263157894737,4,2,1,70,0,0
80326,-105.263157894737,4,2,1,70,0,0
80632,-105.263157894737,4,2,1,70,0,0
80938,-105.263157894737,4,2,1,70,0,0
81091,-105.263157894737,4,2,1,70,0,0
81244,-105.263157894737,4,2,1,70,0,0
81397,-105.263157894737,4,2,1,70,0,0
81550,-105.263157894737,4,2,1,70,0,0
82775,-133.333333333333,4,2,1,70,0,0
83234,-133.333333333333,4,2,1,70,0,0
83387,-100,4,2,1,70,0,0
83540,-100,4,2,1,70,0,0
83693,-100,4,2,1,70,0,0
83846,-100,4,2,1,70,0,0
83999,-100,4,2,1,70,0,0
84152,-100,4,2,1,70,0,0
84611,-100,4,2,1,70,0,0
84764,-100,4,2,1,70,0,0
84917,-100,4,2,1,70,0,0
85070,-100,4,2,1,70,0,0
85224,-100,4,2,1,70,0,0
85377,-100,4,2,1,70,0,0
85836,-100,4,2,1,70,0,0
86295,-100,4,2,1,70,0,0
86448,-100,4,2,1,70,0,0
87213,-100,4,2,1,70,0,0
87366,-100,4,2,1,70,0,0
87519,-100,4,2,1,70,0,0
87673,-100,4,2,1,70,0,0
87826,-100,4,2,1,70,0,0
87979,-100,4,2,1,70,0,0
88132,-100,4,2,1,70,0,0
88285,-83.3333333333333,4,2,1,70,0,0
88438,-83.3333333333333,4,2,1,70,0,0
88591,-90.9090909090909,4,2,1,70,0,0
89203,-90.9090909090909,4,2,1,70,0,0
89510,-90.9090909090909,4,2,1,70,0,0
89662,-90.9090909090909,4,2,1,70,0,0
90122,-90.9090909090909,4,2,1,70,0,0
90734,-133.333333333333,4,2,1,40,0,0
91040,-133.333333333333,4,2,1,40,0,0
92570,-133.333333333333,4,2,1,40,0,0
93183,-100,4,2,1,70,0,0
95326,-100,4,2,1,70,0,0
95632,-142.857142857143,4,2,1,60,0,0
98081,-117.647058823529,4,2,1,60,0,0
102366,-100,4,2,1,60,0,0
102673,-117.647058823529,4,2,1,60,0,0
103285,-100,4,2,1,60,0,0
106040,-76.9230769230769,4,2,1,60,0,1
106499,-76.9230769230769,4,2,1,60,0,1
106652,-100,4,2,1,65,0,0
106805,-100,4,2,1,65,0,0
109713,-100,4,2,1,65,0,0
110326,-100,4,2,1,80,0,0
111703,-100,4,2,1,80,0,0
112162,-100,4,2,1,80,0,0
112468,-100,4,2,1,80,0,0
112775,-100,4,2,1,80,0,0
112928,-100,4,2,1,80,0,0
113081,-100,4,2,1,80,0,0
113846,-100,4,2,1,80,0,0
113999,-100,4,2,1,80,0,0
114917,-100,4,2,1,80,0,0
115224,-100,4,2,1,80,0,0
116601,-100,4,2,1,80,0,0
117060,-100,4,2,1,80,0,0
117366,-100,4,2,1,80,0,0
117672,-100,4,2,1,80,0,0
118285,-100,4,2,1,80,0,0
119509,-100,4,2,1,80,0,0
121499,-100,4,2,1,80,0,0
121958,-100,4,2,1,80,0,0
122724,-100,4,2,1,80,0,0
122877,-100,4,2,1,80,0,0
124101,-100,4,2,1,80,0,0
124407,-100,4,2,1,80,0,0
124560,-100,4,2,1,80,0,0
125019,-100,4,2,1,80,0,0
126397,-100,4,2,1,80,0,0
126856,-100,4,2,1,80,0,0
127928,-100,4,2,1,80,0,0
128081,-100,4,2,1,80,0,0
129611,-100,4,2,1,80,0,0
129917,-95.2380952380952,4,2,1,85,0,1
129994,-95.2380952380952,4,2,1,85,0,0
130224,-95.2380952380952,4,2,1,85,0,0
131295,-95.2380952380952,4,2,1,85,0,0
131754,-95.2380952380952,4,2,1,85,0,0
133132,-95.2380952380952,4,2,1,85,0,0
133285,-95.2380952380952,4,2,1,85,0,0
133438,-95.2380952380952,4,2,1,85,0,0
133591,-95.2380952380952,4,2,1,85,0,0
134509,-95.2380952380952,4,2,1,85,0,0
134815,-95.2380952380952,4,2,1,85,0,0
136193,-95.2380952380952,4,2,1,85,0,0
136652,-95.2380952380952,4,2,1,85,0,0
137570,-95.2380952380952,4,2,1,85,0,0
137877,-95.2380952380952,4,2,1,85,0,0
138948,-95.2380952380952,4,2,1,85,0,0
139101,-95.2380952380952,4,2,1,85,0,0
139254,-95.2380952380952,4,2,1,85,0,0
139713,-95.2380952380952,4,2,1,85,0,1
139790,-95.2380952380952,4,2,1,85,0,0
140020,-95.2380952380952,4,2,1,85,0,0
141091,-95.2380952380952,4,2,1,85,0,0
141550,-95.2380952380952,4,2,1,85,0,0
142468,-95.2380952380952,4,2,1,85,0,0
142775,-95.2380952380952,4,2,1,85,0,0
142928,-95.2380952380952,4,2,1,85,0,0
143081,-95.2380952380952,4,2,1,85,0,0
143234,-95.2380952380952,4,2,1,85,0,0
143387,-95.2380952380952,4,2,1,85,0,0
143846,-95.2380952380952,4,2,1,85,0,0
143999,-95.2380952380952,4,2,1,85,0,0
144152,-95.2380952380952,4,2,1,85,0,0
144305,-95.2380952380952,4,2,1,85,0,0
144611,-95.2380952380952,4,2,1,85,0,0
145070,-95.2380952380952,4,2,1,85,0,0
145224,-95.2380952380952,4,2,1,85,0,0
145989,-95.2380952380952,4,2,1,85,0,0
146448,-95.2380952380952,4,2,1,85,0,0
146754,-95.2380952380952,4,2,1,85,0,0
147213,-95.2380952380952,4,2,1,85,0,0
147366,-95.2380952380952,4,2,1,85,0,0
147519,-95.2380952380952,4,2,1,85,0,0
147673,-95.2380952380952,4,2,1,85,0,0
147979,-95.2380952380952,4,2,1,85,0,0
148132,-95.2380952380952,4,2,1,85,0,0
149203,-95.2380952380952,4,2,1,85,0,0
149509,-95.2380952380952,4,2,1,85,0,1
149586,-95.2380952380952,4,2,1,85,0,0
149816,-95.2380952380952,4,2,1,85,0,0
150887,-95.2380952380952,4,2,1,85,0,0
151346,-95.2380952380952,4,2,1,85,0,0
151958,-95.2380952380952,4,2,1,85,0,0
152264,-95.2380952380952,4,2,1,85,0,0
152417,-95.2380952380952,4,2,1,85,0,0
152570,-95.2380952380952,4,2,1,85,0,0
152723,-95.2380952380952,4,2,1,85,0,0
152877,-95.2380952380952,4,2,1,85,0,0
154101,-95.2380952380952,4,2,1,85,0,0
154407,-95.2380952380952,4,2,1,85,0,0
155785,-95.2380952380952,4,2,1,85,0,0
156244,-95.2380952380952,4,2,1,85,0,0
157009,-95.2380952380952,4,2,1,85,0,0
157162,-95.2380952380952,4,2,1,85,0,0
157315,-95.2380952380952,4,2,1,85,0,0
157468,-95.2380952380952,4,2,1,85,0,0
158234,-95.2380952380952,4,2,1,85,0,0
158387,-95.2380952380952,4,2,1,85,0,0
158540,-95.2380952380952,4,2,1,85,0,0
158693,-95.2380952380952,4,2,1,85,0,0
159305,-83.3333333333333,4,2,1,85,0,1
159611,-83.3333333333333,4,2,1,85,0,1
159917,-83.3333333333333,4,2,1,85,0,1
160377,-83.3333333333333,4,2,1,85,0,1
160530,-83.3333333333333,4,2,1,85,0,1
160683,-83.3333333333333,4,2,1,85,0,1
161142,-83.3333333333333,4,2,1,85,0,1
161295,-83.3333333333333,4,2,1,85,0,1
161448,-83.3333333333333,4,2,1,85,0,1
162060,-83.3333333333333,4,2,1,85,0,1
162213,-83.3333333333333,4,2,1,85,0,1
162366,-83.3333333333333,4,2,1,85,0,1
162673,-83.3333333333333,4,2,1,85,0,1
163285,-83.3333333333333,4,2,1,85,0,1
163438,-83.3333333333333,4,2,1,85,0,1
163744,-83.3333333333333,4,2,1,85,0,1
163898,-83.3333333333333,4,2,1,85,0,1
164356,-83.3333333333333,4,2,1,85,0,1
166652,-100,4,2,1,70,0,0

[Colours]
Combo1 : 174,30,58
Combo2 : 30,210,62
Combo3 : 225,81,99
Combo4 : 22,118,58

[HitObjects]
457,2,122,6,0,P|387:14|334:128,1,200,2|8,3:2|0:1,0:0:0:0:
333,122,887,1,2,0:0:0:0:
333,122,1040,1,2,0:0:0:0:
401,207,1346,2,0,L|511:223,2,100,2|2|8,3:2|0:0|0:1,0:0:0:0:
339,286,2264,1,2,0:0:0:0:
339,286,2417,1,2,0:0:0:0:
339,286,2570,2,0,L|349:345,2,50,2|2|2,3:2|0:0|0:0,0:0:0:0:
247,244,3183,1,8,0:1:0:0:
251,136,3489,1,2,0:0:0:0:
83,27,4101,2,0,L|62:131,1,100,2|8,0:0|0:1,0:0:0:0:
0,309,5019,6,0,B|108:335|92:276|206:303,1,200,2|8,3:2|0:1,0:0:0:0:
196,300,5785,1,2,0:0:0:0:
196,300,5938,1,2,0:0:0:0:
282,234,6244,2,0,P|333:232|385:249,2,100,2|2|8,3:2|0:0|0:1,0:0:0:0:
202,174,7162,1,2,0:0:0:0:
202,174,7315,1,2,0:0:0:0:
202,174,7468,2,0,L|192:121,2,50,2|2|2,3:2|0:0|0:0,0:0:0:0:
282,234,8081,1,8,0:1:0:0:
292,330,8387,1,2,0:0:0:0:
292,330,8999,6,0,L|322:104,1,224.999993133545,2|2,3:2|0:2,0:0:0:0:
235,1,9917,5,6,3:2:0:0:
107,54,10224,1,2,0:0:0:0:
119,190,10530,1,10,0:0:0:0:
252,220,10836,1,2,0:0:0:0:
322,107,11142,1,2,3:2:0:0:
322,107,11295,2,0,P|379:92|447:89,1,125,2|2,0:0|0:0,0:0:0:0:
507,47,11754,1,8,0:2:0:0:
500,191,12060,2,0,P|495:219|483:260,1,62.5,0|0,3:0|3:0,0:0:0:0:
504,323,12366,6,0,P|465:283|377:279,1,125,2|2,3:2|0:2,0:0:0:0:
280,208,12979,2,0,P|274:179|265:139,2,62.5,10|2|2,0:0|0:0|0:0,0:0:0:0:
245,274,13438,1,2,0:0:0:0:
161,383,13744,2,0,L|29:359,1,125,2|2,0:0|0:0,0:0:0:0:
3,296,14203,1,10,0:0:0:0:
110,210,14509,1,2,0:0:0:0:
0,125,14815,6,0,P|9:60|23:-2,1,125,2|2,3:2|0:0,0:0:0:0:
133,87,15428,2,0,P|123:151|109:210,1,125,10|2,0:0|0:0,0:0:0:0:
195,322,16040,1,2,3:2:0:0:
195,322,16193,2,0,P|257:353|345:346,1,125,2|2,0:0|0:0,0:0:0:0:
380,384,16652,1,8,0:2:0:0:
480,293,16958,2,0,P|475:265|463:224,1,62.5,0|0,3:0|3:0,0:0:0:0:
392,211,17264,5,2,3:2:0:0:
484,109,17570,1,2,0:2:0:0:
382,31,17877,1,10,0:0:0:0:
382,31,18030,1,2,0:0:0:0:
382,31,18183,2,0,P|353:37|313:46,1,62.5,2|2,0:0|0:0,0:0:0:0:
265,89,18489,2,0,B|197:69|205:104|135:75,1,125,2|2,3:2|3:2,0:0:0:0:
95,23,18948,1,2,0:0:0:0:
95,23,19101,2,0,P|104:96|104:167,1,125,8|2,0:0|0:0,0:0:0:0:
14,243,19713,5,6,3:2:0:0:
64,370,20019,1,2,0:0:0:0:
189,312,20326,1,10,0:0:0:0:
131,187,20632,1,2,0:0:0:0:
14,243,20938,1,2,3:2:0:0:
14,243,21091,2,0,P|75:299|140:316,1,125,2|2,0:0|0:0,0:0:0:0:
189,312,21550,1,8,0:2:0:0:
312,253,21856,2,0,P|318:222|326:192,1,62.5,0|0,3:0|3:0,0:0:0:0:
400,185,22162,6,0,P|441:259|456:311,2,125,2|2|10,3:2|0:2|0:0,0:0:0:0:
420,112,22928,1,2,0:0:0:0:
420,112,23081,1,2,0:0:0:0:
420,112,23234,1,2,0:0:0:0:
321,17,23540,2,0,P|255:36|183:50,1,125,2|2,0:0|0:0,0:0:0:0:
131,19,23999,1,10,0:0:0:0:
64,137,24305,1,2,0:0:0:0:
154,240,24611,6,0,P|163:305|177:367,1,125,2|2,3:2|0:0,0:0:0:0:
293,339,25224,2,0,P|278:275|269:211,1,125,10|2,0:0|0:0,0:0:0:0:
390,196,25836,1,2,3:2:0:0:
390,196,25989,2,0,P|398:260|413:323,1,125,2|2,0:0|0:0,0:0:0:0:
440,384,26448,1,8,0:2:0:0:
509,265,26754,1,2,3:2:0:0:
509,265,28285,5,0,3:2:0:0:
395,246,28591,1,0,3:2:0:0:
282,222,28897,2,0,P|267:149|285:45,1,159.375003039837,0|2,3:2|0:2,0:0:0:0:
285,60,29509,6,0,L|161:67,1,118.749996829033,6|2,3:2|0:2,0:0:0:0:
120,41,29968,1,2,0:2:0:0:
120,41,30122,1,10,0:2:0:0:
28,70,30428,1,2,0:2:0:0:
50,175,30734,2,0,P|64:238|63:303,1,118.749996829033,2|2,3:2|3:2,0:0:0:0:
56,349,31193,1,2,0:2:0:0:
56,349,31346,2,0,L|201:333,1,118.749996829033,10|2,0:2|0:0,0:0:0:0:
225,363,31805,5,2,0:0:0:0:
225,363,31958,2,0,L|303:352,1,59.3749984145165,2|2,3:2|0:2,0:0:0:0:
322,318,32264,2,0,L|400:329,1,59.3749984145165,2|2,0:2|0:2,0:0:0:0:
428,351,32570,2,0,P|458:303|445:216,1,118.749996829033,10|2,0:2|0:2,0:0:0:0:
424,206,33030,1,2,0:0:0:0:
424,206,33183,1,0,3:2:0:0:
317,189,33489,1,2,3:2:0:0:
210,171,33795,1,10,0:2:0:0:
249,76,34101,5,2,0:0:0:0:
249,76,34254,1,2,0:0:0:0:
249,76,34407,2,0,P|285:60|314:52,1,59.3749984145165,2|2,3:2|0:2,0:0:0:0:
338,13,34713,2,0,P|366:22|393:34,1,59.3749984145165,2|2,0:2|0:2,0:0:0:0:
446,26,35019,2,0,P|458:55|468:92,2,59.3749984145165,10|2|2,0:2|0:2|0:2,0:0:0:0:
323,92,35632,6,0,P|339:152|360:206,1,118.749996829033,2|2,3:2|3:2,0:0:0:0:
395,257,36091,1,2,0:2:0:0:
395,257,36244,1,10,0:2:0:0:
395,257,36397,2,0,P|338:244|283:266,1,118.749996829033,2|2,0:2|0:0,0:0:0:0:
230,274,36856,6,0,L|217:368,1,59.3749984145165,2|2,3:2|0:2,0:0:0:0:
183,367,37162,1,2,0:2:0:0:
183,367,37315,1,2,0:2:0:0:
183,367,37468,2,0,P|106:360|55:331,1,118.749996829033,10|2,0:2|0:2,0:0:0:0:
101,198,38081,1,2,3:2:0:0:
223,234,38387,1,0,3:2:0:0:
183,367,38693,1,10,0:2:0:0:
450,323,39152,1,2,0:0:0:0:
450,323,39305,6,0,P|459:287|469:253,2,62.5,6|2|2,3:2|0:0|0:0,0:0:0:0:
409,357,39764,1,2,0:0:0:0:
409,357,39917,1,10,0:0:0:0:
318,308,40224,1,2,0:0:0:0:
318,308,40377,1,2,0:0:0:0:
318,308,40530,2,0,B|290:297|290:297|187:321,2,125,2|2|10,3:2|3:2|0:2,0:0:0:0:
367,212,41448,1,2,0:2:0:0:
423,120,41754,6,0,P|390:75|328:24,1,125,2|2,3:2|0:0,0:0:0:0:
226,46,42366,2,0,P|204:96|190:176,1,125,10|2,0:0|0:0,0:0:0:0:
205,223,42826,1,2,0:0:0:0:
205,223,42979,1,0,3:0:0:0:
100,264,43285,1,0,3:0:0:0:
199,337,43591,2,0,L|351:323,1,137.500004196167,12|2,0:0|0:0,0:0:0:0:
383,361,44050,1,2,0:0:0:0:
383,361,44203,6,0,L|456:351,1,62.5,2|2,3:2|0:0,0:0:0:0:
469,306,44509,1,2,0:0:0:0:
469,306,44662,1,2,0:0:0:0:
469,306,44815,2,0,P|485:275|480:225,1,62.5,10|2,0:0|0:0,0:0:0:0:
454,206,45122,2,0,L|384:191,1,62.5,2|2,0:0|0:0,0:0:0:0:
353,162,45428,6,0,L|280:172,1,62.5,2|2,3:2|0:0,0:0:0:0:
255,206,45734,1,2,3:2:0:0:
255,206,45887,1,2,0:0:0:0:
255,206,46040,2,0,P|239:237|244:287,1,62.5,10|2,0:0|0:0,0:0:0:0:
261,309,46346,1,2,0:0:0:0:
166,361,46652,1,2,3:2:0:0:
10,116,47264,1,10,0:0:0:0:
104,63,47570,1,2,0:0:0:0:
256,192,47877,12,6,49101,3:2:0:0:
94,61,49407,5,2,0:2:0:0:
207,74,49713,1,10,0:2:0:0:
321,87,50019,1,2,0:2:0:0:
434,100,50326,2,0,P|452:167|453:251,1,125,2|0,3:2|3:2,0:0:0:0:
349,259,50938,2,0,P|332:195|331:116,1,125,10|0,0:2|0:0,0:0:0:0:
207,74,51550,5,2,3:2:0:0:
128,147,51856,1,2,0:2:0:0:
108,252,52162,1,10,0:2:0:0:
132,357,52468,1,2,0:0:0:0:
132,357,52622,1,0,0:0:0:0:
132,357,52775,2,0,L|201:371,2,62.5,2|2|2,3:2|0:0|3:2,0:0:0:0:
26,317,53387,1,10,0:2:0:0:
108,252,53693,2,0,P|114:221|123:192,1,62.5,2|0,3:2|0:0,0:0:0:0:
80,120,53999,5,6,3:2:0:0:
157,6,54305,1,2,0:0:0:0:
250,104,54612,1,10,0:0:0:0:
342,2,54918,1,2,0:0:0:0:
437,107,55224,1,2,3:2:0:0:
437,107,55377,2,0,P|452:164|460:233,1,125,2|2,0:0|0:0,0:0:0:0:
501,293,55836,1,8,0:2:0:0:
397,382,56142,2,0,L|331:362,1,62.5,0|0,3:0|3:0,0:0:0:0:
305,291,56448,6,0,P|246:271|184:278,1,125,2|2,3:2|0:2,0:0:0:0:
55,323,57061,2,0,P|49:352|40:392,2,62.5,10|2|2,0:0|0:0|0:0,0:0:0:0:
12,260,57520,1,2,0:0:0:0:
139,191,57826,2,0,L|115:59,1,125,2|2,0:0|0:0,0:0:0:0:
157,0,58285,1,10,0:0:0:0:
244,107,58591,1,2,0:0:0:0:
336,0,58897,6,0,P|404:6|451:53,1,125,2|2,3:2|0:0,0:0:0:0:
392,169,59509,2,0,P|324:163|277:116,1,125,10|2,0:0|0:0,0:0:0:0:
206,18,60122,1,2,3:2:0:0:
206,18,60275,2,0,L|56:42,1,125,2|2,0:0|0:0,0:0:0:0:
15,10,60734,1,8,0:2:0:0:
3,151,61040,2,0,P|8:179|20:220,1,62.5,0|0,3:0|3:0,0:0:0:0:
0,289,61346,5,2,3:2:0:0:
127,322,61652,1,2,0:2:0:0:
264,360,61959,1,10,0:0:0:0:
264,360,62112,1,2,0:0:0:0:
264,360,62265,2,0,P|293:366|333:375,1,62.5,2|2,0:0|0:0,0:0:0:0:
400,384,62571,2,0,P|425:329|424:260,1,125,2|2,3:2|3:2,0:0:0:0:
289,241,63183,2,0,P|264:296|265:365,1,125,8|2,0:0|0:0,0:0:0:0:
139,367,63795,5,6,3:2:0:0:
0,329,64101,1,2,0:0:0:0:
40,192,64408,1,10,0:0:0:0:
179,228,64714,1,2,0:0:0:0:
139,367,65020,1,2,3:2:0:0:
139,367,65173,2,0,P|70:342|29:257,1,125,2|2,0:0|0:0,0:0:0:0:
0,237,65632,1,8,0:2:0:0:
94,140,65938,2,0,P|99:112|111:71,1,62.5,0|0,3:0|3:0,0:0:0:0:
169,34,66244,6,0,P|110:36|58:-1,2,125,2|2|10,3:2|0:2|0:0,0:0:0:0:
240,0,67010,1,2,0:0:0:0:
240,0,67163,1,2,0:0:0:0:
240,0,67316,1,2,0:0:0:0:
352,79,67622,2,0,P|333:155|312:224,1,125,2|2,0:0|0:0,0:0:0:0:
356,268,68081,1,10,0:0:0:0:
313,380,68387,1,2,0:0:0:0:
431,358,68693,6,0,P|444:301|465:224,1,125,2|2,3:2|0:0,0:0:0:0:
344,207,69305,2,0,P|326:266|312:328,1,125,10|2,0:0|0:0,0:0:0:0:
198,298,69918,1,2,3:2:0:0:
198,298,70071,2,0,P|211:236|226:176,1,125,2|2,0:0|0:0,0:0:0:0:
179,116,70530,1,8,0:2:0:0:
74,174,70836,1,2,3:2:0:0:
8,73,71142,1,2,3:2:0:0:
112,9,71448,5,2,0:0:0:0:
112,9,71601,1,2,0:0:0:0:
112,9,71754,1,10,0:0:0:0:
74,174,72060,1,6,0:0:0:0:
74,174,72673,2,0,P|61:260|66:337,2,156.25,4|4|2,1:1|1:1|0:0,0:0:0:0:
112,9,73591,5,6,3:2:0:0:
112,9,73744,1,2,0:2:0:0:
112,9,73897,2,0,L|178:19,1,59.3749984145165,2|2,0:2|0:2,0:0:0:0:
211,52,74204,1,10,0:2:0:0:
312,17,74510,1,2,0:2:0:0:
397,96,74815,1,2,3:2:0:0:
397,96,74968,1,2,0:2:0:0:
397,96,75122,2,0,L|375:181,1,59.3749984145165,2|2,3:2|0:2,0:0:0:0:
418,192,75428,2,0,P|411:259|376:314,1,118.749996829033,10|2,0:2|0:0,0:0:0:0:
345,337,75887,5,2,0:0:0:0:
345,337,76040,2,0,L|267:326,3,59.3749984145165,2|2|2|2,3:2|0:2|0:2|0:2,0:0:0:0:
237,351,76652,1,10,0:2:0:0:
130,330,76958,1,2,0:2:0:0:
25,301,77264,2,0,P|15:250|19:171,1,118.749996829033,0|0,3:2|3:2,0:0:0:0:
96,111,77877,1,8,0:2:0:0:
96,111,78030,2,0,L|168:124,2,59.3749984145165,2|2|2,0:0|0:0|0:0,0:0:0:0:
63,82,78489,5,2,3:2:0:0:
63,82,78642,1,2,0:2:0:0:
63,82,78795,2,0,P|62:43|75:10,1,59.3749984145165,2|2,0:2|0:2,0:0:0:0:
117,4,79101,1,10,0:2:0:0:
117,4,79254,1,2,0:2:0:0:
261,82,79713,5,2,3:2:0:0:
261,82,79866,1,2,0:2:0:0:
261,82,80019,2,0,L|328:70,1,59.3749984145165,2|2,3:2|0:2,0:0:0:0:
372,62,80326,2,0,P|391:118|386:182,1,118.749996829033,10|2,0:2|0:2,0:0:0:0:
344,205,80785,1,2,0:0:0:0:
344,205,80938,6,0,P|332:256|331:299,1,59.3749984145165,2|2,3:2|0:2,0:0:0:0:
367,301,81244,2,0,P|395:296|428:287,1,59.3749984145165,2|2,0:2|0:2,0:0:0:0:
472,311,81550,1,10,0:2:0:0:
512,212,81856,1,2,0:2:0:0:
429,135,82163,1,2,3:2:0:0:
325,197,82469,1,2,3:2:0:0:
355,321,82775,2,0,B|278:310|298:345|217:332,1,140.625005364418,12|2,0:2|0:0,0:0:0:0:
153,371,83387,6,0,L|91:380,1,62.5,6|2,3:2|0:0,0:0:0:0:
36,321,83693,2,0,L|59:263,1,62.5,2|2,0:0|0:0,0:0:0:0:
137,247,83999,1,10,0:0:0:0:
137,247,84152,1,2,0:0:0:0:
137,247,84305,2,0,L|182:289,1,62.5,2|2,0:0|0:0,0:0:0:0:
268,352,84611,6,0,L|337:343,3,62.5,2|2|2|2,3:2|0:0|3:2|0:0,0:0:0:0:
395,302,85224,1,10,0:2:0:0:
395,302,85377,1,2,0:0:0:0:
395,302,85530,2,0,L|464:311,1,62.5,2|2,0:2|0:0,0:0:0:0:
511,249,85836,6,0,P|525:201|517:123,1,125,2|2,3:2|0:0,0:0:0:0:
469,76,86295,1,2,0:0:0:0:
469,76,86448,1,10,0:0:0:0:
313,89,86754,1,2,0:0:0:0:
157,104,87060,2,0,L|78:85,1,62.5,0|2,3:0|0:0,0:0:0:0:
10,98,87366,2,0,L|71:111,1,62.5,2|2,3:2|0:0,0:0:0:0:
119,185,87673,2,0,L|179:199,1,62.5,10|2,0:0|0:2,0:0:0:0:
280,291,87979,2,0,L|219:277,1,62.5,2|2,0:0|0:0,0:0:0:0:
117,340,88285,5,6,3:2:0:0:
117,340,88438,1,2,0:0:0:0:
117,340,88591,2,0,P|102:263|123:199,1,137.500004196167,2|10,0:0|0:0,0:0:0:0:
157,104,89203,1,2,0:0:0:0:
282,159,89510,1,2,3:2:0:0:
282,159,89662,2,0,P|297:236|276:300,1,137.500004196167,2|2,0:0|0:0,0:0:0:0:
265,367,90122,1,8,0:0:0:0:
131,353,90428,1,2,0:0:0:0:
3,340,90734,1,0,3:2:0:0:
256,192,91040,12,2,92570,0:0:0:0:
235,52,93183,5,2,3:2:0:0:
352,185,93489,1,2,0:0:0:0:
329,10,93795,1,10,0:0:0:0:
242,163,94101,1,2,0:0:0:0:
398,86,94407,2,0,P|458:88|518:120,2,125,2|0|8,3:2|3:2|0:0,0:0:0:0:
242,163,95326,1,0,3:2:0:0:
280,280,95632,1,8,0:3:0:0:
280,280,96856,2,0,L|379:300,1,87.499997329712,4|0,0:3|3:0,0:0:0:0:
436,241,97468,1,0,1:2:0:0:
195,325,98081,6,0,L|138:310,2,53.125001013279,6|2|2,3:2|0:0|0:0,0:0:0:0:
271,384,98693,1,2,1:2:0:0:
436,241,99305,6,0,L|487:255,2,53.125001013279,2|2|2,3:2|0:0|0:2,0:0:0:0:
360,182,99917,1,2,1:2:0:0:
189,46,100530,5,2,3:2:0:0:
189,46,100683,1,2,0:0:0:0:
189,46,100836,1,2,0:0:0:0:
91,65,101142,1,2,1:2:0:0:
121,268,101754,5,2,3:2:0:0:
121,268,101907,1,2,0:0:0:0:
121,268,102060,1,2,0:0:0:0:
219,249,102366,1,2,1:2:0:0:
203,150,102673,1,2,0:0:0:0:
95,165,102979,6,0,P|45:137|-9:116,1,106.250002026558,6|2,3:2|0:0,0:0:0:0:
11,43,103438,1,2,0:0:0:0:
11,43,103591,2,0,P|47:30|75:17,1,62.5,2|2,1:2|0:0,0:0:0:0:
128,71,103897,2,0,P|164:84|192:97,1,62.5,2|2,0:0|0:0,0:0:0:0:
244,38,104203,2,0,P|276:35|314:25,3,62.5,2|2|2|2,3:2|0:0|0:0|0:0,0:0:0:0:
372,71,104815,1,2,1:2:0:0:
484,20,105122,1,2,0:0:0:0:
484,20,105275,1,2,0:0:0:0:
484,20,105428,1,2,0:0:0:0:
484,20,106040,6,2,B|436:155|505:116|454:262,1,243.749988842011,6|0,2:2|0:0,0:1:0:0:
430,334,106652,6,0,P|388:331|315:336,1,62.5,0|0,3:0|3:0,0:0:0:0:
318,303,106958,2,0,P|276:306|218:377,2,125,0|0|2,3:0|3:0|3:2,0:0:0:0:
455,258,107877,6,0,P|452:216|457:143,1,62.5,0|0,3:2|3:2,0:0:0:0:
413,155,108183,2,0,P|455:152|513:81,2,125,2|2|2,3:2|3:2|3:2,0:0:0:0:
325,101,109101,6,0,L|244:88,1,62.5,2|2,3:2|3:2,0:0:0:0:
195,127,109407,2,0,L|133:117,1,62.5,2|2,3:2|0:0,0:0:0:0:
65,156,109713,1,0,3:2:0:0:
65,156,110326,5,6,3:2:0:0:
29,301,110632,1,2,0:0:0:0:
163,233,110938,1,10,0:0:0:0:
183,381,111244,1,2,0:0:0:0:
315,307,111550,1,2,3:2:0:0:
315,307,111703,2,0,P|381:309|470:326,1,125,2|2,0:0|0:0,0:0:0:0:
483,257,112162,2,0,P|449:204|412:119,1,125,8|0,0:2|3:0,0:0:0:0:
350,151,112622,1,0,3:0:0:0:
350,151,112775,6,0,P|327:190|309:211,1,62.5,2|0,3:2|0:0,0:0:0:0:
258,250,113081,1,2,0:2:0:0:
139,158,113387,1,10,0:0:0:0:
139,158,113540,1,2,0:0:0:0:
139,158,113693,2,0,L|51:144,1,62.5,2|2,0:0|0:0,0:0:0:0:
37,84,113999,2,0,P|77:25|161:27,2,125,2|2|8,3:2|3:2|0:0,0:0:0:0:
8,218,114917,1,2,0:0:0:0:
108,311,115224,5,6,3:2:0:0:
245,300,115530,1,2,0:0:0:0:
233,150,115836,1,10,0:0:0:0:
96,161,116142,1,2,0:0:0:0:
108,311,116448,5,2,3:2:0:0:
108,311,116601,1,2,0:0:0:0:
245,300,116907,1,2,0:0:0:0:
245,300,117060,1,8,0:2:0:0:
382,289,117366,2,0,L|461:284,2,62.5,2|2|0,0:0|0:0|0:0,0:0:0:0:
256,192,118285,12,12,119509,0:0:0:0:
382,289,120122,5,6,3:2:0:0:
259,226,120428,1,2,0:0:0:0:
296,93,120734,1,10,0:0:0:0:
433,83,121040,1,2,0:0:0:0:
487,214,121346,1,2,3:2:0:0:
487,214,121499,2,0,P|481:288|452:360,1,125,2|2,0:0|0:0,0:0:0:0:
407,384,121958,1,8,0:2:0:0:
277,337,122264,1,2,3:2:0:0:
142,369,122571,6,0,P|112:378|81:383,1,62.5,2|2,3:2|0:0,0:0:0:0:
17,341,122877,1,2,0:2:0:0:
105,235,123183,2,0,P|174:263|231:262,1,125,10|2,0:0|0:0,0:0:0:0:
340,192,123795,6,0,P|359:132|353:70,1,125,2|0,3:2|3:0,0:0:0:0:
289,32,124254,1,2,0:0:0:0:
289,32,124407,2,0,L|210:46,1,62.5,10|2,0:0|0:0,0:0:0:0:
159,10,124713,1,2,0:0:0:0:
53,97,125019,6,0,L|68:224,1,125,6|2,3:2|0:0,0:0:0:0:
223,263,125632,2,0,L|208:138,1,125,10|2,0:0|0:0,0:0:0:0:
353,69,126244,1,2,3:2:0:0:
353,69,126397,2,0,L|368:194,1,125,2|2,0:0|0:0,0:0:0:0:
431,236,126856,1,8,0:2:0:0:
395,355,127162,1,2,3:2:0:0:
271,335,127468,6,0,P|209:323|147:317,1,125,2|2,3:2|0:2,0:0:0:0:
92,264,127928,1,2,0:0:0:0:
92,264,128081,2,0,P|80:205|61:130,1,125,10|2,0:0|0:0,0:0:0:0:
0,34,128693,5,2,3:2:0:0:
124,19,128999,1,2,3:2:0:0:
247,2,129305,2,0,P|260:72|280:148,1,125,10|0,0:2|3:2,0:0:0:0:
386,190,129917,5,6,3:2:0:0:
344,342,130224,1,2,0:3:0:0:
228,226,130530,5,10,0:2:0:0:
323,359,130837,1,2,0:3:0:0:
170,353,131142,5,2,3:2:0:0:
170,353,131295,2,0,L|33:329,1,131.249995994568,2|2,0:0|0:0,0:0:0:0:
1,262,131754,1,8,0:2:0:0:
111,150,132060,5,2,0:0:0:0:
111,150,132213,1,2,0:0:0:0:
111,150,132366,2,0,B|219:123|200:189|302:157,1,196.874993991852,2|2,3:2|0:2,0:0:0:0:
359,104,132979,2,0,P|368:70|375:39,1,65.624997997284,10|0,0:2|0:0,0:0:0:0:
441,3,133285,2,0,P|432:37|425:68,1,65.624997997284,2|0,0:2|0:0,0:0:0:0:
454,137,133591,5,2,3:2:0:0:
482,287,133897,1,2,3:2:0:0:
333,327,134203,1,8,0:2:0:0:
303,176,134509,1,2,0:2:0:0:
142,57,134815,5,6,3:2:0:0:
0,126,135122,1,2,0:2:0:0:
26,281,135428,1,10,0:2:0:0:
179,314,135734,1,2,0:2:0:0:
256,185,136040,1,2,3:2:0:0:
256,185,136193,2,0,P|278:124|305:56,1,131.249995994568,2|2,0:0|0:0,0:0:0:0:
364,13,136652,1,8,0:2:0:0:
483,131,136958,5,2,0:0:0:0:
483,131,137111,1,2,0:0:0:0:
483,131,137264,2,0,B|495:220,1,65.624997997284,2|2,3:2|0:0,0:0:0:0:
452,264,137570,1,0,0:0:0:0:
314,183,137877,2,0,P|250:186|190:216,1,131.249995994568,10|2,0:2|0:2,0:0:0:0:
78,324,138489,5,0,3:2:0:0:
8,182,138795,2,0,L|91:165,1,65.624997997284,2|0,3:2|0:0,0:0:0:0:
147,146,139101,2,0,L|82:135,1,65.624997997284,8|0,0:2|0:0,0:0:0:0:
23,82,139407,1,2,0:2:0:0:
170,27,139713,5,6,3:2:0:0:
324,60,140020,1,2,0:3:0:0:
281,211,140326,1,10,0:2:0:0:
126,181,140632,1,2,0:3:0:0:
281,211,140938,1,2,3:2:0:0:
281,211,141091,2,0,B|355:197|343:234|410:216,1,131.249995994568,2|2,0:0|0:0,0:0:0:0:
483,189,141550,1,8,0:2:0:0:
512,342,141856,6,0,L|397:315,1,65.624997997284,2|2,0:0|0:0,0:0:0:0:
381,369,142162,1,2,3:2:0:0:
381,369,142315,2,0,L|277:384,1,65.624997997284,2|0,0:0|0:0,0:0:0:0:
198,288,142775,1,10,0:2:0:0:
198,288,142928,1,2,0:2:0:0:
198,288,143081,2,0,L|157:367,1,65.624997997284,2|0,0:2|0:0,0:0:0:0:
92,370,143387,5,2,3:2:0:0:
8,235,143693,2,0,P|50:214|103:226,1,65.624997997284,2|0,3:2|0:0,0:0:0:0:
112,148,143999,2,0,P|156:162|185:208,1,65.624997997284,8|0,0:2|0:0,0:0:0:0:
245,153,144305,2,0,P|266:195|253:248,1,65.624997997284,2|0,0:2|0:0,0:0:0:0:
324,265,144611,5,6,3:2:0:0:
478,293,144917,1,2,0:2:0:0:
493,215,145070,1,2,0:0:0:0:
509,137,145224,1,10,0:2:0:0:
353,113,145530,1,2,0:2:0:0:
324,265,145836,1,2,3:2:0:0:
324,265,145989,2,0,P|261:240|180:247,1,131.249995994568,2|2,0:0|0:0,0:0:0:0:
142,184,146448,1,8,0:2:0:0:
20,281,146754,5,2,0:0:0:0:
20,281,146907,1,2,0:0:0:0:
20,281,147060,2,0,L|30:361,1,65.624997997284,2|0,3:2|0:0,0:0:0:0:
100,375,147366,2,0,L|164:326,1,65.624997997284,2|0,0:0|0:0,0:0:0:0:
161,256,147673,2,0,B|85:237|111:281|24:263,1,131.249995994568,10|0,0:2|0:0,0:0:0:0:
4,196,148132,1,2,0:2:0:0:
4,196,148285,5,2,3:2:0:0:
152,143,148591,1,2,3:2:0:0:
7,79,148897,5,8,0:2:0:0:
158,121,149203,1,2,0:2:0:0:
290,35,149509,5,6,3:2:0:0:
311,191,149816,1,2,0:2:0:0:
466,169,150122,1,10,0:2:0:0:
444,12,150428,1,2,0:2:0:0:
290,35,150734,1,2,3:2:0:0:
290,35,150887,2,0,P|297:111|314:205,1,131.249995994568,2|2,0:0|0:0,0:0:0:0:
361,221,151346,1,8,0:2:0:0:
255,338,151652,5,2,0:0:0:0:
255,338,151805,1,2,0:0:0:0:
255,338,151958,2,0,L|108:327,1,131.249995994568,0|2,3:2|0:0,0:0:0:0:
71,276,152417,1,2,0:0:0:0:
71,276,152570,2,0,P|58:236|73:186,1,65.624997997284,10|0,0:2|0:0,0:0:0:0:
127,170,152877,1,2,0:0:0:0:
134,177,153030,1,2,0:2:0:0:
134,177,153183,5,2,3:2:0:0:
289,202,153489,1,2,3:2:0:0:
444,225,153795,2,0,P|479:171|476:57,1,131.249995994568,8|2,0:2|0:2,0:0:0:0:
345,7,154407,5,6,3:2:0:0:
194,51,154713,1,2,0:2:0:0:
308,158,155019,1,10,0:2:0:0:
345,7,155326,1,2,0:2:0:0:
194,51,155632,1,2,3:2:0:0:
194,51,155785,2,0,L|50:27,1,131.249995994568,2|2,0:0|0:0,0:0:0:0:
1,77,156244,1,8,0:2:0:0:
108,192,156550,5,2,0:0:0:0:
115,199,156703,1,2,0:0:0:0:
115,199,156856,2,0,L|89:284,1,65.624997997284,2|0,3:2|0:0,0:0:0:0:
110,353,157162,2,0,L|129:290,1,65.624997997284,2|0,0:0|0:0,0:0:0:0:
218,238,157468,5,10,0:2:0:0:
364,297,157775,1,2,0:0:0:0:
479,189,158081,2,0,L|499:127,1,65.624997997284,2|2,3:2|0:3,0:0:0:0:
463,56,158387,2,0,L|401:36,1,65.624997997284,2|2,3:2|0:3,0:0:0:0:
334,79,158693,1,8,0:2:0:0:
363,233,158999,1,2,0:2:0:0:
193,165,159305,6,0,P|118:163|60:207,1,149.999995422363,4|4,1:1|0:0,0:0:0:0:
38,294,159764,1,0,0:0:0:0:
99,359,159917,2,0,P|173:360|232:317,1,149.999995422363,8|4,0:0|0:0,0:0:0:0:
261,231,160377,1,2,0:2:0:0:
261,231,160530,2,0,L|285:133,1,74.9999977111817,0|2,3:2|0:2,0:0:0:0:
365,133,160836,2,0,L|437:202,1,74.9999977111817,4|2,3:2|0:2,0:0:0:0:
397,272,161142,2,0,L|300:300,1,74.9999977111817,8|0,0:2|0:0,0:0:0:0:
261,231,161448,1,6,0:2:0:0:
106,323,161754,6,0,P|76:261|83:158,1,149.999995422363,2|4,3:2|0:0,0:0:0:0:
105,98,162213,1,2,1:2:0:0:
105,98,162366,2,0,L|202:72,1,74.9999977111817,8|0,0:0|0:0,0:0:0:0:
228,3,162673,1,6,1:2:0:0:
400,54,162979,6,0,P|430:116|423:219,1,149.999995422363,2|4,3:2|3:2,0:0:0:0:
401,279,163438,1,2,1:2:0:0:
401,279,163591,2,0,L|304:305,1,74.9999977111817,8|2,0:2|0:2,0:0:0:0:
278,374,163898,1,4,1:2:0:0:
256,192,164203,1,4,1:1:0:0:
256,192,164356,12,2,166652,3:2:0:0:
