osu file format v14

[General]
AudioFilename: audio.mp3
AudioLeadIn: 0
PreviewTime: 14264
Countdown: 1
SampleSet: Normal
StackLeniency: 0.7
Mode: 2
LetterboxInBreaks: 0
WidescreenStoryboard: 1

[Editor]
Bookmarks: 30191
DistanceSpacing: 0.8
BeatDivisor: 2
GridSize: 4
TimelineZoom: 1

[Metadata]
Title:Under the Alolan Sun
TitleUnicode:Under the Alolan Sun
Artist:Ed Goldfarb
ArtistUnicode:Ed Goldfarb
Creator:wonjae
Version:Salad
Source:Pokémon the Series: Sun & Moon
Tags:
BeatmapID:1677936
BeatmapSetID:799134

[Difficulty]
HPDrainRate:5
CircleSize:3.5
OverallDifficulty:6
ApproachRate:6
SliderMultiplier:1.2
SliderTickRate:1

[Events]
//Background and Video events
0,0,"aaaaaaaagay.jpg",0,0
//Break Periods
//Storyboard Layer 0 (Background)
//Storyboard Layer 1 (Fail)
//Storyboard Layer 2 (Pass)
//Storyboard Layer 3 (Foreground)
//Storyboard Sound Samples

[TimingPoints]
990.323475238394,408.441116405718,4,1,0,49,1,0
14468,-100,4,1,0,49,0,1
20595,-100,4,1,0,49,0,0
21003,-100,4,1,0,49,0,1
26722,-100,4,1,0,49,0,0
28968,-100,4,1,0,49,0,1
29581,-100,4,1,0,27,0,0
29989,-100,4,1,0,5,0,0

[HitObjects]
119,261,173,6,0,L|65:204,1,60
73,190,581,2,0,L|174:174,1,60
313,213,990,6,0,P|373:166|293:129,1,180
229,163,1807,2,0,L|169:162,2,60
313,213,2419,6,0,L|153:213,1,120
135,275,3032,1,0,0:0:0:0:
231,319,3236,6,0,L|450:319,1,180
225,189,4053,1,0,0:0:0:0:
144,184,4462,5,0,0:0:0:0:
58,167,4666,2,0,L|30:76,1,60
128,103,5074,6,0,L|216:86,2,60
20,175,5687,2,0,L|175:179,1,120
218,215,6300,1,0,0:0:0:0:
325,229,6504,6,0,L|120:231,1,180
63,235,7525,1,0,0:0:0:0:
357,293,7933,6,0,L|441:293,1,60
345,219,8342,2,0,L|278:216,2,60
446,194,8954,6,0,L|299:190,1,120
237,123,9567,1,0,0:0:0:0:
135,177,9771,6,0,P|145:258|247:302,1,180
302,305,10588,1,0,0:0:0:0:
419,300,10997,1,0,0:0:0:0:
138,315,11405,5,0,0:0:0:0:
35,267,11609,2,0,L|127:236,2,60
150,169,12222,2,0,L|269:171,1,120
349,131,12835,1,0,0:0:0:0:
149,109,13039,6,0,P|97:178|166:204,1,180
301,242,14060,2,0,L|328:163,1,60
138,199,14468,6,0,P|92:143|154:73,1,180
247,128,15285,2,0,L|339:126,1,60
229,198,15694,2,0,L|157:204,2,60
414,267,16306,6,0,P|457:219|381:149,1,180
311,149,17123,1,0,0:0:0:0:
129,280,17327,6,0,P|83:239|147:207,1,120
194,178,17940,2,0,L|48:178,1,120
132,114,18553,1,0,0:0:0:0:
319,121,18757,6,0,P|378:187|302:198,1,180
239,238,19574,1,0,0:0:0:0:
163,277,19778,2,0,L|319:281,1,120
422,229,20595,2,0,L|443:152,1,60
253,163,21003,6,0,P|197:98|259:78,1,180
337,138,21820,2,0,L|266:135,1,60
366,197,22229,2,0,L|460:202,2,60
270,282,22841,2,0,L|63:283,1,180
367,232,23863,6,0,P|437:195|436:137,1,120
364,140,24475,2,0,L|227:137,1,120
183,178,25088,1,0,0:0:0:0:
295,229,25292,2,0,L|476:230,1,180
418,306,26109,1,0,0:0:0:0:
228,315,26313,6,0,L|101:294,1,120
298,226,27334,5,0,0:0:0:0:
369,185,27538,1,0,0:0:0:0:
376,114,27743,1,0,0:0:0:0:
303,66,27947,1,0,0:0:0:0:
219,68,28151,1,0,0:0:0:0:
143,72,28355,1,0,0:0:0:0:
329,139,28560,1,0,0:0:0:0:
196,208,28968,6,0,L|110:214,1,60
319,261,29376,2,0,P|393:204|301:119,1,240
