osu file format v14

[General]
AudioFilename: audio.mp3
AudioLeadIn: 0
PreviewTime: 14264
Countdown: 1
SampleSet: Normal
StackLeniency: 0.7
Mode: 2
LetterboxInBreaks: 0
WidescreenStoryboard: 1

[Editor]
Bookmarks: 30191
DistanceSpacing: 0.8
BeatDivisor: 2
GridSize: 4
TimelineZoom: 1

[Metadata]
Title:Under the Alolan Sun
TitleUnicode:Under the Alolan Sun
Artist:Ed Goldfarb
ArtistUnicode:Ed Goldfarb
Creator:wonjae
Version:Cup
Source:Pokémon the Series: Sun & Moon
Tags:
BeatmapID:1677935
BeatmapSetID:799134

[Difficulty]
HPDrainRate:4
CircleSize:3
OverallDifficulty:5
ApproachRate:5
SliderMultiplier:1.2
SliderTickRate:1

[Events]
//Background and Video events
0,0,"aaaaaaaagay.jpg",0,0
//Break Periods
//Storyboard Layer 0 (Background)
//Storyboard Layer 1 (Fail)
//Storyboard Layer 2 (Pass)
//Storyboard Layer 3 (Foreground)
//Storyboard Sound Samples

[TimingPoints]
990.323475238394,408.441116405718,4,1,0,49,1,0
14468,-100,4,1,0,49,0,1
20595,-100,4,1,0,49,0,0
21003,-100,4,1,0,49,0,1
26722,-100,4,1,0,49,0,0
28968,-100,4,1,0,49,0,1
29581,-100,4,1,0,27,0,0
29989,-100,4,1,0,5,0,0

[HitObjects]
377,310,173,6,0,P|446:225|361:158,1,240
275,165,1398,5,0,0:0:0:0:
378,230,1807,2,0,L|241:228,1,120
175,245,2419,2,0,L|368:247,1,180
428,220,3236,6,0,P|449:161|361:84,1,180
297,86,4053,1,0,0:0:0:0:
141,130,4462,5,0,0:0:0:0:
79,191,4666,2,0,L|202:190,1,120
347,262,5483,1,0,0:0:0:0:
406,317,5687,6,0,L|251:316,1,120
223,318,6300,1,0,0:0:0:0:
341,265,6504,2,0,P|373:186|319:89,1,180
219,102,7525,5,0,0:0:0:0:
374,171,7933,2,0,L|214:171,1,120
122,227,8750,1,0,0:0:0:0:
54,278,8954,6,0,L|240:281,1,180
320,234,9771,2,0,P|366:181|319:79,1,180
247,86,10588,1,0,0:0:0:0:
134,153,10997,5,0,0:0:0:0:
245,227,11405,1,0,0:0:0:0:
157,262,11609,2,0,P|100:185|166:125,1,180
262,179,12630,2,0,L|337:179,1,60
247,142,13039,6,0,P|183:125|230:37,1,180
328,73,14060,1,0,0:0:0:0:
139,147,14468,5,0,0:0:0:0:
282,227,14877,1,0,0:0:0:0:
351,272,15081,6,0,L|213:272,1,120
133,318,15694,2,0,P|90:232|160:177,1,180
284,196,16715,1,0,0:0:0:0:
357,204,16919,2,0,L|393:125,1,60
303,130,17327,6,0,L|129:131,1,120
126,130,17940,1,0,0:0:0:0:
244,224,18349,2,0,L|322:224,1,60
354,277,18757,6,0,L|133:274,1,180
297,219,19778,2,0,L|474:218,1,120
363,143,20595,1,0,0:0:0:0:
179,144,21003,5,0,0:0:0:0:
276,94,21616,1,0,0:0:0:0:
350,152,21820,6,0,L|196:151,1,120
123,171,22637,1,0,0:0:0:0:
49,218,22841,2,0,L|273:219,1,180
363,301,23863,6,0,P|404:227|338:153,1,180
215,201,24884,2,0,L|172:130,1,60
117,116,25292,2,0,L|316:116,1,180
395,81,26313,1,0,0:0:0:0:
252,72,26722,1,0,0:0:0:0:
119,151,27334,6,0,L|32:155,2,60
192,233,27947,2,0,L|316:225,1,120
408,179,28560,1,0,0:0:0:0:
301,151,28968,2,0,L|211:151,1,60
157,109,29376,2,0,P|240:183|139:266,1,240
