osu file format v14

[General]
AudioFilename: audio.mp3
AudioLeadIn: 0
PreviewTime: 14264
Countdown: 1
SampleSet: Normal
StackLeniency: 0.7
Mode: 2
LetterboxInBreaks: 0
WidescreenStoryboard: 1

[Editor]
Bookmarks: 30191
DistanceSpacing: 0.8
BeatDivisor: 4
GridSize: 4
TimelineZoom: 1

[Metadata]
Title:Under the Alolan Sun
TitleUnicode:Under the Alolan Sun
Artist:Ed Goldfarb
ArtistUnicode:Ed Goldfarb
Creator:wonjae
Version:Alola!
Source:Pokémon the Series: Sun & Moon
Tags:
BeatmapID:1677934
BeatmapSetID:799134

[Difficulty]
HPDrainRate:4
CircleSize:3
OverallDifficulty:7
ApproachRate:7
SliderMultiplier:1.4
SliderTickRate:1

[Events]
//Background and Video events
0,0,"aaaaaaaagay.jpg",0,0
//Break Periods
//Storyboard Layer 0 (Background)
//Storyboard Layer 1 (Fail)
//Storyboard Layer 2 (Pass)
//Storyboard Layer 3 (Foreground)
//Storyboard Sound Samples

[TimingPoints]
990.323475238394,408.441116405718,4,1,0,49,1,0
14468,-100,4,1,0,49,0,1
20595,-100,4,1,0,49,0,0
21003,-100,4,1,0,49,0,1
26722,-100,4,1,0,49,0,0
28968,-100,4,1,0,49,0,1
29581,-100,4,1,0,27,0,0
29989,-100,4,1,0,5,0,0

[HitObjects]
144,244,173,5,0,0:0:0:0:
94,213,275,1,0,0:0:0:0:
75,150,377,1,0,0:0:0:0:
103,102,479,1,0,0:0:0:0:
157,80,581,1,0,0:0:0:0:
346,69,786,1,0,0:0:0:0:
71,224,990,6,0,P|34:278|93:332,1,140
182,334,1602,1,0,0:0:0:0:
376,272,1807,2,0,L|445:234,2,70
169,230,2419,6,0,P|100:197|131:138,1,140
180,114,3032,1,0,0:0:0:0:
405,179,3236,6,0,L|244:192,1,140
174,231,3849,1,0,0:0:0:0:
385,290,4053,5,0,0:0:0:0:
286,297,4462,1,0,0:0:0:0:
90,305,4666,6,0,L|70:214,1,70
281,172,5074,2,0,L|188:148,2,70
380,176,5687,6,0,P|405:116|353:76,1,140
271,90,6300,1,0,0:0:0:0:
66,193,6504,2,0,P|41:120|91:61,1,140
370,117,7116,6,0,P|411:194|382:239,1,140
231,299,7933,6,0,L|305:298,1,70
100,234,8342,2,0,L|7:220,2,70
219,188,8954,6,0,L|68:185,1,140
183,123,9567,1,0,0:0:0:0:
399,100,9771,6,0,P|453:155|413:228,1,140
373,214,10384,1,0,0:0:0:0:
160,291,10588,6,0,L|315:282,1,140
419,236,11405,1,0,0:0:0:0:
209,173,11609,6,0,L|300:151,2,70
91,152,12222,2,0,P|60:75|105:59,1,140
192,58,12835,1,0,0:0:0:0:
396,89,13039,6,0,L|226:90,1,140
166,104,13651,5,0,0:0:0:0:
191,171,14060,2,0,L|178:99,1,70
465,177,14468,6,0,P|472:101|425:63,1,140
346,61,15081,5,0,0:0:0:0:
133,218,15285,2,0,L|88:138,1,70
230,148,15694,2,0,L|311:143,2,70
24,312,16306,6,0,L|183:311,1,140
218,317,16919,1,0,0:0:0:0:
435,246,17123,1,0,0:0:0:0:
329,212,17327,6,0,L|399:210,2,70
117,179,17940,2,0,P|89:104|132:60,1,140
211,53,18553,1,0,0:0:0:0:
424,162,18757,6,0,L|271:207,1,140
206,259,19370,2,0,L|183:182,1,70
395,187,19778,6,0,P|434:149|398:79,1,140
321,120,20595,6,0,L|360:41,1,70
73,74,21003,6,0,P|45:135|95:172,1,140
152,183,21616,1,0,0:0:0:0:
366,268,21820,6,0,L|457:264,1,70
334,217,22229,2,0,L|240:207,2,70
122,201,22841,6,0,P|82:144|132:83,1,140
223,40,23454,2,0,L|143:40,1,70
364,137,23863,6,0,L|447:161,2,70
242,187,24475,2,0,L|393:183,1,140
303,258,25088,1,0,0:0:0:0:
89,288,25292,6,0,P|48:229|109:199,1,140
197,180,25905,2,0,L|153:104,1,70
376,105,26313,5,0,0:0:0:0:
68,111,26722,1,0,0:0:0:0:
253,120,27334,5,0,0:0:0:0:
304,117,27538,1,0,0:0:0:0:
361,112,27743,1,0,0:0:0:0:
155,229,27947,1,0,0:0:0:0:
98,233,28151,1,0,0:0:0:0:
46,240,28355,1,0,0:0:0:0:
264,298,28560,5,0,0:0:0:0:
406,293,28968,2,0,L|439:196,1,70
123,232,29376,2,0,P|55:176|153:37,1,280
