osu file format v14

[General]
AudioFilename: audio.mp3
AudioLeadIn: 0
PreviewTime: -1
Countdown: 0
SampleSet: Normal
StackLeniency: 0.2
Mode: 0
LetterboxInBreaks: 1
WidescreenStoryboard: 1

[Editor]
Bookmarks: 43999,102166,123499,129332,171999,193332,214666,254666,257332,278666,299999,331999,342666,363999
DistanceSpacing: 1
BeatDivisor: 3
GridSize: 4
TimelineZoom: 2.3

[Metadata]
Title:Forget*me*not
TitleUnicode:Forget*me*not
Artist:Ecriss
ArtistUnicode:Ecriss
Creator:A d r i a n
Version:Subconscious
Source:東方Project
Tags:dnb drum 'n' and bass breakcore touhou 11 komeiji koishi subterranean animism zun
BeatmapID:922073
BeatmapSetID:427114

[Difficulty]
HPDrainRate:6
CircleSize:4.2
OverallDifficulty:7.5
ApproachRate:9.5
SliderMultiplier:1.8
SliderTickRate:1

[Events]
//Background and Video events
0,0,"Bg2.jpg",0,0
//Break Periods
2,236198,254141
2,332199,334141
2,334866,336807
2,337532,339307
//Storyboard Layer 0 (Background)
//Storyboard Layer 1 (Fail)
//Storyboard Layer 2 (Pass)
//Storyboard Layer 3 (Foreground)
//Storyboard Sound Samples

[TimingPoints]
1333,333.333333333333,4,1,0,100,1,0
1333,-200,4,2,0,20,0,0
9499,-125,4,2,0,20,0,0
12332,-200,4,2,0,20,0,0
20166,-166.666666666667,4,2,0,20,0,0
22999,-200,4,2,0,20,0,0
41499,-133.333333333333,4,2,0,20,0,0
42666,-153.846153846153,4,2,0,20,0,0
43999,-100,4,1,0,60,0,0
75999,-100,4,1,0,50,0,0
85999,-200,4,1,0,75,0,0
86666,-100,4,1,0,75,0,1
128999,-200,4,1,0,75,0,1
129332,-100,4,1,0,75,0,0
140499,-133.333333333333,4,1,0,75,0,0
140999,-100,4,1,0,75,0,0
171999,-100,4,1,0,75,0,0
193332,-100,4,1,0,75,0,1
197999,-90.9090909090909,4,1,0,75,0,1
198332,-100,4,1,0,75,0,1
235999,-100,4,1,0,75,0,0
257332,-100,4,1,0,70,0,1
299666,-100,4,1,0,80,0,0
321332,-100,4,1,0,45,0,0
342666,-100,4,1,0,75,0,0

[Colours]
Combo1 : 220,171,220
Combo2 : 192,192,192
Combo3 : 145,116,231
Combo4 : 84,184,129

[HitObjects]
440,144,1333,5,0,0:0:0:0:
440,144,1499,1,0,0:0:0:0:
440,144,1666,2,0,B|496:96|496:96|456:24|456:24|384:88|384:88|312:32|312:32|296:96|296:96|376:184|320:256|320:256|208:96|208:96|200:-8|16:16|104:72|184:240|280:264|168:336|128:192|77:159|64:96|-8:224|-8:224|9:286|60:312|96:288|96:288|168:352|224:288|224:288|304:368|368:352|419:353|440:296|392:240|416:200|448:224|448:224|448:256|472:264,1,1980
312,104,9499,2,0,B|264:200|320:296|352:296|352:296|424:288|424:224|384:192|344:216,1,360
160,144,10832,2,0,B|112:240|168:336|200:336|200:336|272:328|272:264|232:232|192:256,1,360
24,88,12332,2,0,B|80:72|128:112|128:112|232:144|312:126|376:80|416:32|336:-16|224:0|168:24|144:72|64:200|128:336|280:288|304:152|376:152|416:64|608:64|416:232|416:232|568:368|448:392|392:368|400:232|224:280|224:280|128:368|96:400|-16:384|6:306|32:216|64:144|228:355|264:368,1,2025
312,224,20166,22,0,B|320:220|332:208|332:208|380:160|472:224|436:332|328:296|304:396,1,323.999990112305,4|8,0:0|0:0,0:0:0:0:
304,224,21499,2,0,B|296:220|284:208|284:208|236:160|144:224|180:332|288:296|312:396,1,323.999990112305,0|8,0:0|0:0,0:0:0:0:
456,312,22999,2,0,B|416:272|448:240|384:208|336:192|336:192|280:183|248:240|288:296|344:304|384:296|504:216|536:152|448:104|504:32|400:40|416:-16|344:-32|264:-24|224:144|224:144|144:0|56:0|24:24|8:72|-40:144|8:192|-88:256|136:272|216:216|248:320|248:344|248:368|176:368|96:408|72:344|72:344|72:296|200:264|272:392|280:320|321:328|376:368,1,2025
304,272,30832,2,0,B|376:304|400:368|400:368|424:304|488:272,1,270,0|8,0:0|0:0,0:0:0:0:
480,168,32166,2,0,B|464:112|408:80|376:192|376:192|312:72|272:128|264:192,1,360
176,248,33832,2,0,B|192:208|160:192|128:176|88:216|72:280|176:328|88:344|88:344|59:344|16:344|-8:288|40:232|112:256|144:296|179:351|227:364|280:360|308:318|240:248|176:104|272:200|384:320|384:320|360:176|336:72|454:166|512:176|520:216|520:216|512:264|497:269|469:266|440:240|464:200|512:104|462:80|472:24|352:16|312:96|256:120|256:120|120:160|64:136|65:102|65:102|105:53|208:120,1,1980
192,32,41499,2,0,P|144:152|240:344,1,337.500012874604
256,328,42666,2,0,P|316:222|152:240,1,350.999983932496
155,221,43999,5,0,0:0:0:0:
128,136,44166,1,0,0:0:0:0:
128,136,44249,1,0,0:0:0:0:
128,136,44332,2,0,B|80:112|80:112|40:112,1,90
40,232,44666,1,0,0:0:0:0:
57,268,44749,1,0,0:0:0:0:
83,299,44832,1,0,0:0:0:0:
115,323,44916,1,0,0:0:0:0:
152,344,44999,2,0,B|200:368|200:368|256:352,1,90
344,280,45332,5,0,0:0:0:0:
456,200,45499,1,0,0:0:0:0:
456,200,45582,1,0,0:0:0:0:
456,200,45666,2,0,L|456:80,1,90
456,88,45916,1,0,0:0:0:0:
456,64,45999,2,0,B|440:16|440:16|400:0,1,90
296,80,46332,5,0,0:0:0:0:
262,102,46415,1,0,0:0:0:0:
229,125,46498,1,0,0:0:0:0:
195,148,46582,1,0,0:0:0:0:
160,176,46666,2,0,L|80:240,1,90
224,248,46999,1,0,0:0:0:0:
344,312,47166,1,0,0:0:0:0:
344,312,47249,1,0,0:0:0:0:
344,312,47332,1,0,0:0:0:0:
416,200,47499,1,0,0:0:0:0:
416,200,47582,1,0,0:0:0:0:
416,200,47666,2,0,B|448:152|448:152|424:88,1,90
320,48,47999,5,0,0:0:0:0:
279,46,48082,1,0,0:0:0:0:
240,55,48165,1,0,0:0:0:0:
204,75,48249,1,0,0:0:0:0:
204,75,48332,2,0,L|136:168,1,90
136,168,48582,1,0,0:0:0:0:
128,184,48666,2,0,P|96:240|96:296,2,90
128,184,49082,1,0,0:0:0:0:
128,184,49166,1,0,0:0:0:0:
192,120,49332,5,0,0:0:0:0:
280,136,49499,1,0,0:0:0:0:
368,168,49666,1,0,0:0:0:0:
394,197,49749,1,0,0:0:0:0:
407,236,49832,1,0,0:0:0:0:
404,276,49916,1,0,0:0:0:0:
385,311,49999,1,0,0:0:0:0:
304,352,50166,1,0,0:0:0:0:
224,312,50332,1,0,0:0:0:0:
288,248,50499,1,0,0:0:0:0:
232,176,50666,5,0,0:0:0:0:
207,144,50749,1,0,0:0:0:0:
182,112,50832,1,0,0:0:0:0:
157,80,50916,1,0,0:0:0:0:
132,48,50999,1,0,0:0:0:0:
72,112,51166,1,0,0:0:0:0:
72,112,51249,1,0,0:0:0:0:
72,112,51332,2,0,L|72:208,1,90
104,288,51666,1,0,0:0:0:0:
168,224,51832,1,0,0:0:0:0:
224,296,51999,5,0,0:0:0:0:
312,312,52166,1,0,0:0:0:0:
312,312,52249,1,0,0:0:0:0:
312,312,52332,1,0,0:0:0:0:
400,288,52499,1,0,0:0:0:0:
432,200,52666,2,0,B|456:152|456:152|440:96,1,90
446,116,52916,1,0,0:0:0:0:
446,116,52999,1,0,0:0:0:0:
360,48,53166,1,0,0:0:0:0:
328,152,53332,5,0,0:0:0:0:
408,80,53499,1,0,0:0:0:0:
432,184,53666,2,0,B|448:232|448:232|424:296,1,90
434,268,53916,1,0,0:0:0:0:
434,268,53999,1,0,0:0:0:0:
352,336,54166,1,0,0:0:0:0:
248,320,54332,5,0,0:0:0:0:
209,309,54415,1,0,0:0:0:0:
175,287,54498,1,0,0:0:0:0:
148,256,54582,1,0,0:0:0:0:
132,219,54665,1,0,0:0:0:0:
192,128,54832,5,0,0:0:0:0:
272,200,54999,1,0,0:0:0:0:
132,219,55166,1,0,0:0:0:0:
224,168,55332,1,0,0:0:0:0:
288,80,55499,2,0,P|344:72|400:96,2,90
288,80,55916,1,0,0:0:0:0:
288,80,55999,1,0,0:0:0:0:
312,184,56166,5,0,0:0:0:0:
392,256,56332,1,0,0:0:0:0:
320,336,56499,1,0,0:0:0:0:
320,336,56582,1,0,0:0:0:0:
320,336,56666,2,0,L|224:336,1,90
136,280,56999,1,0,0:0:0:0:
110,248,57082,1,0,0:0:0:0:
97,210,57165,1,0,0:0:0:0:
98,170,57249,1,0,0:0:0:0:
112,128,57332,6,0,B|136:88|136:88|184:64,1,90
232,160,57666,1,0,0:0:0:0:
312,88,57832,1,0,0:0:0:0:
360,184,57999,1,0,0:0:0:0:
272,120,58166,1,0,0:0:0:0:
272,120,58249,1,0,0:0:0:0:
272,120,58332,1,0,0:0:0:0:
184,56,58499,2,0,P|136:96|128:144,2,90
288,48,58999,5,0,0:0:0:0:
360,128,59166,1,0,0:0:0:0:
264,184,59332,1,0,0:0:0:0:
320,88,59499,1,0,0:0:0:0:
424,120,59666,1,0,0:0:0:0:
444,154,59749,1,0,0:0:0:0:
455,193,59832,1,0,0:0:0:0:
455,234,59916,1,0,0:0:0:0:
444,272,59999,1,0,0:0:0:0:
352,216,60166,5,0,0:0:0:0:
352,216,60249,1,0,0:0:0:0:
352,216,60332,2,0,B|304:192|304:192|240:192,1,90
184,120,60666,2,0,L|104:168,1,90
106,166,60916,1,0,0:0:0:0:
106,166,60999,1,0,0:0:0:0:
136,272,61166,1,0,0:0:0:0:
56,344,61332,5,0,0:0:0:0:
32,240,61499,1,0,0:0:0:0:
136,216,61666,1,0,0:0:0:0:
157,208,61749,1,0,0:0:0:0:
178,201,61832,1,0,0:0:0:0:
199,193,61916,1,0,0:0:0:0:
224,184,61999,2,0,L|312:150,1,90
308,151,62249,1,0,0:0:0:0:
308,151,62332,1,0,0:0:0:0:
408,208,62499,1,0,0:0:0:0:
456,312,62666,5,0,0:0:0:0:
344,336,62832,1,0,0:0:0:0:
240,280,62999,1,0,0:0:0:0:
224,264,63082,2,0,L|184:224,1,45
184,208,63249,2,0,L|152:168,1,45
224,112,63499,1,0,0:0:0:0:
240,112,63582,1,0,0:0:0:0:
256,112,63666,1,0,0:0:0:0:
360,72,63832,1,0,0:0:0:0:
440,144,63999,5,0,0:0:0:0:
392,240,64166,2,0,L|336:320,1,90
288,224,64499,2,0,L|224:152,1,90
216,144,64749,1,0,0:0:0:0:
200,128,64832,2,0,B|160:88|160:88|112:80,1,90
72,176,65166,1,0,0:0:0:0:
72,200,65249,1,0,0:0:0:0:
72,224,65332,1,0,0:0:0:0:
72,248,65416,6,0,L|112:288,1,45
152,208,65582,2,0,L|192:240,1,45
216,144,65749,2,0,L|272:168,1,45
257,161,65916,1,0,0:0:0:0:
257,161,65999,1,0,0:0:0:0:
376,96,66166,1,0,0:0:0:0:
384,232,66332,1,0,0:0:0:0:
312,120,66499,1,0,0:0:0:0:
440,168,66666,5,0,0:0:0:0:
408,296,66832,1,0,0:0:0:0:
408,296,66916,1,0,0:0:0:0:
408,296,66999,2,0,B|384:352|384:352|344:376,1,90
224,344,67332,1,0,0:0:0:0:
204,333,67415,1,0,0:0:0:0:
184,322,67498,1,0,0:0:0:0:
164,311,67581,1,0,0:0:0:0:
144,296,67666,2,0,B|96:264|96:264|88:224,1,90
184,128,67999,5,0,0:0:0:0:
88,224,68166,1,0,0:0:0:0:
184,128,68332,1,0,0:0:0:0:
205,122,68415,1,0,0:0:0:0:
227,116,68498,1,0,0:0:0:0:
249,110,68581,1,0,0:0:0:0:
270,104,68665,1,0,0:0:0:0:
400,72,68832,2,0,L|456:152,1,90
451,145,69082,1,0,0:0:0:0:
451,145,69166,1,0,0:0:0:0:
400,272,69332,5,0,0:0:0:0:
280,328,69499,1,0,0:0:0:0:
320,200,69666,1,0,0:0:0:0:
320,177,69749,1,0,0:0:0:0:
320,155,69832,1,0,0:0:0:0:
320,132,69915,1,0,0:0:0:0:
320,110,69999,1,0,0:0:0:0:
184,112,70166,2,0,L|104:184,1,90
248,216,70499,1,0,0:0:0:0:
262,232,70582,1,0,0:0:0:0:
277,249,70665,5,0,0:0:0:0:
288,264,70749,2,0,L|328:304,1,45
336,208,70916,2,0,L|392:248,1,45
368,144,71082,2,0,L|416:152,1,45
412,151,71249,1,0,0:0:0:0:
412,151,71332,1,0,0:0:0:0:
304,64,71499,2,0,P|248:80|208:128,2,90
288,200,71999,5,0,0:0:0:0:
160,168,72166,1,0,0:0:0:0:
48,248,72332,1,0,0:0:0:0:
60,266,72415,1,0,0:0:0:0:
72,285,72498,1,0,0:0:0:0:
84,304,72581,1,0,0:0:0:0:
96,320,72666,2,0,B|128:360|128:360|176:368,1,90
208,240,72999,1,0,0:0:0:0:
288,352,73166,1,0,0:0:0:0:
344,232,73332,5,0,0:0:0:0:
232,304,73499,1,0,0:0:0:0:
280,176,73666,1,0,0:0:0:0:
297,144,73749,1,0,0:0:0:0:
300,109,73832,1,0,0:0:0:0:
289,75,73915,1,0,0:0:0:0:
266,48,73999,1,0,0:0:0:0:
144,112,74166,2,0,L|64:184,1,90
208,200,74499,2,0,L|280:264,1,90
400,320,74832,6,0,P|464:248|464:224,2,90
264,320,75332,1,0,0:0:0:0:
241,320,75415,1,0,0:0:0:0:
219,320,75498,1,0,0:0:0:0:
196,320,75581,1,0,0:0:0:0:
174,320,75665,1,0,0:0:0:0:
56,248,75832,1,0,0:0:0:0:
136,144,75999,5,0,0:0:0:0:
272,256,76166,1,0,0:0:0:0:
104,304,76332,1,0,0:0:0:0:
168,240,76499,1,0,0:0:0:0:
248,272,76666,1,0,0:0:0:0:
232,176,76832,1,0,0:0:0:0:
247,160,76915,1,0,0:0:0:0:
263,144,76998,1,0,0:0:0:0:
384,80,77166,1,0,0:0:0:0:
424,208,77332,5,0,0:0:0:0:
224,128,77666,1,0,0:0:0:0:
152,336,77999,1,0,0:0:0:0:
40,152,78332,1,0,0:0:0:0:
232,248,78666,5,0,0:0:0:0:
320,144,78832,1,0,0:0:0:0:
376,272,78999,1,0,0:0:0:0:
264,192,79166,1,0,0:0:0:0:
184,304,79332,1,0,0:0:0:0:
64,248,79499,1,0,0:0:0:0:
168,160,79666,1,0,0:0:0:0:
248,264,79832,1,0,0:0:0:0:
328,152,79999,5,0,0:0:0:0:
104,304,80332,1,0,0:0:0:0:
368,368,80666,1,0,0:0:0:0:
160,192,80999,1,0,0:0:0:0:
136,168,81082,1,0,0:0:0:0:
112,144,81165,1,0,0:0:0:0:
288,104,81332,5,0,0:0:0:0:
240,280,81499,1,0,0:0:0:0:
416,224,81666,1,0,0:0:0:0:
240,184,81832,1,0,0:0:0:0:
352,328,81999,1,0,0:0:0:0:
424,160,82166,1,0,0:0:0:0:
240,280,82332,1,0,0:0:0:0:
320,120,82499,1,0,0:0:0:0:
488,184,82666,5,0,0:0:0:0:
304,312,82832,1,0,0:0:0:0:
408,112,82999,1,0,0:0:0:0:
408,336,83166,1,0,0:0:0:0:
200,248,83332,1,0,0:0:0:0:
464,208,83666,1,0,0:0:0:0:
224,328,83999,5,0,0:0:0:0:
408,152,84166,1,0,0:0:0:0:
136,200,84332,1,0,0:0:0:0:
384,304,84499,1,0,0:0:0:0:
232,80,84666,1,0,0:0:0:0:
184,344,84832,5,0,0:0:0:0:
408,192,84999,1,0,0:0:0:0:
136,216,85166,1,0,0:0:0:0:
384,328,85332,1,0,0:0:0:0:
248,96,85499,1,0,0:0:0:0:
136,344,85666,5,0,0:0:0:0:
392,272,85832,1,0,0:0:0:0:
136,184,85999,2,0,B|112:160|112:136|152:128|168:160|144:184,1,90
256,184,86666,5,0,0:0:0:0:
287,184,86749,1,0,0:0:0:0:
319,184,86832,1,0,0:0:0:0:
350,184,86915,1,0,0:0:0:0:
384,184,86999,2,0,B|440:184|440:184|480:216,1,90
466,205,87249,1,0,0:0:0:0:
466,205,87332,1,0,0:0:0:0:
400,328,87499,1,0,0:0:0:0:
264,312,87666,1,0,0:0:0:0:
136,280,87832,1,0,0:0:0:0:
133,248,87915,1,0,0:0:0:0:
130,217,87998,5,0,0:0:0:0:
128,184,88082,2,0,L|120:120,1,45
216,176,88249,2,0,L|224:128,1,45
320,88,88499,1,0,0:0:0:0:
408,152,88666,1,0,0:0:0:0:
368,256,88832,1,0,0:0:0:0:
368,256,88916,1,0,0:0:0:0:
368,256,88999,1,0,0:0:0:0:
288,328,89166,1,0,0:0:0:0:
184,296,89332,5,0,0:0:0:0:
147,278,89415,1,0,0:0:0:0:
115,254,89498,1,0,0:0:0:0:
89,222,89581,1,0,0:0:0:0:
71,186,89665,1,0,0:0:0:0:
64,144,89749,2,0,L|56:88,1,45
144,136,89916,2,0,L|160:88,1,45
240,128,90082,2,0,L|288:72,1,45
269,93,90249,1,0,0:0:0:0:
269,93,90332,1,0,0:0:0:0:
400,72,90499,1,0,0:0:0:0:
464,192,90666,6,0,P|400:312|360:328,1,180
256,248,91166,1,0,0:0:0:0:
120,240,91332,1,0,0:0:0:0:
184,120,91499,2,0,L|216:112,2,22.5
232,168,91666,2,0,L|264:160,2,22.5
272,224,91832,2,0,L|304:216,4,22.5
368,320,92166,5,0,0:0:0:0:
368,320,92332,2,0,L|432:240,1,90
424,249,92582,1,0,0:0:0:0:
424,249,92666,1,0,0:0:0:0:
288,248,92832,1,0,0:0:0:0:
265,248,92915,1,0,0:0:0:0:
243,248,92998,1,0,0:0:0:0:
216,248,93082,2,0,L|152:248,1,45
171,248,93249,1,0,0:0:0:0:
171,248,93332,1,0,0:0:0:0:
80,344,93499,5,0,0:0:0:0:
48,216,93666,2,0,P|64:128|136:64,1,180
184,192,94166,1,0,0:0:0:0:
304,128,94332,1,0,0:0:0:0:
326,113,94415,1,0,0:0:0:0:
349,98,94498,1,0,0:0:0:0:
371,83,94581,1,0,0:0:0:0:
400,72,94666,6,0,B|448:48|448:48|480:64,1,90
480,64,94916,1,0,0:0:0:0:
480,64,94999,1,0,0:0:0:0:
456,200,95166,1,0,0:0:0:0:
456,200,95249,1,0,0:0:0:0:
456,200,95332,1,0,0:0:0:0:
384,312,95499,2,0,L|384:352,4,22.5
256,336,95832,1,0,0:0:0:0:
128,304,95999,1,0,0:0:0:0:
56,192,96166,2,0,L|56:152,4,22.5
168,112,96499,1,0,0:0:0:0:
296,72,96666,2,0,P|376:120|384:232,1,180
344,328,97166,1,0,0:0:0:0:
208,336,97332,6,0,L|96:192,1,180
97,193,97749,1,0,0:0:0:0:
97,193,97832,1,0,0:0:0:0:
184,88,97999,1,0,0:0:0:0:
204,105,98082,1,0,0:0:0:0:
225,122,98165,1,0,0:0:0:0:
246,139,98248,1,0,0:0:0:0:
266,157,98332,1,0,0:0:0:0:
216,280,98499,1,0,0:0:0:0:
97,193,98666,5,0,0:0:0:0:
168,272,98833,1,0,0:0:0:0:
208,256,98916,1,0,0:0:0:0:
248,240,99000,1,8,0:0:0:0:
336,184,99166,1,0,0:0:0:0:
296,168,99250,1,0,0:0:0:0:
256,152,99333,1,8,0:0:0:0:
152,112,99500,1,0,0:0:0:0:
192,96,99583,1,0,0:0:0:0:
232,80,99666,1,8,0:0:0:0:
336,48,99833,5,0,0:0:0:0:
296,32,99916,1,0,0:0:0:0:
256,16,100000,1,8,0:0:0:0:
192,96,100166,1,0,0:0:0:0:
152,112,100250,1,0,0:0:0:0:
120,128,100333,1,8,0:0:0:0:
120,232,100499,1,0,0:0:0:0:
88,336,100666,1,0,0:0:0:0:
123,342,100749,1,0,0:0:0:0:
158,348,100832,1,0,0:0:0:0:
194,354,100915,1,0,0:0:0:0:
229,360,100999,1,0,0:0:0:0:
224,256,101166,1,0,0:0:0:0:
120,232,101332,6,0,P|64:168|80:80,1,180
160,40,101832,1,0,0:0:0:0:
160,40,101916,1,0,0:0:0:0:
160,40,101999,1,0,0:0:0:0:
192,128,102166,2,0,L|224:120,2,22.5
208,168,102333,2,0,L|240:160,2,22.5
224,208,102499,2,0,L|256:200,4,22.5
168,136,102832,5,0,0:0:0:0:
168,136,102916,1,0,0:0:0:0:
168,136,102999,1,0,0:0:0:0:
232,224,103166,1,0,0:0:0:0:
176,320,103332,1,0,0:0:0:0:
104,240,103499,1,0,0:0:0:0:
192,184,103666,5,0,0:0:0:0:
223,166,103749,1,0,0:0:0:0:
255,149,103832,1,0,0:0:0:0:
286,131,103915,1,0,0:0:0:0:
320,112,103999,2,0,B|368:88|368:88|416:104,1,90
440,184,104332,2,0,P|440:288|384:344,1,180
391,340,104832,1,0,0:0:0:0:
304,336,104999,2,0,L|176:320,1,90
214,324,105249,1,0,0:0:0:0:
214,324,105332,1,0,0:0:0:0:
200,216,105499,5,0,0:0:0:0:
112,280,105666,1,0,0:0:0:0:
48,192,105832,2,0,P|40:128|56:80,2,90
144,152,106332,1,0,0:0:0:0:
166,152,106415,1,0,0:0:0:0:
189,152,106498,1,0,0:0:0:0:
211,152,106581,1,0,0:0:0:0:
232,152,106666,6,0,L|256:152,4,22.5
240,200,106999,2,0,L|256:240,6,30
176,264,107499,1,0,0:0:0:0:
248,320,107666,2,0,L|344:344,1,90
335,341,107916,1,0,0:0:0:0:
335,341,107999,1,0,0:0:0:0:
384,264,108166,1,0,0:0:0:0:
416,176,108332,5,8,0:3:0:0:
389,145,108416,1,0,0:3:0:0:
351,124,108499,1,0,0:3:0:0:
312,110,108582,1,0,0:3:0:0:
274,97,108666,2,0,B|211:76|176:104,1,90,0|0,0:3|0:3,0:3:0:0:
144,120,108916,1,0,0:3:0:0:
108,144,108999,1,8,0:3:0:0:
76,173,109082,1,0,0:3:0:0:
48,204,109166,1,0,0:3:0:0:
168,336,109332,5,0,0:3:0:0:
352,328,109499,1,0,0:3:0:0:
448,176,109666,1,8,0:3:0:0:
272,128,109832,2,0,B|192:128|192:256|272:256,1,180,0|0,0:3|0:3,0:3:0:0:
384,288,110332,1,0,0:0:0:0:
398,259,110415,1,0,0:0:0:0:
412,231,110498,1,0,0:0:0:0:
426,203,110581,1,0,0:0:0:0:
440,175,110665,1,0,0:0:0:0:
336,88,110832,5,0,0:0:0:0:
208,136,110999,1,0,0:0:0:0:
272,256,111166,1,0,0:0:0:0:
152,312,111332,2,0,P|56:312|56:232,1,180
168,184,111832,1,0,0:0:0:0:
304,184,111999,2,0,P|400:184|400:264,1,180
304,336,112499,1,0,0:0:0:0:
272,336,112582,1,0,0:0:0:0:
241,336,112665,1,0,0:0:0:0:
208,336,112749,2,0,L|160:336,1,45
136,320,112916,2,0,L|72:288,1,45
112,272,113082,2,0,L|120:216,1,45
118,227,113249,1,0,0:0:0:0:
118,227,113332,1,0,0:0:0:0:
192,112,113499,5,0,0:0:0:0:
328,96,113666,1,0,0:0:0:0:
340,114,113749,1,0,0:0:0:0:
353,133,113832,1,0,0:0:0:0:
366,151,113915,1,0,0:0:0:0:
378,170,113999,1,0,0:0:0:0:
392,192,114082,2,0,L|424:240,1,45
416,229,114249,1,0,0:0:0:0:
416,229,114332,1,0,0:0:0:0:
384,312,114499,1,0,0:0:0:0:
296,328,114666,5,0,0:0:0:0:
208,312,114832,1,0,0:0:0:0:
179,290,114915,1,0,0:0:0:0:
150,268,114998,1,0,0:0:0:0:
120,240,115082,2,0,L|64:192,1,45
136,168,115249,2,0,L|152:112,1,45
272,72,115499,2,0,L|376:96,1,90
384,104,115749,1,0,0:0:0:0:
397,121,115832,1,0,0:0:0:0:
411,139,115915,1,0,0:0:0:0:
416,168,115999,5,0,0:0:0:0:
416,195,116082,1,0,0:0:0:0:
416,222,116165,1,0,0:0:0:0:
416,249,116248,1,0,0:0:0:0:
416,276,116332,1,0,0:0:0:0:
328,288,116499,1,0,0:0:0:0:
256,336,116666,1,0,0:0:0:0:
240,248,116832,2,0,L|216:224,4,22.5
304,160,117166,1,0,0:0:0:0:
232,80,117332,5,0,0:0:0:0:
136,128,117499,2,0,L|96:176,2,45
224,184,117832,1,0,0:0:0:0:
304,112,117999,1,0,0:0:0:0:
332,98,118082,1,0,0:0:0:0:
360,84,118165,1,0,0:0:0:0:
389,71,118248,1,0,0:0:0:0:
417,57,118332,1,0,0:0:0:0:
456,160,118499,1,0,0:0:0:0:
408,256,118666,6,0,L|448:288,1,45
392,280,118832,2,0,L|416:320,1,45
360,304,118999,2,0,P|304:336|240:328,1,90
240,240,119332,2,0,P|160:224|128:232,1,90
104,320,119666,1,0,0:0:0:0:
64,224,119832,2,0,L|32:192,1,45
88,200,119999,6,0,L|64:144,1,45
120,168,120166,1,0,0:0:0:0:
184,80,120332,2,0,P|280:48|320:64,1,135
336,72,120666,2,0,P|376:112|392:152,1,90
432,240,120999,1,0,0:0:0:0:
432,240,121082,1,0,0:0:0:0:
432,240,121166,1,0,0:0:0:0:
368,328,121332,6,0,L|336:280,1,45
328,344,121499,2,0,L|288:320,1,45
304,376,121666,1,0,0:0:0:0:
216,312,121832,1,0,0:0:0:0:
171,308,121915,1,0,0:0:0:0:
133,285,121998,1,0,0:0:0:0:
108,248,122081,1,0,0:0:0:0:
96,200,122166,2,0,P|104:144|152:104,2,90
232,184,122666,5,0,0:0:0:0:
249,197,122749,1,0,0:0:0:0:
267,211,122832,1,0,0:0:0:0:
285,225,122915,1,0,0:0:0:0:
303,239,122999,1,0,0:0:0:0:
440,264,123166,1,0,0:0:0:0:
344,168,123332,1,0,0:0:0:0:
392,80,123499,2,0,L|424:72,2,22.5
408,120,123666,2,0,L|440:112,2,22.5
424,160,123832,2,0,L|456:152,4,22.5
464,288,124166,5,0,0:0:0:0:
344,224,124332,1,0,0:0:0:0:
336,360,124499,1,0,0:0:0:0:
344,224,124666,1,0,0:0:0:0:
345,201,124749,1,0,0:0:0:0:
347,179,124832,1,0,0:0:0:0:
349,156,124915,1,0,0:0:0:0:
352,136,124999,2,0,L|360:40,2,90
440,136,125499,6,0,P|392:208|392:240,1,90
392,232,125749,1,0,0:0:0:0:
392,256,125832,2,0,P|352:328|280:352,1,135
288,352,126166,2,0,P|224:352|168:368,1,90
120,312,126499,1,0,0:0:0:0:
120,312,126582,2,0,L|64:288,1,45
48,264,126749,6,0,L|48:208,1,45
80,256,126915,2,0,L|120:208,1,45
184,168,127166,2,0,L|216:160,2,22.5
200,208,127333,2,0,L|232:200,2,22.5
216,248,127499,2,0,L|248:240,4,22.5
272,320,127832,1,0,0:0:0:0:
360,288,127999,5,0,0:0:0:0:
399,268,128082,1,0,0:0:0:0:
426,232,128165,1,0,0:0:0:0:
434,188,128248,1,0,0:0:0:0:
421,145,128332,1,0,0:0:0:0:
344,192,128499,2,0,L|304:208,8,22.5
182,260,128999,2,0,L|150:196,1,67.5
152,200,129332,5,0,0:0:0:0:
264,128,129499,1,0,0:0:0:0:
336,240,129666,1,0,0:0:0:0:
216,176,129832,1,0,0:0:0:0:
480,104,130166,1,0,0:0:0:0:
384,360,130499,1,0,0:0:0:0:
232,264,130666,5,0,0:0:0:0:
368,144,130832,1,0,0:0:0:0:
448,304,130999,1,0,0:0:0:0:
296,208,131166,1,0,0:0:0:0:
416,72,131332,1,0,0:0:0:0:
368,248,131499,1,0,0:0:0:0:
192,224,131666,1,0,0:0:0:0:
64,344,131832,1,0,0:0:0:0:
56,160,131999,5,0,0:0:0:0:
56,160,132082,1,0,0:0:0:0:
56,160,132166,1,0,0:0:0:0:
224,96,132332,1,0,0:0:0:0:
192,224,132499,1,0,0:0:0:0:
504,48,132832,1,0,0:0:0:0:
160,144,133166,1,0,0:0:0:0:
288,272,133332,5,0,0:0:0:0:
104,280,133499,1,0,0:0:0:0:
248,168,133666,1,0,0:0:0:0:
192,336,133832,1,0,0:0:0:0:
320,208,133999,1,0,0:0:0:0:
144,192,134166,1,0,0:0:0:0:
312,120,134332,1,0,0:0:0:0:
296,296,134499,1,0,0:0:0:0:
216,136,134666,5,0,0:0:0:0:
216,136,134749,1,0,0:0:0:0:
216,136,134832,1,0,0:0:0:0:
376,64,134999,2,0,P|432:128|432:144,1,90
400,264,135332,1,0,0:0:0:0:
400,264,135416,1,0,0:0:0:0:
400,264,135499,2,0,B|368:320|368:320|304:344,1,90
160,328,135832,1,0,0:0:0:0:
272,184,135999,5,0,0:0:0:0:
96,120,136166,1,0,0:0:0:0:
96,120,136249,1,0,0:0:0:0:
96,120,136332,2,0,B|128:72|176:88|208:72,1,90
173,80,136666,1,0,0:0:0:0:
168,256,136832,1,0,0:0:0:0:
328,168,136999,1,0,0:0:0:0:
144,168,137166,1,0,0:0:0:0:
264,32,137332,5,0,0:0:0:0:
392,160,137499,1,0,0:0:0:0:
216,200,137666,1,0,0:0:0:0:
344,80,137832,1,0,0:0:0:0:
80,320,138166,1,0,0:0:0:0:
440,280,138499,1,0,0:0:0:0:
320,144,138666,5,0,0:0:0:0:
256,312,138832,1,0,0:0:0:0:
440,280,138999,1,0,0:0:0:0:
264,224,139166,1,0,0:0:0:0:
288,48,139332,2,0,L|200:120,1,90
218,104,139582,1,0,0:0:0:0:
218,104,139666,1,0,0:0:0:0:
48,160,139832,1,0,0:0:0:0:
160,304,139999,5,0,0:0:0:0:
336,344,140166,1,0,0:0:0:0:
256,184,140332,1,0,0:0:0:0:
216,360,140499,2,0,L|296:264,1,101.250003862381
280,282,140832,1,0,0:0:0:0:
440,192,140999,1,0,0:0:0:0:
280,112,141166,1,0,0:0:0:0:
376,264,141332,5,0,0:0:0:0:
376,264,141416,1,0,0:0:0:0:
376,264,141499,1,0,0:0:0:0:
224,352,141666,1,0,0:0:0:0:
400,360,141832,1,0,0:0:0:0:
320,200,141999,1,0,0:0:0:0:
320,288,142166,1,0,0:0:0:0:
144,304,142332,1,0,0:0:0:0:
40,160,142499,1,0,0:0:0:0:
208,96,142666,5,0,0:0:0:0:
241,66,142749,1,0,0:0:0:0:
280,48,142832,2,0,P|328:32|384:32,1,90
408,160,143166,1,0,0:0:0:0:
328,264,143332,1,0,0:0:0:0:
208,320,143499,2,0,L|128:248,1,90
112,128,143832,2,0,L|192:80,1,90
272,192,144166,5,0,0:0:0:0:
376,104,144332,1,0,0:0:0:0:
272,192,144499,1,0,0:0:0:0:
184,88,144666,2,0,P|128:136|128:200,1,135
128,264,144999,2,0,P|160:336|176:352,1,90
166,343,145249,1,0,0:0:0:0:
166,343,145332,5,0,0:0:0:0:
296,304,145499,1,0,0:0:0:0:
408,224,145666,1,0,0:0:0:0:
480,104,145832,1,0,0:0:0:0:
216,152,146166,1,0,0:0:0:0:
16,336,146499,1,0,0:0:0:0:
152,344,146666,1,0,0:0:0:0:
216,224,146833,5,0,0:0:0:0:
280,344,146999,1,0,0:0:0:0:
168,272,147166,1,0,0:0:0:0:
104,152,147332,1,0,0:0:0:0:
32,264,147499,1,0,0:0:0:0:
152,200,147666,1,0,0:0:0:0:
264,128,147832,1,0,0:0:0:0:
297,104,147915,1,0,0:0:0:0:
330,81,147998,5,0,0:0:0:0:
432,168,148166,1,0,0:0:0:0:
392,296,148332,1,0,0:0:0:0:
304,192,148499,1,0,0:0:0:0:
80,40,148832,1,0,0:0:0:0:
56,176,148999,1,0,0:0:0:0:
55,198,149082,1,0,0:0:0:0:
54,220,149165,1,0,0:0:0:0:
53,243,149249,1,0,0:0:0:0:
52,265,149332,5,0,0:0:0:0:
96,344,149499,2,0,L|120:368,4,22.5
168,288,149832,2,0,P|185:273|216:256,1,45
224,256,149999,2,0,P|296:232|328:240,1,90
392,256,150332,2,0,L|432:272,4,22.5
408,120,150666,5,0,0:0:0:0:
384,99,150749,1,0,0:0:0:0:
360,78,150832,1,0,0:0:0:0:
328,64,150916,2,0,L|272:56,1,45
320,112,151082,2,0,L|256:120,1,45
96,296,151499,1,0,0:0:0:0:
248,96,151832,1,0,0:0:0:0:
136,160,151999,5,0,0:0:0:0:
64,56,152166,1,0,0:0:0:0:
24,176,152332,1,0,0:0:0:0:
120,96,152499,1,0,0:0:0:0:
224,168,152666,1,0,0:0:0:0:
247,189,152749,1,0,0:0:0:0:
270,210,152832,1,0,0:0:0:0:
376,280,152999,1,0,0:0:0:0:
384,259,153082,1,0,0:0:0:0:
393,238,153165,1,0,0:0:0:0:
401,217,153249,1,0,0:0:0:0:
410,196,153332,1,0,0:0:0:0:
352,80,153499,5,0,0:0:0:0:
216,72,153666,1,0,0:0:0:0:
88,112,153832,1,0,0:0:0:0:
88,112,153916,1,0,0:0:0:0:
88,112,153999,2,0,P|64:184|64:208,1,90
200,192,154332,1,0,0:0:0:0:
208,328,154499,1,0,0:0:0:0:
208,328,154582,1,0,0:0:0:0:
208,328,154666,6,0,P|288:336|328:312,1,90
408,264,154999,1,0,0:0:0:0:
280,216,155166,1,0,0:0:0:0:
208,328,155332,1,0,0:0:0:0:
328,272,155499,1,0,0:0:0:0:
200,240,155666,1,0,0:0:0:0:
178,234,155749,1,0,0:0:0:0:
156,228,155832,1,0,0:0:0:0:
134,222,155916,1,0,0:0:0:0:
112,217,155999,1,0,0:0:0:0:
80,88,156166,5,0,0:0:0:0:
80,88,156249,1,0,0:0:0:0:
80,88,156332,2,0,L|80:184,1,90
80,200,156582,1,0,0:0:0:0:
80,224,156666,2,0,B|80:272|80:272|112:320,1,90
103,306,156916,1,0,0:0:0:0:
103,306,156999,1,0,0:0:0:0:
208,216,157166,1,0,0:0:0:0:
234,192,157249,1,0,0:0:0:0:
261,168,157332,1,0,0:0:0:0:
392,136,157499,5,0,0:0:0:0:
384,272,157666,1,0,0:0:0:0:
261,168,157832,1,0,0:0:0:0:
392,208,157999,1,0,0:0:0:0:
272,264,158166,1,0,0:0:0:0:
392,208,158332,1,0,0:0:0:0:
136,120,158666,5,0,0:0:0:0:
110,156,158749,1,0,0:0:0:0:
84,193,158832,1,0,0:0:0:0:
168,304,158999,1,0,0:0:0:0:
232,184,159166,1,0,0:0:0:0:
84,193,159332,1,0,0:0:0:0:
208,248,159499,1,0,0:0:0:0:
304,344,159666,1,0,0:0:0:0:
346,330,159749,1,0,0:0:0:0:
380,301,159832,1,0,0:0:0:0:
398,260,159916,1,0,0:0:0:0:
392,216,159999,5,0,0:0:0:0:
360,186,160082,1,0,0:0:0:0:
320,176,160166,1,0,0:0:0:0:
272,176,160249,1,0,0:0:0:0:
226,181,160332,1,0,0:0:0:0:
184,200,160416,1,0,0:0:0:0:
155,234,160499,1,0,0:0:0:0:
158,277,160582,1,0,0:0:0:0:
186,312,160666,1,0,0:0:0:0:
227,329,160749,1,0,0:0:0:0:
271,319,160832,1,0,0:0:0:0:
306,292,160916,1,0,0:0:0:0:
335,257,160999,1,0,0:0:0:0:
352,216,161082,1,0,0:0:0:0:
360,176,161166,2,0,L|368:144,4,22.5
248,80,161499,6,0,L|144:128,1,90
304,168,161832,2,0,L|384:224,1,90
240,256,162166,2,0,L|144:304,1,90
48,208,162499,1,0,0:0:0:0:
48,208,162582,1,0,0:0:0:0:
48,208,162666,1,0,0:0:0:0:
168,128,162832,5,0,0:0:0:0:
128,264,162999,1,0,0:0:0:0:
256,328,163166,1,0,0:0:0:0:
256,328,163249,1,0,0:0:0:0:
256,328,163332,2,0,P|328:336|368:320,1,90
272,208,163666,1,0,0:0:0:0:
408,160,163832,1,0,0:0:0:0:
408,160,163916,1,0,0:0:0:0:
408,160,163999,6,0,P|376:96|352:80,1,90
224,136,164332,1,0,0:0:0:0:
120,240,164499,1,0,0:0:0:0:
400,288,164832,1,0,0:0:0:0:
232,80,165166,1,0,0:0:0:0:
232,80,165249,1,0,0:0:0:0:
232,80,165332,2,0,P|176:112|144:152,1,90
144,272,165666,5,0,0:0:0:0:
152,128,165832,1,0,0:0:0:0:
144,272,165999,1,0,0:0:0:0:
264,184,166166,1,0,0:0:0:0:
144,272,166332,1,0,0:0:0:0:
288,304,166499,1,0,0:0:0:0:
144,272,166666,5,0,0:0:0:0:
144,272,166749,1,0,0:0:0:0:
144,272,166832,1,0,0:0:0:0:
144,272,166916,1,0,0:0:0:0:
144,272,166999,1,0,0:0:0:0:
272,200,167166,1,0,0:0:0:0:
40,32,167499,1,0,0:0:0:0:
120,312,167832,1,0,0:0:0:0:
264,328,167999,5,0,0:0:0:0:
281,307,168082,1,0,0:0:0:0:
299,287,168165,1,0,0:0:0:0:
317,267,168249,1,0,0:0:0:0:
335,247,168332,1,0,0:0:0:0:
256,128,168499,1,0,0:0:0:0:
256,319,168666,1,0,0:0:0:0:
128,191,168832,1,0,0:0:0:0:
256,64,168999,1,0,0:0:0:0:
383,192,169166,1,0,0:0:0:0:
383,192,169332,5,0,0:0:0:0:
256,64,169499,1,0,0:0:0:0:
128,191,169666,1,0,0:0:0:0:
255,319,169832,1,0,0:0:0:0:
376,304,170166,1,0,0:0:0:0:
288,200,170332,1,0,0:0:0:0:
232,328,170499,1,0,0:0:0:0:
112,264,170666,5,0,0:0:0:0:
79,233,170749,1,0,0:0:0:0:
63,191,170832,1,0,0:0:0:0:
68,147,170916,1,0,0:0:0:0:
91,108,170999,1,0,0:0:0:0:
216,56,171166,2,0,L|248:48,2,22.5
232,96,171333,2,0,L|264:88,2,22.5
248,136,171499,2,0,L|280:128,4,22.5
144,272,171999,5,0,0:0:0:0:
144,254,172082,1,0,0:0:0:0:
144,236,172165,1,0,0:0:0:0:
144,218,172249,1,0,0:0:0:0:
144,200,172332,1,0,0:0:0:0:
144,182,172415,1,0,0:0:0:0:
144,163,172499,1,0,0:0:0:0:
144,146,172582,1,0,0:0:0:0:
144,128,172666,2,0,B|144:80|144:80|176:48,1,90
389,173,173166,1,0,0:0:0:0:
389,173,173249,1,0,0:0:0:0:
389,173,173332,5,0,0:0:0:0:
389,173,173416,1,0,0:0:0:0:
389,173,173499,2,0,L|445:269,1,90
376,320,173832,1,0,0:0:0:0:
358,320,173915,1,0,0:0:0:0:
340,321,173998,1,0,0:0:0:0:
322,322,174082,1,0,0:0:0:0:
304,323,174165,1,0,0:0:0:0:
286,323,174248,1,0,0:0:0:0:
268,324,174332,1,0,0:0:0:0:
200,264,174499,1,0,0:0:0:0:
112,240,174666,5,0,0:0:0:0:
105,223,174749,1,0,0:0:0:0:
98,206,174832,1,0,0:0:0:0:
91,190,174916,1,0,0:0:0:0:
84,173,174999,1,0,0:0:0:0:
80,160,175082,2,0,L|56:104,1,45
80,112,175249,1,0,0:0:0:0:
97,106,175332,1,0,0:0:0:0:
113,99,175416,1,0,0:0:0:0:
130,93,175499,1,0,0:0:0:0:
151,87,175582,2,0,L|199:71,1,45
304,64,175832,1,0,0:0:0:0:
304,64,175916,1,0,0:0:0:0:
304,64,175999,6,0,L|320:32,4,22.5
208,120,176332,2,0,L|264:168,1,45
352,160,176499,2,0,L|304:192,1,45
200,208,176666,2,0,L|256:256,1,45
344,256,176832,2,0,L|272:312,1,90
408,192,177332,5,0,0:0:0:0:
384,104,177499,1,0,0:0:0:0:
320,168,177666,1,0,0:0:0:0:
232,160,177832,1,0,0:0:0:0:
232,160,177916,1,0,0:0:0:0:
232,160,177999,1,0,0:0:0:0:
232,160,178082,2,0,L|192:216,1,45
200,152,178249,2,0,L|136:168,1,45
156,162,178416,1,0,0:0:0:0:
156,162,178499,1,0,0:0:0:0:
104,232,178666,6,0,L|88:272,4,22.5
264,320,178999,1,0,0:0:0:0:
424,232,179166,2,0,L|448:208,8,22.5
304,96,179666,1,0,0:0:0:0:
128,136,179832,1,0,0:0:0:0:
224,256,179999,6,0,L|240:280,4,22.5
288,232,180249,2,0,L|280:176,1,45
336,232,180416,2,0,L|352:176,1,45
348,188,180582,1,0,0:0:0:0:
348,188,180666,1,0,0:0:0:0:
296,96,180832,1,0,0:0:0:0:
273,96,180915,1,0,0:0:0:0:
251,96,180998,1,0,0:0:0:0:
228,96,181082,1,0,0:0:0:0:
206,96,181165,1,0,0:0:0:0:
183,96,181248,1,0,0:0:0:0:
160,96,181332,6,0,L|120:96,4,22.5
104,272,181666,1,0,0:0:0:0:
280,312,181832,2,0,L|320:320,8,22.5
248,152,182666,5,0,0:0:0:0:
237,172,182749,1,0,0:0:0:0:
227,192,182832,1,0,0:0:0:0:
217,212,182916,1,0,0:0:0:0:
207,232,182999,1,0,0:0:0:0:
196,252,183082,1,0,0:0:0:0:
186,272,183166,1,0,0:0:0:0:
176,292,183249,1,0,0:0:0:0:
166,312,183332,1,0,0:0:0:0:
152,336,183416,2,0,L|104:360,1,45
136,320,183582,2,0,L|80:296,1,45
104,168,183832,1,0,0:0:0:0:
104,168,183999,6,0,L|104:128,4,22.5
216,88,184332,1,0,0:0:0:0:
272,208,184499,1,0,0:0:0:0:
408,192,184666,2,0,L|440:168,8,22.5
304,272,185166,2,0,L|248:256,1,45
200,296,185332,6,0,L|176:256,1,45
112,256,185499,2,0,L|120:200,1,45
64,176,185666,2,0,L|104:144,1,45
40,112,185832,1,0,0:0:0:0:
176,88,185999,1,0,0:0:0:0:
198,88,186082,1,0,0:0:0:0:
221,88,186165,1,0,0:0:0:0:
243,88,186249,1,0,0:0:0:0:
266,88,186332,1,0,0:0:0:0:
392,48,186499,2,0,L|416:32,8,22.5
336,168,186999,1,0,0:0:0:0:
208,128,187166,2,0,L|168:120,8,22.5
72,120,187999,5,0,0:0:0:0:
64,141,188082,1,0,0:0:0:0:
59,163,188165,1,0,0:0:0:0:
56,185,188249,1,0,0:0:0:0:
56,207,188332,1,0,0:0:0:0:
57,230,188415,1,0,0:0:0:0:
61,252,188499,1,0,0:0:0:0:
67,274,188582,1,0,0:0:0:0:
75,295,188665,1,0,0:0:0:0:
88,320,188749,2,0,L|104:344,6,22.5
200,240,189166,1,0,0:0:0:0:
320,184,189332,2,0,L|344:176,5,22.5
200,240,189749,6,0,L|248:272,1,45
352,288,189916,2,0,L|312:320,1,45
208,320,190082,2,0,L|152:288,1,45
64,264,190249,2,0,L|112:232,1,45
216,240,190416,2,0,L|168:200,1,45
181,211,190582,1,0,0:0:0:0:
181,211,190666,5,0,0:0:0:0:
80,120,190832,1,0,0:0:0:0:
64,256,190999,1,0,0:0:0:0:
144,152,191166,1,0,0:0:0:0:
256,80,191332,1,0,0:0:0:0:
294,56,191415,1,0,0:0:0:0:
338,47,191498,1,0,0:0:0:0:
382,55,191582,1,0,0:0:0:0:
421,77,191665,1,0,0:0:0:0:
440,216,191832,2,0,L|400:192,1,45
432,256,191999,6,0,L|384:256,1,45
408,320,192166,1,0,0:0:0:0:
272,328,192332,2,0,L|248:288,1,45
232,352,192499,2,0,L|184:328,1,45
128,304,192666,1,0,0:0:0:0:
120,282,192749,1,0,0:0:0:0:
112,261,192832,1,0,0:0:0:0:
104,240,192916,1,0,0:0:0:0:
96,219,192999,1,0,0:0:0:0:
360,264,193332,5,0,0:0:0:0:
224,240,193499,1,2,0:0:0:0:
200,120,193666,1,8,0:0:0:0:
264,168,193832,1,2,0:0:0:0:
264,168,193916,1,0,0:0:0:0:
264,168,193999,2,0,P|304:208|336:216,1,90
416,88,194332,2,0,P|376:128|344:136,1,90,10|0,0:0|0:0,0:0:0:0:
320,96,194582,1,0,0:0:0:0:
296,64,194666,6,0,P|232:88|200:88,1,90
120,88,194999,2,0,P|96:128|56:144,1,90,10|0,0:0|0:0,0:0:0:0:
56,232,195332,2,0,P|56:288|32:320,1,90
128,328,195666,2,0,P|176:352|200:384,1,90,10|0,0:0|0:0,0:0:0:0:
272,328,195999,6,0,P|320:304|328:272,1,90
336,184,196332,1,8,0:0:0:0:
424,200,196499,1,0,0:0:0:0:
424,200,196582,1,0,0:0:0:0:
424,200,196666,2,0,P|496:216|512:240,1,90,2|0,0:0|0:0,0:0:0:0:
272,128,196999,2,0,P|240:88|232:32,1,90,10|0,0:0|0:0,0:0:0:0:
208,256,197332,6,0,P|248:304|248:344,1,90
72,192,197666,2,0,P|24:184|-8:152,1,90,10|0,0:0|0:0,0:0:0:0:
160,64,197999,2,0,P|256:40|352:72,1,198.000006042481,2|8,0:0|0:0,0:0:0:0:
408,112,198665,5,0,0:0:0:0:
408,112,198748,1,0,0:0:0:0:
408,112,198832,2,0,P|448:160|448:192,1,90,2|0,0:0|0:0,0:0:0:0:
400,304,199165,2,0,P|376:264|376:216,1,90,8|0,0:0|0:0,0:0:0:0:
248,256,199498,2,0,P|280:200|312:184,1,90,2|0,0:0|0:0,0:0:0:0:
192,120,199832,2,0,P|248:104|288:112,1,90,10|0,0:0|0:0,0:0:0:0:
368,128,200165,2,0,L|440:48,2,90,0|2|8,0:0|0:0|0:0,0:0:0:0:
304,192,200665,1,0,0:0:0:0:
248,256,200832,2,0,P|192:280|64:248,1,180,2|8,0:0|0:0,0:0:0:0:
88,168,201332,1,0,0:0:0:0:
40,88,201498,6,0,P|80:64|128:72,1,90,2|0,0:0|0:0,0:0:0:0:
184,136,201832,2,0,P|240:144|272:120,1,90,8|0,0:0|0:0,0:0:0:0:
320,56,202165,2,0,P|376:32|416:48,1,90,2|0,0:0|0:0,0:0:0:0:
408,120,202498,2,0,P|370:143|326:139,1,90,8|0,0:0|0:0,0:0:0:0:
240,48,202832,2,0,P|197:37|157:56,1,90,2|0,0:0|0:0,0:0:0:0:
120,152,203166,2,0,P|82:174|38:169,1,90,8|0,0:0|0:0,0:0:0:0:
200,344,203999,6,0,P|224:296|312:280,1,135,10|0,0:0|0:0,0:0:0:0:
344,288,204332,1,0,0:0:0:0:
432,304,204499,2,0,P|472:328|496:368,1,90,0|8,0:0|0:0,0:0:0:0:
432,224,204832,1,0,0:0:0:0:
432,224,204916,1,0,0:0:0:0:
432,224,204999,2,0,P|432:176|416:128,1,90,2|0,0:0|0:0,0:0:0:0:
328,136,205332,6,0,P|312:80|312:48,1,90,10|0,0:0|0:0,0:0:0:0:
264,40,205582,1,0,0:0:0:0:
216,40,205666,2,0,P|160:64|112:56,1,90,2|0,0:0|0:0,0:0:0:0:
48,88,205999,2,0,P|32:144|40:184,1,90,10|0,0:0|0:0,0:0:0:0:
112,224,206332,2,0,P|104:280|120:336,1,90
200,320,206666,2,0,P|224:368|264:384,1,90,8|0,0:0|0:0,0:0:0:0:
400,336,206999,6,0,P|368:376|328:384,2,90,0|0|8,0:0|0:0|0:0,0:0:0:0:
352,264,207499,1,0,0:0:0:0:
352,264,207582,1,0,0:0:0:0:
352,264,207666,2,0,P|376:208|400:192,1,90,2|0,0:0|0:0,0:0:0:0:
288,176,207999,2,0,P|280:120|304:80,1,90,10|0,0:0|0:0,0:0:0:0:
208,56,208332,1,2,0:0:0:0:
208,56,208499,1,0,0:0:0:0:
120,40,208666,2,0,P|88:88|24:120,1,90,8|0,0:0|0:0,0:0:0:0:
32,296,209332,5,8,0:0:0:0:
112,328,209499,2,0,L|160:344,1,45
154,342,209666,1,2,0:0:0:0:
248,336,209832,1,0,0:0:0:0:
336,328,209999,2,0,P|368:288|416:280,1,90,8|0,0:0|0:0,0:0:0:0:
416,192,210332,2,0,P|408:144|312:88,1,135,2|8,0:0|0:0,0:0:0:0:
344,90,210666,1,0,0:0:0:0:
216,96,210832,5,0,0:0:0:0:
128,112,210999,2,0,P|64:120|-24:48,1,180,2|8,0:0|0:0,0:0:0:0:
64,40,211499,2,0,P|32:96|48:216,1,180,2|0,0:0|0:0,0:0:0:0:
112,264,211999,1,8,0:0:0:0:
200,288,212166,1,0,0:0:0:0:
200,288,212249,1,0,0:0:0:0:
200,288,212332,6,0,P|248:304|272:344,1,90,2|0,0:0|0:0,0:0:0:0:
328,264,212666,2,0,P|344:320|336:352,1,90,8|0,0:0|0:0,0:0:0:0:
440,280,212999,2,0,P|432:336|384:368,2,90,2|0|8,0:0|0:0|0:0,0:0:0:0:
408,200,213499,1,0,0:0:0:0:
344,136,213666,2,0,B|312:96|312:96|320:48,1,90,2|0,0:0|0:0,0:0:0:0:
232,40,213999,2,0,B|216:88|216:88|168:88,1,90,8|0,0:0|0:0,0:0:0:0:
216,168,214332,2,0,P|168:192|96:176,1,90,2|0,0:0|0:0,0:0:0:0:
56,152,214666,5,0,0:0:0:0:
56,152,214832,2,0,P|40:200|72:272,1,90,8|0,0:0|0:0,0:0:0:0:
46,237,215166,1,0,0:0:0:0:
96,312,215332,1,2,0:0:0:0:
152,240,215499,1,0,0:0:0:0:
208,312,215666,2,0,P|256:296|312:304,1,90,2|0,0:0|0:0,0:0:0:0:
294,298,215916,1,0,0:0:0:0:
294,298,215999,5,0,0:0:0:0:
376,320,216166,1,0,0:0:0:0:
424,248,216332,2,0,P|456:184|456:160,1,90
432,80,216666,1,0,0:0:0:0:
432,80,216749,1,0,0:0:0:0:
432,80,216832,2,0,P|344:56|328:64,1,90
176,96,217332,5,0,0:0:0:0:
152,200,217499,1,0,0:0:0:0:
224,280,217666,1,0,0:0:0:0:
152,200,217832,1,0,0:0:0:0:
176,96,217999,1,0,0:0:0:0:
152,200,218166,1,0,0:0:0:0:
256,192,218332,1,0,0:0:0:0:
312,288,218499,1,0,0:0:0:0:
312,288,218666,5,0,0:0:0:0:
440,112,218999,1,0,0:0:0:0:
224,120,219332,1,0,0:0:0:0:
64,200,219499,1,0,0:0:0:0:
64,200,219582,1,0,0:0:0:0:
64,200,219666,1,0,0:0:0:0:
136,312,219832,1,0,0:0:0:0:
248,232,219999,5,0,0:0:0:0:
360,312,220166,1,0,0:0:0:0:
240,368,220332,1,0,0:0:0:0:
312,256,220499,1,0,0:0:0:0:
448,280,220666,1,0,0:0:0:0:
432,144,220832,1,0,0:0:0:0:
432,144,220916,1,0,0:0:0:0:
432,144,220999,2,0,P|392:96|352:80,1,90
368,84,221249,1,0,0:0:0:0:
368,84,221332,5,0,0:0:0:0:
320,208,221499,1,0,0:0:0:0:
216,120,221666,1,0,0:0:0:0:
80,96,221832,2,0,P|64:160|72:192,1,90
200,200,222166,2,0,P|216:264|208:288,1,90
328,352,222666,6,0,P|376:368|432:352,1,90
376,232,222999,1,0,0:0:0:0:
248,264,223166,1,0,0:0:0:0:
296,136,223332,1,0,0:0:0:0:
248,264,223499,2,0,P|176:248|152:224,2,90
136,344,223999,5,0,0:0:0:0:
40,248,224166,2,0,P|32:192|48:144,1,90
152,80,224499,1,0,0:0:0:0:
240,184,224666,1,0,0:0:0:0:
240,184,225332,5,0,0:0:0:0:
144,280,225499,1,0,0:0:0:0:
88,160,225666,1,0,0:0:0:0:
200,240,225832,1,0,0:0:0:0:
200,240,225916,1,0,0:0:0:0:
200,240,225999,2,0,L|264:304,1,90
392,352,226332,2,0,L|448:280,1,90
447,280,226582,1,0,0:0:0:0:
447,280,226666,5,0,0:0:0:0:
176,264,226999,1,0,0:0:0:0:
392,96,227332,1,0,0:0:0:0:
400,368,227666,1,0,0:0:0:0:
214,264,227999,5,0,0:0:0:0:
214,119,228166,1,0,0:0:0:0:
339,192,228332,1,0,0:0:0:0:
214,264,228499,1,0,0:0:0:0:
214,119,228666,1,0,0:0:0:0:
339,192,228832,1,0,0:0:0:0:
200,192,228999,1,0,0:0:0:0:
104,288,229166,1,0,0:0:0:0:
56,160,229332,6,0,L|104:64,1,90
200,192,229666,1,0,0:0:0:0:
440,320,229999,1,0,0:0:0:0:
440,320,230666,5,0,0:0:0:0:
312,288,230832,2,0,L|240:208,1,90
112,216,231166,2,0,L|184:128,1,90
288,72,231499,2,0,B|336:40|336:40|384:40,1,90
400,168,231832,1,0,0:0:0:0:
400,168,231916,1,0,0:0:0:0:
400,168,231999,5,0,0:0:0:0:
360,296,232166,2,0,B|328:344|328:344|288:360,1,90
176,296,232499,1,0,0:0:0:0:
176,296,232582,1,0,0:0:0:0:
176,296,232666,2,0,L|88:224,1,90
152,112,232999,1,0,0:0:0:0:
256,192,233166,1,0,0:0:0:0:
176,296,233332,5,0,0:0:0:0:
256,192,233499,1,0,0:0:0:0:
376,128,233666,1,0,0:0:0:0:
448,240,233832,1,0,0:0:0:0:
328,176,233999,1,0,0:0:0:0:
464,152,234166,1,0,0:0:0:0:
464,152,234249,1,0,0:0:0:0:
464,152,234332,2,0,L|400:64,1,90
288,136,234666,5,0,0:0:0:0:
200,240,234832,1,0,0:0:0:0:
288,136,234999,1,0,0:0:0:0:
320,264,235166,1,0,0:0:0:0:
288,136,235332,1,0,0:0:0:0:
408,200,235499,1,0,0:0:0:0:
288,136,235666,1,0,0:0:0:0:
416,88,235832,2,0,L|416:192,1,90
256,192,254666,12,0,256999,0:0:0:0:
128,304,257332,5,0,0:0:0:0:
112,168,257499,2,0,L|176:80,1,90
256,192,257832,1,0,0:0:0:0:
256,192,257916,1,0,0:0:0:0:
256,192,257999,1,0,0:0:0:0:
304,320,258166,1,0,0:0:0:0:
432,288,258332,1,0,0:0:0:0:
432,288,258416,1,0,0:0:0:0:
432,288,258499,2,0,P|480:224|480:176,1,90
400,112,258832,5,0,0:0:0:0:
288,192,258999,1,0,0:0:0:0:
272,64,259166,1,0,0:0:0:0:
352,160,259332,1,0,0:0:0:0:
224,112,259499,1,0,0:0:0:0:
224,112,259582,1,0,0:0:0:0:
224,112,259666,2,0,P|167:86|96:80,1,135
95,80,259999,5,0,0:0:0:0:
32,208,260166,1,0,0:0:0:0:
112,320,260332,1,0,0:0:0:0:
176,192,260499,1,0,0:0:0:0:
272,96,260666,2,0,P|208:64|176:64,2,90
288,224,261166,1,0,0:0:0:0:
384,144,261332,5,0,0:0:0:0:
112,96,261666,2,0,P|88:184|104:272,1,180
360,352,262332,1,0,0:0:0:0:
440,240,262499,1,0,0:0:0:0:
304,216,262666,5,0,0:0:0:0:
408,304,262832,1,0,0:0:0:0:
408,304,262916,1,0,0:0:0:0:
408,304,262999,2,0,L|448:224,1,90
408,96,263332,1,0,0:0:0:0:
272,120,263499,1,0,0:0:0:0:
272,120,263582,1,0,0:0:0:0:
272,120,263666,2,0,P|224:176|192:200,1,90
211,186,263999,5,0,0:0:0:0:
96,112,264166,2,0,P|80:160|96:208,1,90
184,240,264499,2,0,P|192:296|168:352,1,90
183,327,264832,1,0,0:0:0:0:
320,344,264999,1,0,0:0:0:0:
448,104,265332,6,0,B|416:64|416:64|360:48,1,90
320,176,265666,1,0,0:0:0:0:
216,88,265832,2,0,L|152:160,1,90
280,208,266166,2,0,L|336:280,1,90
456,216,266499,1,0,0:0:0:0:
384,104,266666,5,0,0:0:0:0:
312,216,266832,1,0,0:0:0:0:
432,152,266999,1,0,0:0:0:0:
328,72,267166,2,0,P|240:48|208:56,2,90
328,72,267999,5,0,0:0:0:0:
256,184,268166,1,0,0:0:0:0:
256,184,268249,1,0,0:0:0:0:
256,184,268332,1,0,0:0:0:0:
184,296,268499,1,0,0:0:0:0:
144,256,268582,2,0,L|104:280,1,45
128,216,268749,2,0,L|80:224,1,45
72,88,268999,1,0,0:0:0:0:
208,112,269166,1,0,0:0:0:0:
264,232,269332,5,0,0:0:0:0:
286,232,269415,1,0,0:0:0:0:
309,232,269498,1,0,0:0:0:0:
331,232,269581,1,0,0:0:0:0:
354,232,269665,1,0,0:0:0:0:
448,136,269832,1,0,0:0:0:0:
448,136,269916,1,0,0:0:0:0:
448,136,269999,2,0,L|424:88,1,45
427,95,270166,1,0,0:0:0:0:
427,95,270249,1,0,0:0:0:0:
427,95,270332,1,0,0:0:0:0:
296,56,270499,1,0,0:0:0:0:
176,120,270666,5,0,0:0:0:0:
56,184,270832,1,0,0:0:0:0:
56,184,270916,1,0,0:0:0:0:
56,184,270999,2,0,P|40:256|64:320,1,135
58,312,271332,1,0,0:0:0:0:
184,360,271499,1,0,0:0:0:0:
184,360,271582,1,0,0:0:0:0:
184,360,271666,1,0,0:0:0:0:
272,256,271832,1,0,0:0:0:0:
352,360,271999,5,0,0:0:0:0:
88,288,272332,2,0,P|104:192|88:112,1,180
312,256,272999,1,0,0:0:0:0:
335,229,273082,1,0,0:0:0:0:
359,202,273165,1,0,0:0:0:0:
383,175,273248,1,0,0:0:0:0:
400,152,273332,5,0,0:0:0:0:
228,210,273498,1,0,0:0:0:0:
264,34,273665,1,0,0:0:0:0:
400,152,273832,1,0,0:0:0:0:
228,210,273998,1,0,0:0:0:0:
264,34,274165,1,0,0:0:0:0:
400,64,274332,2,0,L|400:160,1,90
480,264,274666,5,0,0:0:0:0:
368,344,274832,1,0,0:0:0:0:
344,208,274999,1,0,0:0:0:0:
432,312,275166,2,0,B|480:280|480:280|488:224,1,90
240,136,275666,1,0,0:0:0:0:
384,360,275999,1,0,0:0:0:0:
256,312,276166,2,0,L|176:248,1,90
272,152,276499,2,0,L|376:232,1,90
392,336,276832,1,0,0:0:0:0:
256,336,276999,1,0,0:0:0:0:
216,208,277166,1,0,0:0:0:0:
320,296,277332,5,0,0:0:0:0:
184,288,277499,1,0,0:0:0:0:
104,184,277666,1,0,0:0:0:0:
48,304,277832,1,0,0:0:0:0:
160,224,277999,1,0,0:0:0:0:
160,224,278332,2,0,L|192:248,4,22.5
312,328,278666,5,0,0:0:0:0:
432,192,278832,1,0,0:0:0:0:
432,192,278916,1,0,0:0:0:0:
432,192,278999,2,0,P|400:112|360:64,1,135
370,74,279332,1,0,0:0:0:0:
264,216,279499,1,0,0:0:0:0:
432,280,279666,1,0,0:0:0:0:
312,144,279832,1,0,0:0:0:0:
312,144,279916,1,0,0:0:0:0:
312,144,279999,5,0,0:0:0:0:
312,144,280332,1,0,0:0:0:0:
312,144,280666,1,0,0:0:0:0:
312,144,280999,1,0,0:0:0:0:
56,344,281332,2,0,P|40:288|48:248,1,90
160,192,281666,2,0,P|128:152|64:128,1,90
94,133,281999,1,0,0:0:0:0:
88,272,282166,2,0,L|184:312,1,90
304,344,282499,1,0,0:0:0:0:
304,344,282582,1,0,0:0:0:0:
304,344,282666,5,0,0:0:0:0:
94,133,282999,2,0,P|160:64|248:48,1,180
256,96,283666,5,0,0:0:0:0:
351,192,283832,1,0,0:0:0:0:
255,287,283999,1,0,0:0:0:0:
160,191,284166,1,0,0:0:0:0:
233,66,284332,5,0,0:0:0:0:
381,169,284499,1,0,0:0:0:0:
278,317,284666,1,0,0:0:0:0:
130,214,284832,1,0,0:0:0:0:
256,45,284999,5,0,0:0:0:0:
402,192,285166,1,0,0:0:0:0:
255,338,285332,1,0,0:0:0:0:
109,191,285499,1,0,0:0:0:0:
176,72,285666,2,0,L|216:160,1,90
344,184,285999,2,0,B|304:224|304:288|304:288|248:336,1,180
96,112,286666,5,0,0:0:0:0:
104,248,286832,1,0,0:0:0:0:
232,296,286999,1,0,0:0:0:0:
360,328,287166,2,0,B|384:304|408:304|408:304|432:272,1,90
416,144,287499,2,0,B|385:129|377:107|377:107|338:95,1,90
288,224,287832,1,0,0:0:0:0:
176,144,287999,5,0,0:0:0:0:
88,248,288166,2,0,L|120:344,1,90
248,344,288499,2,0,L|344:336,1,90
337,336,288999,1,0,0:0:0:0:
337,336,289332,5,0,0:0:0:0:
200,336,289499,2,0,L|120:288,1,90
184,168,289832,1,0,0:0:0:0:
80,88,289999,1,0,0:0:0:0:
208,56,290166,1,0,0:0:0:0:
112,152,290332,2,0,L|32:224,1,90
45,212,290582,1,0,0:0:0:0:
45,212,290666,5,0,0:0:0:0:
280,336,290999,2,0,B|344:344|344:344|392:296|352:240,1,180
96,328,291666,1,0,0:0:0:0:
312,168,291999,5,0,0:0:0:0:
232,280,292166,2,0,B|216:336|216:336|160:360,1,90
72,272,292499,2,0,B|56:232|56:232|72:192|48:152,1,90
176,120,292832,1,0,0:0:0:0:
176,120,292916,1,0,0:0:0:0:
176,120,292999,1,0,0:0:0:0:
272,216,293166,2,0,L|304:256,1,45
300,251,293332,5,0,0:0:0:0:
72,112,293666,1,0,0:0:0:0:
300,251,293999,1,0,0:0:0:0:
136,328,294332,1,0,0:0:0:0:
122,285,294415,1,0,0:0:0:0:
119,240,294498,1,0,0:0:0:0:
126,195,294581,1,0,0:0:0:0:
142,154,294665,5,0,0:0:0:0:
168,72,294832,2,0,L|264:48,1,90
296,136,295166,1,0,0:0:0:0:
320,224,295332,2,0,B|288:256|288:256|296:280|280:328,1,90
287,300,295666,1,0,0:0:0:0:
208,336,295832,1,0,0:0:0:0:
120,344,295999,5,0,0:0:0:0:
56,280,296166,1,0,0:0:0:0:
48,192,296332,1,0,0:0:0:0:
128,232,296499,1,0,0:0:0:0:
128,144,296666,2,0,B|184:96|184:96|256:128|312:64,1,180
360,256,297332,5,0,0:0:0:0:
456,144,297499,1,0,0:0:0:0:
472,288,297666,1,0,0:0:0:0:
384,176,297832,2,0,L|328:88,1,90
216,184,298166,1,0,0:0:0:0:
320,88,298332,1,0,0:0:0:0:
456,128,298499,1,0,0:0:0:0:
400,264,298666,6,0,L|352:352,1,90
232,256,298999,2,0,L|144:200,1,90
216,72,299332,2,0,L|304:24,1,90
295,28,299999,5,0,0:0:0:0:
364,84,300166,1,0,0:0:0:0:
392,168,300332,1,0,0:0:0:0:
392,168,300416,1,0,0:0:0:0:
392,168,300499,1,0,0:0:0:0:
392,168,300582,1,0,0:0:0:0:
392,168,300666,1,0,0:0:0:0:
464,224,300832,2,0,B|472:256|456:288|456:288|468:332,1,90
384,356,301166,1,0,0:0:0:0:
384,356,301249,1,0,0:0:0:0:
384,356,301332,6,0,P|320:356|220:320,1,135
252,336,301666,1,0,0:0:0:0:
72,360,301999,1,0,0:0:0:0:
112,184,302332,1,0,0:0:0:0:
236,52,302666,6,0,L|336:76,1,90
388,200,302999,2,0,L|416:292,1,90
276,332,303332,2,0,L|168:348,1,90
84,244,303666,2,0,L|52:140,1,90
196,192,303999,1,0,0:0:0:0:
332,308,304332,1,0,0:0:0:0:
384,136,304666,1,0,0:0:0:0:
220,64,304999,2,0,B|164:64|164:64|116:92,1,90
134,81,305332,5,0,0:0:0:0:
28,164,305499,2,0,P|20:216|32:260,1,90
148,192,305832,2,0,L|232:152,1,90
292,32,306166,2,0,L|364:88,1,90
228,92,306499,1,0,0:0:0:0:
100,52,306666,5,0,0:0:0:0:
8,152,306832,2,0,B|16:196|44:208|44:208|32:260,1,90
140,320,307166,2,0,B|184:304|184:304|220:308|252:292,1,90
496,288,307666,1,0,0:0:0:0:
308,324,307999,5,0,0:0:0:0:
176,288,308166,2,0,B|140:252|140:252|140:212|116:200,1,90
268,212,308499,2,0,L|356:264,1,90
456,180,308832,1,0,0:0:0:0:
456,180,308916,1,0,0:0:0:0:
456,180,308999,2,0,B|464:144|464:144|452:112|464:88,2,90
368,280,309499,5,0,0:0:0:0:
252,348,309666,1,0,0:0:0:0:
232,216,309832,1,0,0:0:0:0:
316,320,309999,1,0,0:0:0:0:
316,320,310666,5,0,0:0:0:0:
300,232,310832,1,0,0:0:0:0:
316,320,310999,1,0,0:0:0:0:
356,144,311166,2,0,P|308:128|264:144,2,90
256,52,311666,1,0,0:0:0:0:
128,96,311832,1,0,0:0:0:0:
128,96,311916,1,0,0:0:0:0:
128,96,311999,6,0,B|96:120|96:120|84:156|104:176,2,90
340,264,312666,1,0,0:0:0:0:
84,348,312999,1,0,0:0:0:0:
148,228,313166,1,0,0:0:0:0:
148,228,313249,1,0,0:0:0:0:
148,228,313332,6,0,P|164:184|240:136,1,135
235,136,313666,1,0,0:0:0:0:
280,264,313832,1,0,0:0:0:0:
236,136,313999,1,0,0:0:0:0:
372,136,314166,1,0,0:0:0:0:
236,136,314332,2,0,P|184:131|72:188,1,180
304,328,314999,1,0,0:0:0:0:
464,108,315332,1,0,0:0:0:0:
216,212,315666,1,0,0:0:0:0:
156,144,315832,1,0,0:0:0:0:
92,208,315999,6,0,P|68:288|72:304,1,90
140,348,316332,1,0,0:0:0:0:
228,360,316499,1,0,0:0:0:0:
208,272,316666,1,0,0:0:0:0:
288,236,316832,2,0,L|372:180,1,90
288,132,317166,2,0,L|200:96,1,90
128,144,317499,6,0,B|76:160|76:160|48:192,2,90
188,212,317999,1,0,0:0:0:0:
348,296,318332,1,0,0:0:0:0:
448,144,318666,5,0,0:0:0:0:
388,76,318832,1,0,0:0:0:0:
368,164,318999,1,0,0:0:0:0:
404,248,319166,1,0,0:0:0:0:
328,296,319332,2,0,L|256:360,1,90
196,292,319666,1,0,0:0:0:0:
120,340,319832,1,0,0:0:0:0:
48,284,319999,5,0,0:0:0:0:
52,192,320166,2,0,L|52:88,1,90
52,192,320499,2,0,B|100:184|100:184|112:160|164:140,2,90
357,163,321332,5,0,0:0:0:0:
384,247,321499,1,0,0:0:0:0:
384,247,321582,1,0,0:0:0:0:
384,247,321665,2,0,B|432:272|432:272|472:271,1,90
472,152,321999,1,0,0:0:0:0:
455,116,322082,1,0,0:0:0:0:
428,84,322165,1,0,0:0:0:0:
397,61,322249,1,0,0:0:0:0:
360,40,322332,2,0,B|312:16|312:16|256:32,1,90
168,104,322665,5,0,0:0:0:0:
56,184,322832,1,0,0:0:0:0:
56,184,322915,1,0,0:0:0:0:
56,184,322999,2,0,L|56:304,1,90
56,296,323249,1,0,0:0:0:0:
56,320,323332,2,0,B|72:368|72:368|112:384,1,90
216,304,323665,5,0,0:0:0:0:
250,282,323748,1,0,0:0:0:0:
283,258,323831,1,0,0:0:0:0:
317,236,323915,1,0,0:0:0:0:
352,207,323999,2,0,L|431:144,1,90
287,136,324332,1,0,0:0:0:0:
168,72,324499,1,0,0:0:0:0:
168,72,324582,1,0,0:0:0:0:
168,72,324665,1,0,0:0:0:0:
96,184,324832,1,0,0:0:0:0:
96,184,324915,1,0,0:0:0:0:
96,184,324999,2,0,B|64:232|64:232|88:296,1,90
192,336,325332,5,0,0:0:0:0:
233,338,325415,1,0,0:0:0:0:
272,329,325498,1,0,0:0:0:0:
308,309,325582,1,0,0:0:0:0:
308,309,325665,2,0,L|375:216,1,90
375,216,325915,1,0,0:0:0:0:
384,200,325999,2,0,P|416:144|415:88,2,90
384,200,326415,1,0,0:0:0:0:
384,200,326499,1,0,0:0:0:0:
319,264,326665,5,0,0:0:0:0:
232,248,326832,1,0,0:0:0:0:
144,216,326999,1,0,0:0:0:0:
118,187,327082,1,0,0:0:0:0:
105,148,327165,1,0,0:0:0:0:
108,108,327249,1,0,0:0:0:0:
127,73,327332,1,0,0:0:0:0:
208,32,327499,1,0,0:0:0:0:
288,72,327665,1,0,0:0:0:0:
224,136,327832,1,0,0:0:0:0:
280,208,327999,5,0,0:0:0:0:
305,239,328082,1,0,0:0:0:0:
330,272,328165,1,0,0:0:0:0:
355,304,328249,1,0,0:0:0:0:
380,336,328332,1,0,0:0:0:0:
440,272,328499,1,0,0:0:0:0:
440,272,328582,1,0,0:0:0:0:
440,272,328665,2,0,L|440:175,1,90
408,96,328999,1,0,0:0:0:0:
344,160,329165,1,0,0:0:0:0:
288,88,329332,5,0,0:0:0:0:
200,72,329499,1,0,0:0:0:0:
200,72,329582,1,0,0:0:0:0:
200,72,329665,1,0,0:0:0:0:
112,96,329832,1,0,0:0:0:0:
80,184,329999,2,0,B|56:232|56:232|72:288,1,90
66,268,330249,1,0,0:0:0:0:
66,268,330332,1,0,0:0:0:0:
152,336,330499,1,0,0:0:0:0:
184,232,330665,5,0,0:0:0:0:
104,304,330832,1,0,0:0:0:0:
80,200,330999,2,0,B|64:152|64:152|88:88,1,90
78,116,331249,1,0,0:0:0:0:
78,116,331332,1,0,0:0:0:0:
160,48,331499,5,0,0:0:0:0:
248,40,331666,1,0,0:0:0:0:
248,75,331749,1,0,0:0:0:0:
249,111,331832,1,0,0:0:0:0:
250,147,331915,1,0,0:0:0:0:
251,183,331999,1,0,0:0:0:0:
256,192,334666,5,0,0:0:0:0:
256,192,337332,5,0,0:0:0:0:
256,192,339832,5,0,0:0:0:0:
256,192,341166,1,0,0:0:0:0:
256,192,341832,1,0,0:0:0:0:
256,192,341916,12,0,342582,0:0:0:0:
144,272,342666,5,0,0:0:0:0:
112,240,342749,2,0,L|156:200,1,45
100,208,342916,2,0,L|120:164,1,45
80,188,343082,2,0,L|60:140,1,45
68,100,343249,1,0,0:0:0:0:
84,56,343332,2,0,B|120:52|120:52|152:80|192:72,1,90
332,148,343832,2,0,L|292:168,1,45
332,148,343999,6,0,L|324:196,1,45
332,148,344166,2,0,L|424:220,1,90
376,320,344499,1,0,0:0:0:0:
358,320,344582,1,0,0:0:0:0:
340,321,344665,1,0,0:0:0:0:
322,322,344749,1,0,0:0:0:0:
304,323,344832,1,0,0:0:0:0:
286,323,344915,1,0,0:0:0:0:
268,324,344999,1,0,0:0:0:0:
180,352,345166,1,0,0:0:0:0:
92,328,345332,6,0,L|48:300,1,45
120,312,345499,2,0,L|116:256,1,45
156,324,345666,2,0,L|216:264,1,45
204,276,345832,1,0,0:0:0:0:
224,264,345916,1,0,0:0:0:0:
244,252,345999,1,0,0:0:0:0:
260,245,346083,1,0,0:0:0:0:
277,239,346166,1,0,0:0:0:0:
298,233,346249,2,0,L|346:217,1,45
368,84,346499,1,0,0:0:0:0:
368,84,346583,1,0,0:0:0:0:
368,84,346666,6,0,L|384:52,4,22.5
444,196,346999,2,0,L|500:244,1,45
416,256,347166,2,0,L|368:288,1,45
324,320,347333,2,0,L|380:368,1,45
292,364,347499,2,0,P|244:380|192:372,1,90
408,192,347999,5,0,0:0:0:0:
384,104,348166,1,0,0:0:0:0:
320,168,348333,1,0,0:0:0:0:
232,160,348499,1,0,0:0:0:0:
232,160,348583,1,0,0:0:0:0:
232,160,348666,1,0,0:0:0:0:
232,160,348749,2,0,L|192:216,1,45
200,152,348916,2,0,L|136:168,1,45
156,162,349083,1,0,0:0:0:0:
156,162,349166,1,0,0:0:0:0:
92,280,349333,6,0,L|76:320,4,22.5
200,360,349666,1,0,0:0:0:0:
280,248,349833,2,0,L|292:216,8,22.5
300,116,350333,1,0,0:0:0:0:
168,132,350499,1,0,0:0:0:0:
92,244,350666,6,0,L|80:272,4,22.5
160,240,350916,2,0,L|152:184,1,45
200,244,351083,2,0,L|216:188,1,45
212,200,351249,1,0,0:0:0:0:
212,200,351333,1,0,0:0:0:0:
292,92,351499,2,0,L|288:48,1,45
240,96,351666,2,0,L|216:44,1,45
184,112,351832,1,0,0:0:0:0:
164,124,351915,1,0,0:0:0:0:
144,136,351999,6,0,L|120:156,4,22.5
104,272,352333,1,0,0:0:0:0:
280,312,352499,2,0,L|320:320,8,22.5
168,236,353333,5,0,0:0:0:0:
179,215,353416,1,0,0:0:0:0:
189,195,353499,1,0,0:0:0:0:
198,176,353583,1,0,0:0:0:0:
209,155,353666,1,0,0:0:0:0:
219,136,353749,1,0,0:0:0:0:
230,116,353833,1,0,0:0:0:0:
239,96,353916,1,0,0:0:0:0:
249,76,353999,1,0,0:0:0:0:
263,52,354083,2,0,L|311:28,1,45
280,68,354249,2,0,L|336:92,1,45
104,168,354499,1,0,0:0:0:0:
104,168,354666,6,0,L|104:128,4,22.5
216,88,354999,1,0,0:0:0:0:
272,208,355166,1,0,0:0:0:0:
408,192,355333,2,0,L|440:168,8,22.5
304,272,355833,2,0,L|248:256,1,45
200,296,355999,6,0,L|176:256,1,45
112,256,356166,2,0,L|120:200,1,45
64,176,356333,2,0,L|104:144,1,45
40,112,356499,1,0,0:0:0:0:
176,88,356666,1,0,0:0:0:0:
198,88,356749,1,0,0:0:0:0:
221,88,356832,1,0,0:0:0:0:
243,88,356916,1,0,0:0:0:0:
266,88,356999,1,0,0:0:0:0:
392,48,357166,2,0,L|416:32,8,22.5
336,168,357666,1,0,0:0:0:0:
208,128,357833,2,0,L|168:120,8,22.5
72,120,358666,5,0,0:0:0:0:
64,141,358749,1,0,0:0:0:0:
59,163,358832,1,0,0:0:0:0:
56,185,358916,1,0,0:0:0:0:
56,207,358999,1,0,0:0:0:0:
57,230,359082,1,0,0:0:0:0:
61,252,359166,1,0,0:0:0:0:
67,274,359249,1,0,0:0:0:0:
75,295,359332,1,0,0:0:0:0:
88,320,359416,2,0,L|104:344,6,22.5
200,240,359833,1,0,0:0:0:0:
320,184,359999,2,0,L|344:176,5,22.5
200,240,360416,6,0,L|248:272,1,45
352,288,360583,2,0,L|312:320,1,45
208,320,360749,2,0,L|152:288,1,45
64,264,360916,2,0,L|112:232,1,45
216,240,361083,2,0,L|168:200,1,45
181,211,361249,1,0,0:0:0:0:
181,211,361333,5,0,0:0:0:0:
80,120,361499,1,0,0:0:0:0:
64,256,361666,1,0,0:0:0:0:
144,152,361833,1,0,0:0:0:0:
256,80,361999,1,0,0:0:0:0:
294,56,362082,1,0,0:0:0:0:
338,47,362165,1,0,0:0:0:0:
382,55,362249,1,0,0:0:0:0:
421,77,362332,1,0,0:0:0:0:
440,216,362499,2,0,L|400:192,1,45
432,256,362666,6,0,L|384:256,1,45
408,320,362833,1,0,0:0:0:0:
272,328,362999,2,0,L|248:288,1,45
232,352,363166,2,0,L|184:328,1,45
176,288,363333,1,0,0:0:0:0:
96,252,363499,1,0,0:0:0:0:
56,172,363666,2,0,L|48:140,8,22.5
