osu file format v14

[General]
AudioFilename: audio.mp3
AudioLeadIn: 0
PreviewTime: 82447
Countdown: 1
SampleSet: None
StackLeniency: 0.7
Mode: 3
LetterboxInBreaks: 0
SpecialStyle: 0
WidescreenStoryboard: 0

[Editor]
Bookmarks: 13876,27590,55019,82447,103019,109876,137304,164733,192162,219590,233304
DistanceSpacing: 1
BeatDivisor: 4
GridSize: 32
TimelineZoom: 1.4

[Metadata]
Title:City Lights
TitleUnicode:City Lights
Artist:Eclypse
ArtistUnicode:Eclypse
Creator:hanfan
Version:Insane
Source:
Tags:
BeatmapID:1809236
BeatmapSetID:865243

[Difficulty]
HPDrainRate:5
CircleSize:4
OverallDifficulty:5
ApproachRate:5
SliderMultiplier:1.4
SliderTickRate:1

[Events]
//Background and Video events
0,0,"wallhaven-586360_1920x1080.png",0,0
//Break Periods
2,110933,191604
//Storyboard Layer 0 (Background)
//Storyboard Layer 1 (Fail)
//Storyboard Layer 2 (Pass)
//Storyboard Layer 3 (Foreground)
//Storyboard Sound Samples

[TimingPoints]
162,428.571428571429,4,3,0,30,1,0
82447,-100,4,3,0,30,0,1
106447,-100,4,3,0,30,0,0
192804,-100,4,3,0,30,0,1
216162,-100,4,3,0,30,0,0

[HitObjects]
64,192,162,5,0,0:0:0:0:
448,192,804,1,0,0:0:0:0:
320,192,1447,1,0,0:0:0:0:
192,192,1447,128,0,7019:0:0:0:0:
64,192,3590,1,0,0:0:0:0:
320,192,4233,1,0,0:0:0:0:
448,192,4876,1,0,0:0:0:0:
320,192,7019,1,0,0:0:0:0:
448,192,7662,1,0,0:0:0:0:
64,192,8304,1,0,0:0:0:0:
320,192,8304,128,0,13876:0:0:0:0:
192,192,8947,1,0,0:0:0:0:
64,192,9590,1,0,0:0:0:0:
448,192,10019,1,0,0:0:0:0:
192,192,10447,1,0,0:0:0:0:
448,192,11090,1,0,0:0:0:0:
64,192,11733,1,0,0:0:0:0:
448,192,12376,1,0,0:0:0:0:
64,192,13019,1,0,0:0:0:0:
448,192,13447,1,0,0:0:0:0:
192,192,13876,1,0,0:0:0:0:
448,192,13876,1,0,0:0:0:0:
64,192,14090,1,0,0:0:0:0:
448,192,14304,1,0,0:0:0:0:
192,192,14519,1,0,0:0:0:0:
320,192,14519,1,0,0:0:0:0:
64,192,14733,1,0,0:0:0:0:
448,192,14947,1,0,0:0:0:0:
192,192,15162,1,0,0:0:0:0:
320,192,15269,1,0,0:0:0:0:
64,192,15376,1,0,0:0:0:0:
192,192,15483,1,0,0:0:0:0:
320,192,15590,1,0,0:0:0:0:
192,192,15804,1,0,0:0:0:0:
448,192,15804,1,0,0:0:0:0:
64,192,16019,1,0,0:0:0:0:
448,192,16233,1,0,0:0:0:0:
192,192,16447,1,0,0:0:0:0:
64,192,16447,1,0,0:0:0:0:
320,192,16662,1,0,0:0:0:0:
192,192,16876,1,0,0:0:0:0:
448,192,16876,1,0,0:0:0:0:
64,192,17090,1,0,0:0:0:0:
192,192,17304,1,0,0:0:0:0:
448,192,17304,1,0,0:0:0:0:
320,192,17519,1,0,0:0:0:0:
192,192,17733,1,0,0:0:0:0:
320,192,17947,1,0,0:0:0:0:
448,192,17947,1,0,0:0:0:0:
192,192,18162,1,0,0:0:0:0:
320,192,18376,1,0,0:0:0:0:
192,192,18590,1,0,0:0:0:0:
448,192,18590,1,0,0:0:0:0:
320,192,18804,1,0,0:0:0:0:
192,192,19019,1,0,0:0:0:0:
320,192,19233,1,0,0:0:0:0:
448,192,19233,1,0,0:0:0:0:
192,192,19447,1,0,0:0:0:0:
320,192,19662,1,0,0:0:0:0:
192,192,19876,1,0,0:0:0:0:
448,192,19876,1,0,0:0:0:0:
320,192,20090,1,0,0:0:0:0:
192,192,20304,1,0,0:0:0:0:
448,192,20304,1,0,0:0:0:0:
320,192,20519,1,0,0:0:0:0:
64,192,20733,1,0,0:0:0:0:
448,192,20733,1,0,0:0:0:0:
192,192,20947,1,0,0:0:0:0:
320,192,21162,1,0,0:0:0:0:
64,192,21376,1,0,0:0:0:0:
448,192,21376,1,0,0:0:0:0:
192,192,21590,1,0,0:0:0:0:
320,192,21804,1,0,0:0:0:0:
64,192,22019,1,0,0:0:0:0:
448,192,22019,1,0,0:0:0:0:
192,192,22126,1,0,0:0:0:0:
320,192,22233,1,0,0:0:0:0:
448,192,22340,1,0,0:0:0:0:
320,192,22447,1,0,0:0:0:0:
64,192,22662,1,0,0:0:0:0:
448,192,22662,1,0,0:0:0:0:
320,192,22876,1,0,0:0:0:0:
192,192,23090,1,0,0:0:0:0:
64,192,23304,1,0,0:0:0:0:
448,192,23304,1,0,0:0:0:0:
192,192,23519,1,0,0:0:0:0:
64,192,23733,1,0,0:0:0:0:
448,192,23733,1,0,0:0:0:0:
320,192,23947,1,0,0:0:0:0:
448,192,24162,1,0,0:0:0:0:
64,192,24162,1,0,0:0:0:0:
320,192,24376,1,0,0:0:0:0:
448,192,24590,1,0,0:0:0:0:
320,192,24804,1,0,0:0:0:0:
64,192,24804,1,0,0:0:0:0:
448,192,25019,1,0,0:0:0:0:
320,192,25233,1,0,0:0:0:0:
448,192,25447,1,0,0:0:0:0:
64,192,25447,1,0,0:0:0:0:
320,192,25662,1,0,0:0:0:0:
448,192,25876,1,0,0:0:0:0:
320,192,26090,1,0,0:0:0:0:
64,192,26090,1,0,0:0:0:0:
448,192,26304,1,0,0:0:0:0:
320,192,26519,1,0,0:0:0:0:
448,192,26733,1,0,0:0:0:0:
64,192,26733,1,0,0:0:0:0:
320,192,26947,1,0,0:0:0:0:
448,192,27162,1,0,0:0:0:0:
64,192,27162,1,0,0:0:0:0:
320,192,27376,1,0,0:0:0:0:
192,192,27590,1,0,0:0:0:0:
192,192,28233,1,0,0:0:0:0:
192,192,28876,1,0,0:0:0:0:
192,192,29519,1,0,0:0:0:0:
192,192,30162,1,0,0:0:0:0:
192,192,30590,1,0,0:0:0:0:
320,192,31019,1,0,0:0:0:0:
320,192,31662,1,0,0:0:0:0:
320,192,32304,1,0,0:0:0:0:
320,192,32947,1,0,0:0:0:0:
320,192,33590,1,0,0:0:0:0:
320,192,34019,1,0,0:0:0:0:
64,192,34447,1,0,0:0:0:0:
64,192,35090,1,0,0:0:0:0:
64,192,35733,1,0,0:0:0:0:
64,192,36376,1,0,0:0:0:0:
64,192,37019,1,0,0:0:0:0:
64,192,37447,1,0,0:0:0:0:
448,192,37876,1,0,0:0:0:0:
448,192,38519,1,0,0:0:0:0:
448,192,39162,1,0,0:0:0:0:
448,192,39804,1,0,0:0:0:0:
448,192,40447,1,0,0:0:0:0:
448,192,40876,1,0,0:0:0:0:
192,192,41304,1,0,0:0:0:0:
192,192,41947,1,0,0:0:0:0:
192,192,42590,1,0,0:0:0:0:
192,192,43233,1,0,0:0:0:0:
192,192,43876,1,0,0:0:0:0:
192,192,44304,1,0,0:0:0:0:
320,192,44733,1,0,0:0:0:0:
320,192,45376,1,0,0:0:0:0:
320,192,46019,1,0,0:0:0:0:
320,192,46662,1,0,0:0:0:0:
320,192,47304,1,0,0:0:0:0:
320,192,47733,1,0,0:0:0:0:
64,192,48162,1,0,0:0:0:0:
64,192,48804,1,0,0:0:0:0:
64,192,49447,1,0,0:0:0:0:
64,192,50090,1,0,0:0:0:0:
64,192,50733,1,0,0:0:0:0:
64,192,51162,1,0,0:0:0:0:
448,192,51590,1,0,0:0:0:0:
448,192,52233,1,0,0:0:0:0:
448,192,52876,1,0,0:0:0:0:
448,192,53519,1,0,0:0:0:0:
448,192,54162,1,0,0:0:0:0:
448,192,54590,1,0,0:0:0:0:
192,192,55019,1,0,0:0:0:0:
192,192,55662,1,0,0:0:0:0:
192,192,56304,1,0,0:0:0:0:
192,192,56947,1,0,0:0:0:0:
192,192,57590,1,0,0:0:0:0:
192,192,58019,1,0,0:0:0:0:
320,192,58447,1,0,0:0:0:0:
320,192,59090,1,0,0:0:0:0:
320,192,59733,1,0,0:0:0:0:
320,192,60376,1,0,0:0:0:0:
320,192,61019,1,0,0:0:0:0:
320,192,61447,1,0,0:0:0:0:
64,192,61876,1,0,0:0:0:0:
64,192,62519,1,0,0:0:0:0:
64,192,63162,1,0,0:0:0:0:
64,192,63804,1,0,0:0:0:0:
64,192,64447,1,0,0:0:0:0:
64,192,64876,1,0,0:0:0:0:
448,192,65304,1,0,0:0:0:0:
448,192,65947,1,0,0:0:0:0:
448,192,66590,1,0,0:0:0:0:
448,192,67233,1,0,0:0:0:0:
448,192,67876,1,0,0:0:0:0:
448,192,68304,1,0,0:0:0:0:
192,192,68733,1,0,0:0:0:0:
192,192,69376,1,0,0:0:0:0:
192,192,70019,1,0,0:0:0:0:
192,192,70662,1,0,0:0:0:0:
192,192,71304,1,0,0:0:0:0:
192,192,71733,1,0,0:0:0:0:
320,192,72162,1,0,0:0:0:0:
320,192,72804,1,0,0:0:0:0:
320,192,73447,1,0,0:0:0:0:
320,192,74090,1,0,0:0:0:0:
320,192,74733,1,0,0:0:0:0:
320,192,75162,1,0,0:0:0:0:
64,192,75590,1,0,0:0:0:0:
64,192,76233,1,0,0:0:0:0:
64,192,76876,1,0,0:0:0:0:
64,192,77519,1,0,0:0:0:0:
64,192,78162,1,0,0:0:0:0:
64,192,78590,1,0,0:0:0:0:
192,192,79019,128,0,79769:0:0:0:0:
192,192,79876,128,0,80197:0:0:0:0:
192,192,80304,128,0,80626:0:0:0:0:
448,192,80733,128,0,81376:0:0:0:0:
320,192,81376,128,0,81804:0:0:0:0:
192,192,81804,128,0,82019:0:0:0:0:
64,192,82019,128,0,82233:0:0:0:0:
320,192,82233,1,0,0:0:0:0:
64,192,82447,5,0,0:0:0:0:
448,192,82447,1,0,0:0:0:0:
320,192,82501,1,0,0:0:0:0:
192,192,82554,1,0,0:0:0:0:
64,192,82608,1,0,0:0:0:0:
448,192,82662,1,0,0:0:0:0:
320,192,82715,1,0,0:0:0:0:
64,192,82769,1,0,0:0:0:0:
192,192,82822,1,0,0:0:0:0:
448,192,82876,1,0,0:0:0:0:
320,192,82876,1,0,0:0:0:0:
64,192,82929,1,0,0:0:0:0:
192,192,82983,1,0,0:0:0:0:
320,192,83037,1,0,0:0:0:0:
448,192,83090,1,0,0:0:0:0:
64,192,83090,1,0,0:0:0:0:
192,192,83144,1,0,0:0:0:0:
320,192,83197,1,0,0:0:0:0:
448,192,83251,1,0,0:0:0:0:
64,192,83304,1,0,0:0:0:0:
192,192,83304,1,0,0:0:0:0:
320,192,83358,1,0,0:0:0:0:
448,192,83412,1,0,0:0:0:0:
64,192,83465,1,0,0:0:0:0:
320,192,83519,1,0,0:0:0:0:
192,192,83572,1,0,0:0:0:0:
64,192,83626,1,0,0:0:0:0:
448,192,83679,1,0,0:0:0:0:
320,192,83733,1,0,0:0:0:0:
192,192,83733,1,0,0:0:0:0:
64,192,83787,1,0,0:0:0:0:
448,192,83840,1,0,0:0:0:0:
320,192,83894,1,0,0:0:0:0:
192,192,83947,1,0,0:0:0:0:
64,192,84001,1,0,0:0:0:0:
320,192,84054,1,0,0:0:0:0:
192,192,84108,1,0,0:0:0:0:
64,192,84162,1,0,0:0:0:0:
448,192,84162,1,0,0:0:0:0:
320,192,84215,1,0,0:0:0:0:
64,192,84269,1,0,0:0:0:0:
192,192,84322,1,0,0:0:0:0:
448,192,84376,1,0,0:0:0:0:
320,192,84429,1,0,0:0:0:0:
192,192,84483,1,0,0:0:0:0:
64,192,84537,1,0,0:0:0:0:
448,192,84590,1,0,0:0:0:0:
320,192,84590,1,0,0:0:0:0:
192,192,84644,1,0,0:0:0:0:
64,192,84697,1,0,0:0:0:0:
448,192,84751,1,0,0:0:0:0:
320,192,84804,1,0,0:0:0:0:
64,192,84858,1,0,0:0:0:0:
192,192,84912,1,0,0:0:0:0:
320,192,84965,1,0,0:0:0:0:
448,192,85019,1,0,0:0:0:0:
64,192,85019,1,0,0:0:0:0:
192,192,85072,1,0,0:0:0:0:
320,192,85126,1,0,0:0:0:0:
448,192,85179,1,0,0:0:0:0:
64,192,85233,1,0,0:0:0:0:
192,192,85233,1,0,0:0:0:0:
320,192,85287,1,0,0:0:0:0:
448,192,85340,1,0,0:0:0:0:
64,192,85394,1,0,0:0:0:0:
192,192,85447,128,0,85554:0:0:0:0:
320,192,85554,128,0,85662:0:0:0:0:
448,192,85662,128,0,85876:0:0:0:0:
64,192,85662,1,0,0:0:0:0:
192,192,85769,1,0,0:0:0:0:
320,192,85876,1,0,0:0:0:0:
64,192,85876,1,0,0:0:0:0:
192,192,85929,1,0,0:0:0:0:
320,192,85983,1,0,0:0:0:0:
448,192,86037,1,0,0:0:0:0:
64,192,86090,1,0,0:0:0:0:
192,192,86144,1,0,0:0:0:0:
320,192,86197,1,0,0:0:0:0:
448,192,86251,1,0,0:0:0:0:
192,192,86304,1,0,0:0:0:0:
320,192,86358,1,0,0:0:0:0:
64,192,86412,1,0,0:0:0:0:
192,192,86465,1,0,0:0:0:0:
448,192,86519,1,0,0:0:0:0:
320,192,86572,1,0,0:0:0:0:
192,192,86626,1,0,0:0:0:0:
64,192,86679,1,0,0:0:0:0:
448,192,86733,1,0,0:0:0:0:
320,192,86733,1,0,0:0:0:0:
192,192,86787,1,0,0:0:0:0:
64,192,86840,1,0,0:0:0:0:
448,192,86894,1,0,0:0:0:0:
320,192,86947,1,0,0:0:0:0:
192,192,86947,1,0,0:0:0:0:
64,192,87001,1,0,0:0:0:0:
192,192,87054,1,0,0:0:0:0:
320,192,87108,1,0,0:0:0:0:
448,192,87162,1,0,0:0:0:0:
64,192,87162,1,0,0:0:0:0:
192,192,87215,1,0,0:0:0:0:
320,192,87269,1,0,0:0:0:0:
448,192,87322,1,0,0:0:0:0:
64,192,87376,128,0,87590:0:0:0:0:
192,192,87376,1,0,0:0:0:0:
320,192,87429,1,0,0:0:0:0:
448,192,87483,1,0,0:0:0:0:
192,192,87537,1,0,0:0:0:0:
320,192,87590,1,0,0:0:0:0:
448,192,87644,1,0,0:0:0:0:
192,192,87697,1,0,0:0:0:0:
320,192,87751,1,0,0:0:0:0:
64,192,87804,128,0,88019:0:0:0:0:
448,192,87804,1,0,0:0:0:0:
192,192,87858,1,0,0:0:0:0:
320,192,87912,1,0,0:0:0:0:
448,192,87965,1,0,0:0:0:0:
192,192,88019,1,0,0:0:0:0:
320,192,88072,1,0,0:0:0:0:
448,192,88126,1,0,0:0:0:0:
64,192,88179,1,0,0:0:0:0:
192,192,88233,1,0,0:0:0:0:
320,192,88287,1,0,0:0:0:0:
448,192,88340,1,0,0:0:0:0:
64,192,88394,1,0,0:0:0:0:
192,192,88447,1,0,0:0:0:0:
320,192,88447,1,0,0:0:0:0:
448,192,88501,1,0,0:0:0:0:
64,192,88554,1,0,0:0:0:0:
192,192,88608,1,0,0:0:0:0:
448,192,88662,1,0,0:0:0:0:
320,192,88715,1,0,0:0:0:0:
192,192,88769,1,0,0:0:0:0:
64,192,88822,1,0,0:0:0:0:
448,192,88876,128,0,89090:0:0:0:0:
320,192,88876,1,0,0:0:0:0:
192,192,88929,1,0,0:0:0:0:
64,192,88983,1,0,0:0:0:0:
320,192,89037,1,0,0:0:0:0:
192,192,89090,128,0,89304:0:0:0:0:
64,192,89144,1,0,0:0:0:0:
320,192,89197,1,0,0:0:0:0:
448,192,89251,1,0,0:0:0:0:
64,192,89304,1,0,0:0:0:0:
320,192,89358,1,0,0:0:0:0:
448,192,89412,1,0,0:0:0:0:
64,192,89465,1,0,0:0:0:0:
192,192,89519,1,0,0:0:0:0:
320,192,89572,1,0,0:0:0:0:
448,192,89626,1,0,0:0:0:0:
192,192,89679,1,0,0:0:0:0:
320,192,89733,1,0,0:0:0:0:
64,192,89787,1,0,0:0:0:0:
192,192,89840,1,0,0:0:0:0:
320,192,89894,1,0,0:0:0:0:
64,192,89947,1,0,0:0:0:0:
448,192,89947,1,0,0:0:0:0:
192,192,90001,1,0,0:0:0:0:
320,192,90054,1,0,0:0:0:0:
448,192,90108,1,0,0:0:0:0:
192,192,90162,1,0,0:0:0:0:
64,192,90162,1,0,0:0:0:0:
320,192,90215,1,0,0:0:0:0:
448,192,90269,1,0,0:0:0:0:
64,192,90322,1,0,0:0:0:0:
320,192,90376,1,0,0:0:0:0:
192,192,90429,1,0,0:0:0:0:
64,192,90483,1,0,0:0:0:0:
448,192,90537,1,0,0:0:0:0:
192,192,90590,1,0,0:0:0:0:
320,192,90644,1,0,0:0:0:0:
64,192,90697,1,0,0:0:0:0:
192,192,90751,1,0,0:0:0:0:
320,192,90804,1,0,0:0:0:0:
448,192,90858,1,0,0:0:0:0:
64,192,90912,1,0,0:0:0:0:
192,192,90965,1,0,0:0:0:0:
448,192,91019,1,0,0:0:0:0:
320,192,91072,1,0,0:0:0:0:
192,192,91126,1,0,0:0:0:0:
64,192,91179,1,0,0:0:0:0:
448,192,91233,1,0,0:0:0:0:
320,192,91233,1,0,0:0:0:0:
192,192,91287,1,0,0:0:0:0:
64,192,91340,1,0,0:0:0:0:
448,192,91394,1,0,0:0:0:0:
320,192,91447,1,0,0:0:0:0:
192,192,91447,1,0,0:0:0:0:
64,192,91501,1,0,0:0:0:0:
448,192,91554,1,0,0:0:0:0:
320,192,91608,1,0,0:0:0:0:
64,192,91662,1,0,0:0:0:0:
192,192,91715,1,0,0:0:0:0:
320,192,91769,1,0,0:0:0:0:
448,192,91822,1,0,0:0:0:0:
64,192,91876,1,0,0:0:0:0:
192,192,91876,1,0,0:0:0:0:
320,192,91929,1,0,0:0:0:0:
448,192,91983,1,0,0:0:0:0:
192,192,92037,1,0,0:0:0:0:
320,192,92090,1,0,0:0:0:0:
448,192,92144,1,0,0:0:0:0:
64,192,92197,1,0,0:0:0:0:
192,192,92251,1,0,0:0:0:0:
320,192,92304,128,0,92519:0:0:0:0:
448,192,92358,1,0,0:0:0:0:
64,192,92412,1,0,0:0:0:0:
192,192,92465,1,0,0:0:0:0:
64,192,92519,128,0,92733:0:0:0:0:
448,192,92572,1,0,0:0:0:0:
192,192,92626,1,0,0:0:0:0:
320,192,92679,1,0,0:0:0:0:
448,192,92733,1,0,0:0:0:0:
192,192,92787,1,0,0:0:0:0:
320,192,92840,1,0,0:0:0:0:
448,192,92894,1,0,0:0:0:0:
64,192,92947,1,0,0:0:0:0:
192,192,93001,1,0,0:0:0:0:
320,192,93054,1,0,0:0:0:0:
448,192,93108,1,0,0:0:0:0:
64,192,93162,1,0,0:0:0:0:
192,192,93162,1,0,0:0:0:0:
320,192,93215,1,0,0:0:0:0:
448,192,93269,1,0,0:0:0:0:
64,192,93322,1,0,0:0:0:0:
192,192,93376,1,0,0:0:0:0:
320,192,93376,1,0,0:0:0:0:
448,192,93429,1,0,0:0:0:0:
64,192,93483,1,0,0:0:0:0:
192,192,93537,1,0,0:0:0:0:
448,192,93590,1,0,0:0:0:0:
320,192,93590,1,0,0:0:0:0:
64,192,93644,1,0,0:0:0:0:
192,192,93697,1,0,0:0:0:0:
448,192,93751,1,0,0:0:0:0:
320,192,93804,1,0,0:0:0:0:
192,192,93858,1,0,0:0:0:0:
64,192,93912,1,0,0:0:0:0:
448,192,93965,1,0,0:0:0:0:
320,192,94019,1,0,0:0:0:0:
192,192,94019,1,0,0:0:0:0:
64,192,94072,1,0,0:0:0:0:
448,192,94126,1,0,0:0:0:0:
320,192,94179,1,0,0:0:0:0:
64,192,94233,128,0,94447:0:0:0:0:
192,192,94233,1,0,0:0:0:0:
448,192,94287,1,0,0:0:0:0:
320,192,94340,1,0,0:0:0:0:
192,192,94394,1,0,0:0:0:0:
448,192,94447,1,0,0:0:0:0:
320,192,94501,1,0,0:0:0:0:
192,192,94554,1,0,0:0:0:0:
448,192,94608,1,0,0:0:0:0:
64,192,94662,128,0,94876:0:0:0:0:
320,192,94662,1,0,0:0:0:0:
192,192,94715,1,0,0:0:0:0:
448,192,94769,1,0,0:0:0:0:
320,192,94822,1,0,0:0:0:0:
192,192,94876,1,0,0:0:0:0:
448,192,94929,1,0,0:0:0:0:
320,192,94983,1,0,0:0:0:0:
192,192,95037,1,0,0:0:0:0:
64,192,95090,128,0,95304:0:0:0:0:
448,192,95090,1,0,0:0:0:0:
320,192,95144,1,0,0:0:0:0:
192,192,95197,1,0,0:0:0:0:
448,192,95304,128,0,95519:0:0:0:0:
192,192,95304,1,0,0:0:0:0:
320,192,95304,1,0,0:0:0:0:
192,192,95519,1,0,0:0:0:0:
320,192,95519,1,0,0:0:0:0:
64,192,95519,1,0,0:0:0:0:
192,192,95733,128,0,95840:0:0:0:0:
320,192,95733,128,0,95840:0:0:0:0:
64,192,95733,1,0,0:0:0:0:
448,192,95733,1,0,0:0:0:0:
192,192,95947,128,0,96054:0:0:0:0:
320,192,95947,128,0,96054:0:0:0:0:
64,192,95947,1,0,0:0:0:0:
448,192,95947,1,0,0:0:0:0:
64,192,96162,128,0,96269:0:0:0:0:
192,192,96162,1,0,0:0:0:0:
320,192,96215,1,0,0:0:0:0:
448,192,96269,1,0,0:0:0:0:
64,192,96322,1,0,0:0:0:0:
192,192,96376,1,0,0:0:0:0:
320,192,96429,1,0,0:0:0:0:
448,192,96483,1,0,0:0:0:0:
64,192,96537,1,0,0:0:0:0:
192,192,96590,1,0,0:0:0:0:
320,192,96590,1,0,0:0:0:0:
448,192,96644,1,0,0:0:0:0:
64,192,96697,1,0,0:0:0:0:
192,192,96751,1,0,0:0:0:0:
320,192,96804,1,0,0:0:0:0:
448,192,96804,1,0,0:0:0:0:
64,192,96858,1,0,0:0:0:0:
192,192,96912,1,0,0:0:0:0:
320,192,96965,1,0,0:0:0:0:
448,192,97019,1,0,0:0:0:0:
64,192,97019,1,0,0:0:0:0:
192,192,97072,1,0,0:0:0:0:
320,192,97126,1,0,0:0:0:0:
448,192,97179,1,0,0:0:0:0:
64,192,97233,1,0,0:0:0:0:
192,192,97287,1,0,0:0:0:0:
448,192,97340,1,0,0:0:0:0:
320,192,97394,1,0,0:0:0:0:
64,192,97447,1,0,0:0:0:0:
192,192,97447,1,0,0:0:0:0:
448,192,97501,1,0,0:0:0:0:
320,192,97554,1,0,0:0:0:0:
192,192,97608,1,0,0:0:0:0:
64,192,97662,1,0,0:0:0:0:
448,192,97715,1,0,0:0:0:0:
320,192,97769,1,0,0:0:0:0:
192,192,97822,1,0,0:0:0:0:
448,192,97876,1,0,0:0:0:0:
320,192,97929,1,0,0:0:0:0:
192,192,97983,1,0,0:0:0:0:
64,192,98037,1,0,0:0:0:0:
448,192,98090,1,0,0:0:0:0:
320,192,98090,1,0,0:0:0:0:
192,192,98144,1,0,0:0:0:0:
64,192,98197,1,0,0:0:0:0:
320,192,98251,1,0,0:0:0:0:
192,192,98304,1,0,0:0:0:0:
64,192,98358,1,0,0:0:0:0:
448,192,98412,1,0,0:0:0:0:
320,192,98465,1,0,0:0:0:0:
64,192,98519,1,0,0:0:0:0:
192,192,98572,1,0,0:0:0:0:
320,192,98626,1,0,0:0:0:0:
448,192,98679,1,0,0:0:0:0:
192,192,98733,1,0,0:0:0:0:
64,192,98733,1,0,0:0:0:0:
320,192,98787,1,0,0:0:0:0:
448,192,98840,1,0,0:0:0:0:
64,192,98894,1,0,0:0:0:0:
192,192,98947,1,0,0:0:0:0:
320,192,99001,1,0,0:0:0:0:
448,192,99054,1,0,0:0:0:0:
64,192,99108,1,0,0:0:0:0:
192,192,99162,128,0,99269:0:0:0:0:
320,192,99269,128,0,99376:0:0:0:0:
448,192,99376,128,0,99590:0:0:0:0:
64,192,99376,1,0,0:0:0:0:
192,192,99483,1,0,0:0:0:0:
320,192,99590,1,0,0:0:0:0:
64,192,99644,1,0,0:0:0:0:
192,192,99697,1,0,0:0:0:0:
448,192,99751,1,0,0:0:0:0:
320,192,99804,1,0,0:0:0:0:
192,192,99858,1,0,0:0:0:0:
64,192,99912,1,0,0:0:0:0:
448,192,99965,1,0,0:0:0:0:
320,192,100019,1,0,0:0:0:0:
192,192,100019,1,0,0:0:0:0:
64,192,100072,1,0,0:0:0:0:
448,192,100126,1,0,0:0:0:0:
320,192,100179,1,0,0:0:0:0:
64,192,100233,1,0,0:0:0:0:
192,192,100287,1,0,0:0:0:0:
320,192,100340,1,0,0:0:0:0:
448,192,100394,1,0,0:0:0:0:
64,192,100447,1,0,0:0:0:0:
192,192,100447,1,0,0:0:0:0:
320,192,100501,1,0,0:0:0:0:
64,192,100554,1,0,0:0:0:0:
192,192,100608,1,0,0:0:0:0:
448,192,100662,1,0,0:0:0:0:
320,192,100715,1,0,0:0:0:0:
192,192,100769,1,0,0:0:0:0:
64,192,100822,1,0,0:0:0:0:
448,192,100876,1,0,0:0:0:0:
320,192,100876,1,0,0:0:0:0:
192,192,100929,1,0,0:0:0:0:
64,192,100983,1,0,0:0:0:0:
448,192,101037,1,0,0:0:0:0:
64,192,101090,128,0,101304:0:0:0:0:
320,192,101090,1,0,0:0:0:0:
192,192,101144,1,0,0:0:0:0:
448,192,101197,1,0,0:0:0:0:
320,192,101251,1,0,0:0:0:0:
192,192,101304,1,0,0:0:0:0:
448,192,101358,1,0,0:0:0:0:
320,192,101412,1,0,0:0:0:0:
192,192,101465,1,0,0:0:0:0:
64,192,101519,128,0,101733:0:0:0:0:
448,192,101519,1,0,0:0:0:0:
320,192,101572,1,0,0:0:0:0:
192,192,101626,1,0,0:0:0:0:
448,192,101679,1,0,0:0:0:0:
320,192,101733,1,0,0:0:0:0:
192,192,101787,1,0,0:0:0:0:
64,192,101840,1,0,0:0:0:0:
448,192,101894,1,0,0:0:0:0:
320,192,101947,1,0,0:0:0:0:
64,192,102001,1,0,0:0:0:0:
192,192,102054,1,0,0:0:0:0:
320,192,102108,1,0,0:0:0:0:
448,192,102162,1,0,0:0:0:0:
64,192,102162,1,0,0:0:0:0:
192,192,102215,1,0,0:0:0:0:
320,192,102269,1,0,0:0:0:0:
448,192,102322,1,0,0:0:0:0:
64,192,102376,1,0,0:0:0:0:
192,192,102429,1,0,0:0:0:0:
320,192,102483,1,0,0:0:0:0:
448,192,102537,1,0,0:0:0:0:
320,192,102590,128,0,102804:0:0:0:0:
192,192,102644,1,0,0:0:0:0:
64,192,102697,1,0,0:0:0:0:
448,192,102751,1,0,0:0:0:0:
64,192,102804,128,0,103019:0:0:0:0:
192,192,102858,1,0,0:0:0:0:
448,192,102912,1,0,0:0:0:0:
320,192,102965,1,0,0:0:0:0:
448,192,103019,128,0,103126:0:0:0:0:
192,192,103019,1,0,0:0:0:0:
64,192,103126,1,0,0:0:0:0:
448,192,103233,128,0,103340:0:0:0:0:
320,192,103233,1,0,0:0:0:0:
192,192,103340,1,0,0:0:0:0:
64,192,103447,1,0,0:0:0:0:
448,192,103447,1,0,0:0:0:0:
320,192,103554,1,0,0:0:0:0:
192,192,103662,1,0,0:0:0:0:
64,192,103769,1,0,0:0:0:0:
448,192,103876,128,0,103983:0:0:0:0:
320,192,103876,1,0,0:0:0:0:
192,192,103983,1,0,0:0:0:0:
448,192,104090,128,0,104197:0:0:0:0:
320,192,104090,1,0,0:0:0:0:
192,192,104144,1,0,0:0:0:0:
64,192,104197,1,0,0:0:0:0:
320,192,104251,1,0,0:0:0:0:
448,192,104304,1,0,0:0:0:0:
192,192,104304,1,0,0:0:0:0:
320,192,104412,1,0,0:0:0:0:
192,192,104519,1,0,0:0:0:0:
64,192,104626,1,0,0:0:0:0:
64,192,104733,128,0,104840:0:0:0:0:
192,192,104733,1,0,0:0:0:0:
320,192,104840,1,0,0:0:0:0:
64,192,104947,128,0,105054:0:0:0:0:
448,192,104947,1,0,0:0:0:0:
320,192,105054,1,0,0:0:0:0:
64,192,105162,1,0,0:0:0:0:
192,192,105162,1,0,0:0:0:0:
320,192,105269,1,0,0:0:0:0:
448,192,105376,1,0,0:0:0:0:
320,192,105483,1,0,0:0:0:0:
64,192,105590,128,0,105697:0:0:0:0:
192,192,105590,1,0,0:0:0:0:
448,192,105590,1,0,0:0:0:0:
320,192,105697,1,0,0:0:0:0:
64,192,105804,128,0,105912:0:0:0:0:
192,192,105804,1,0,0:0:0:0:
320,192,105858,1,0,0:0:0:0:
448,192,105912,1,0,0:0:0:0:
192,192,105965,1,0,0:0:0:0:
320,192,106019,1,0,0:0:0:0:
448,192,106126,1,0,0:0:0:0:
320,192,106233,1,0,0:0:0:0:
192,192,106340,1,0,0:0:0:0:
64,192,106447,128,0,107197:0:0:0:0:
64,192,107304,128,0,107626:0:0:0:0:
64,192,107733,128,0,108162:0:0:0:0:
448,192,108162,128,0,108804:0:0:0:0:
320,192,108804,128,0,109233:0:0:0:0:
192,192,109233,128,0,109447:0:0:0:0:
64,192,109447,128,0,109876:0:0:0:0:
192,192,109876,128,0,110519:0:0:0:0:
448,192,109876,128,0,110519:0:0:0:0:
320,192,110519,1,0,0:0:0:0:
64,192,110733,1,0,0:0:0:0:
320,192,110733,1,0,0:0:0:0:
448,192,192804,5,0,0:0:0:0:
192,192,192804,1,0,0:0:0:0:
320,192,192858,1,0,0:0:0:0:
64,192,192912,1,0,0:0:0:0:
192,192,192965,1,0,0:0:0:0:
448,192,193019,1,0,0:0:0:0:
320,192,193019,1,0,0:0:0:0:
64,192,193072,1,0,0:0:0:0:
192,192,193126,1,0,0:0:0:0:
320,192,193179,1,0,0:0:0:0:
448,192,193233,1,0,0:0:0:0:
64,192,193233,1,0,0:0:0:0:
192,192,193287,1,0,0:0:0:0:
320,192,193340,1,0,0:0:0:0:
448,192,193394,1,0,0:0:0:0:
192,192,193447,1,0,0:0:0:0:
64,192,193447,1,0,0:0:0:0:
320,192,193501,1,0,0:0:0:0:
448,192,193554,1,0,0:0:0:0:
64,192,193608,1,0,0:0:0:0:
192,192,193662,1,0,0:0:0:0:
320,192,193662,1,0,0:0:0:0:
448,192,193715,1,0,0:0:0:0:
320,192,193769,1,0,0:0:0:0:
192,192,193822,1,0,0:0:0:0:
64,192,193876,1,0,0:0:0:0:
448,192,193876,1,0,0:0:0:0:
320,192,193929,1,0,0:0:0:0:
64,192,193983,1,0,0:0:0:0:
192,192,194037,1,0,0:0:0:0:
448,192,194090,1,0,0:0:0:0:
320,192,194144,1,0,0:0:0:0:
192,192,194197,1,0,0:0:0:0:
64,192,194251,1,0,0:0:0:0:
320,192,194304,1,0,0:0:0:0:
448,192,194304,1,0,0:0:0:0:
192,192,194358,1,0,0:0:0:0:
64,192,194412,1,0,0:0:0:0:
448,192,194465,1,0,0:0:0:0:
320,192,194519,1,0,0:0:0:0:
64,192,194572,1,0,0:0:0:0:
192,192,194626,1,0,0:0:0:0:
320,192,194679,1,0,0:0:0:0:
64,192,194733,1,0,0:0:0:0:
448,192,194733,1,0,0:0:0:0:
192,192,194787,1,0,0:0:0:0:
320,192,194840,1,0,0:0:0:0:
448,192,194894,1,0,0:0:0:0:
64,192,194947,1,0,0:0:0:0:
192,192,194947,1,0,0:0:0:0:
320,192,195001,1,0,0:0:0:0:
448,192,195054,1,0,0:0:0:0:
64,192,195108,1,0,0:0:0:0:
320,192,195162,128,0,195269:0:0:0:0:
192,192,195269,128,0,195376:0:0:0:0:
64,192,195376,128,0,195590:0:0:0:0:
448,192,195376,1,0,0:0:0:0:
320,192,195483,1,0,0:0:0:0:
192,192,195590,1,0,0:0:0:0:
448,192,195590,1,0,0:0:0:0:
320,192,195644,1,0,0:0:0:0:
192,192,195697,1,0,0:0:0:0:
64,192,195751,1,0,0:0:0:0:
448,192,195804,1,0,0:0:0:0:
320,192,195858,1,0,0:0:0:0:
192,192,195912,1,0,0:0:0:0:
64,192,195965,1,0,0:0:0:0:
320,192,196019,1,0,0:0:0:0:
192,192,196072,1,0,0:0:0:0:
448,192,196126,1,0,0:0:0:0:
320,192,196179,1,0,0:0:0:0:
64,192,196233,1,0,0:0:0:0:
192,192,196287,1,0,0:0:0:0:
320,192,196340,1,0,0:0:0:0:
448,192,196394,1,0,0:0:0:0:
64,192,196447,1,0,0:0:0:0:
192,192,196447,1,0,0:0:0:0:
320,192,196501,1,0,0:0:0:0:
448,192,196554,1,0,0:0:0:0:
64,192,196608,1,0,0:0:0:0:
192,192,196662,1,0,0:0:0:0:
320,192,196662,1,0,0:0:0:0:
448,192,196715,1,0,0:0:0:0:
320,192,196769,1,0,0:0:0:0:
192,192,196822,1,0,0:0:0:0:
64,192,196876,1,0,0:0:0:0:
448,192,196876,1,0,0:0:0:0:
320,192,196929,1,0,0:0:0:0:
192,192,196983,1,0,0:0:0:0:
64,192,197037,1,0,0:0:0:0:
448,192,197090,128,0,197304:0:0:0:0:
320,192,197090,1,0,0:0:0:0:
192,192,197144,1,0,0:0:0:0:
64,192,197197,1,0,0:0:0:0:
320,192,197251,1,0,0:0:0:0:
192,192,197304,1,0,0:0:0:0:
64,192,197358,1,0,0:0:0:0:
320,192,197412,1,0,0:0:0:0:
192,192,197465,1,0,0:0:0:0:
448,192,197519,128,0,197733:0:0:0:0:
64,192,197519,1,0,0:0:0:0:
320,192,197572,1,0,0:0:0:0:
192,192,197626,1,0,0:0:0:0:
64,192,197679,1,0,0:0:0:0:
320,192,197733,1,0,0:0:0:0:
192,192,197787,1,0,0:0:0:0:
64,192,197840,1,0,0:0:0:0:
448,192,197894,1,0,0:0:0:0:
320,192,197947,1,0,0:0:0:0:
192,192,198001,1,0,0:0:0:0:
64,192,198054,1,0,0:0:0:0:
448,192,198108,1,0,0:0:0:0:
320,192,198162,1,0,0:0:0:0:
192,192,198162,1,0,0:0:0:0:
64,192,198215,1,0,0:0:0:0:
448,192,198269,1,0,0:0:0:0:
320,192,198322,1,0,0:0:0:0:
64,192,198376,1,0,0:0:0:0:
192,192,198429,1,0,0:0:0:0:
320,192,198483,1,0,0:0:0:0:
448,192,198537,1,0,0:0:0:0:
64,192,198590,128,0,198804:0:0:0:0:
192,192,198590,1,0,0:0:0:0:
320,192,198644,1,0,0:0:0:0:
448,192,198697,1,0,0:0:0:0:
192,192,198751,1,0,0:0:0:0:
320,192,198804,128,0,199019:0:0:0:0:
448,192,198858,1,0,0:0:0:0:
192,192,198912,1,0,0:0:0:0:
64,192,198965,1,0,0:0:0:0:
448,192,199019,1,0,0:0:0:0:
192,192,199072,1,0,0:0:0:0:
64,192,199126,1,0,0:0:0:0:
448,192,199179,1,0,0:0:0:0:
320,192,199233,1,0,0:0:0:0:
192,192,199287,1,0,0:0:0:0:
64,192,199340,1,0,0:0:0:0:
320,192,199394,1,0,0:0:0:0:
192,192,199447,1,0,0:0:0:0:
448,192,199501,1,0,0:0:0:0:
320,192,199554,1,0,0:0:0:0:
192,192,199608,1,0,0:0:0:0:
448,192,199662,1,0,0:0:0:0:
64,192,199662,1,0,0:0:0:0:
320,192,199715,1,0,0:0:0:0:
192,192,199769,1,0,0:0:0:0:
64,192,199822,1,0,0:0:0:0:
320,192,199876,1,0,0:0:0:0:
448,192,199876,1,0,0:0:0:0:
192,192,199929,1,0,0:0:0:0:
64,192,199983,1,0,0:0:0:0:
448,192,200037,1,0,0:0:0:0:
192,192,200090,1,0,0:0:0:0:
320,192,200144,1,0,0:0:0:0:
448,192,200197,1,0,0:0:0:0:
64,192,200251,1,0,0:0:0:0:
320,192,200304,1,0,0:0:0:0:
192,192,200358,1,0,0:0:0:0:
448,192,200412,1,0,0:0:0:0:
320,192,200465,1,0,0:0:0:0:
192,192,200519,1,0,0:0:0:0:
64,192,200572,1,0,0:0:0:0:
448,192,200626,1,0,0:0:0:0:
320,192,200679,1,0,0:0:0:0:
64,192,200733,1,0,0:0:0:0:
192,192,200787,1,0,0:0:0:0:
320,192,200840,1,0,0:0:0:0:
448,192,200894,1,0,0:0:0:0:
64,192,200947,1,0,0:0:0:0:
192,192,200947,1,0,0:0:0:0:
320,192,201001,1,0,0:0:0:0:
448,192,201054,1,0,0:0:0:0:
64,192,201108,1,0,0:0:0:0:
192,192,201162,1,0,0:0:0:0:
320,192,201162,1,0,0:0:0:0:
448,192,201215,1,0,0:0:0:0:
64,192,201269,1,0,0:0:0:0:
192,192,201322,1,0,0:0:0:0:
448,192,201376,1,0,0:0:0:0:
320,192,201429,1,0,0:0:0:0:
192,192,201483,1,0,0:0:0:0:
64,192,201537,1,0,0:0:0:0:
448,192,201590,1,0,0:0:0:0:
320,192,201590,1,0,0:0:0:0:
192,192,201644,1,0,0:0:0:0:
64,192,201697,1,0,0:0:0:0:
320,192,201751,1,0,0:0:0:0:
192,192,201804,1,0,0:0:0:0:
64,192,201858,1,0,0:0:0:0:
448,192,201912,1,0,0:0:0:0:
320,192,201965,1,0,0:0:0:0:
192,192,202019,128,0,202233:0:0:0:0:
64,192,202072,1,0,0:0:0:0:
448,192,202126,1,0,0:0:0:0:
320,192,202179,1,0,0:0:0:0:
448,192,202233,128,0,202447:0:0:0:0:
64,192,202287,1,0,0:0:0:0:
320,192,202340,1,0,0:0:0:0:
192,192,202394,1,0,0:0:0:0:
64,192,202447,1,0,0:0:0:0:
320,192,202501,1,0,0:0:0:0:
192,192,202554,1,0,0:0:0:0:
64,192,202608,1,0,0:0:0:0:
448,192,202662,1,0,0:0:0:0:
320,192,202715,1,0,0:0:0:0:
192,192,202769,1,0,0:0:0:0:
64,192,202822,1,0,0:0:0:0:
448,192,202876,1,0,0:0:0:0:
320,192,202876,1,0,0:0:0:0:
192,192,202929,1,0,0:0:0:0:
64,192,202983,1,0,0:0:0:0:
448,192,203037,1,0,0:0:0:0:
320,192,203090,1,0,0:0:0:0:
192,192,203090,1,0,0:0:0:0:
64,192,203144,1,0,0:0:0:0:
448,192,203197,1,0,0:0:0:0:
320,192,203251,1,0,0:0:0:0:
64,192,203304,1,0,0:0:0:0:
192,192,203304,1,0,0:0:0:0:
448,192,203358,1,0,0:0:0:0:
320,192,203412,1,0,0:0:0:0:
64,192,203465,1,0,0:0:0:0:
192,192,203519,1,0,0:0:0:0:
320,192,203572,1,0,0:0:0:0:
448,192,203626,1,0,0:0:0:0:
64,192,203679,1,0,0:0:0:0:
192,192,203733,1,0,0:0:0:0:
320,192,203733,1,0,0:0:0:0:
448,192,203787,1,0,0:0:0:0:
64,192,203840,1,0,0:0:0:0:
192,192,203894,1,0,0:0:0:0:
448,192,203947,128,0,204162:0:0:0:0:
320,192,203947,1,0,0:0:0:0:
64,192,204001,1,0,0:0:0:0:
192,192,204054,1,0,0:0:0:0:
320,192,204108,1,0,0:0:0:0:
64,192,204162,1,0,0:0:0:0:
192,192,204215,1,0,0:0:0:0:
320,192,204269,1,0,0:0:0:0:
64,192,204322,1,0,0:0:0:0:
448,192,204376,128,0,204590:0:0:0:0:
192,192,204376,1,0,0:0:0:0:
320,192,204429,1,0,0:0:0:0:
64,192,204483,1,0,0:0:0:0:
192,192,204537,1,0,0:0:0:0:
320,192,204590,1,0,0:0:0:0:
64,192,204644,1,0,0:0:0:0:
192,192,204697,1,0,0:0:0:0:
320,192,204751,1,0,0:0:0:0:
448,192,204804,128,0,205019:0:0:0:0:
64,192,204804,1,0,0:0:0:0:
192,192,204858,1,0,0:0:0:0:
320,192,204912,1,0,0:0:0:0:
64,192,205019,128,0,205233:0:0:0:0:
320,192,205019,1,0,0:0:0:0:
192,192,205019,1,0,0:0:0:0:
320,192,205233,1,0,0:0:0:0:
192,192,205233,1,0,0:0:0:0:
448,192,205233,1,0,0:0:0:0:
320,192,205447,128,0,205554:0:0:0:0:
192,192,205447,128,0,205554:0:0:0:0:
448,192,205447,1,0,0:0:0:0:
64,192,205447,1,0,0:0:0:0:
320,192,205662,128,0,205769:0:0:0:0:
192,192,205662,128,0,205769:0:0:0:0:
448,192,205662,1,0,0:0:0:0:
64,192,205662,1,0,0:0:0:0:
448,192,205876,128,0,205983:0:0:0:0:
320,192,205876,1,0,0:0:0:0:
192,192,205929,1,0,0:0:0:0:
64,192,205983,1,0,0:0:0:0:
448,192,206037,1,0,0:0:0:0:
320,192,206090,1,0,0:0:0:0:
192,192,206144,1,0,0:0:0:0:
64,192,206197,1,0,0:0:0:0:
448,192,206251,1,0,0:0:0:0:
320,192,206304,1,0,0:0:0:0:
192,192,206304,1,0,0:0:0:0:
64,192,206358,1,0,0:0:0:0:
448,192,206412,1,0,0:0:0:0:
320,192,206465,1,0,0:0:0:0:
192,192,206519,1,0,0:0:0:0:
64,192,206519,1,0,0:0:0:0:
448,192,206572,1,0,0:0:0:0:
320,192,206626,1,0,0:0:0:0:
192,192,206679,1,0,0:0:0:0:
64,192,206733,1,0,0:0:0:0:
448,192,206733,1,0,0:0:0:0:
320,192,206787,1,0,0:0:0:0:
192,192,206840,1,0,0:0:0:0:
64,192,206894,1,0,0:0:0:0:
448,192,206947,1,0,0:0:0:0:
320,192,207001,1,0,0:0:0:0:
64,192,207054,1,0,0:0:0:0:
192,192,207108,1,0,0:0:0:0:
448,192,207162,1,0,0:0:0:0:
320,192,207162,1,0,0:0:0:0:
64,192,207215,1,0,0:0:0:0:
192,192,207269,1,0,0:0:0:0:
320,192,207322,1,0,0:0:0:0:
448,192,207376,1,0,0:0:0:0:
64,192,207429,1,0,0:0:0:0:
192,192,207483,1,0,0:0:0:0:
320,192,207537,1,0,0:0:0:0:
64,192,207590,1,0,0:0:0:0:
192,192,207644,1,0,0:0:0:0:
320,192,207697,1,0,0:0:0:0:
448,192,207751,1,0,0:0:0:0:
64,192,207804,1,0,0:0:0:0:
192,192,207804,1,0,0:0:0:0:
320,192,207858,1,0,0:0:0:0:
448,192,207912,1,0,0:0:0:0:
192,192,207965,1,0,0:0:0:0:
320,192,208019,1,0,0:0:0:0:
448,192,208072,1,0,0:0:0:0:
64,192,208126,1,0,0:0:0:0:
192,192,208179,1,0,0:0:0:0:
448,192,208233,1,0,0:0:0:0:
320,192,208287,1,0,0:0:0:0:
192,192,208340,1,0,0:0:0:0:
64,192,208394,1,0,0:0:0:0:
320,192,208447,1,0,0:0:0:0:
448,192,208447,1,0,0:0:0:0:
192,192,208501,1,0,0:0:0:0:
64,192,208554,1,0,0:0:0:0:
448,192,208608,1,0,0:0:0:0:
320,192,208662,1,0,0:0:0:0:
192,192,208715,1,0,0:0:0:0:
64,192,208769,1,0,0:0:0:0:
448,192,208822,1,0,0:0:0:0:
320,192,208876,128,0,208983:0:0:0:0:
192,192,208983,128,0,209090:0:0:0:0:
64,192,209090,128,0,209304:0:0:0:0:
448,192,209090,1,0,0:0:0:0:
320,192,209197,1,0,0:0:0:0:
192,192,209304,1,0,0:0:0:0:
448,192,209358,1,0,0:0:0:0:
320,192,209412,1,0,0:0:0:0:
64,192,209465,1,0,0:0:0:0:
192,192,209519,1,0,0:0:0:0:
320,192,209572,1,0,0:0:0:0:
448,192,209626,1,0,0:0:0:0:
64,192,209679,1,0,0:0:0:0:
192,192,209733,1,0,0:0:0:0:
320,192,209733,1,0,0:0:0:0:
448,192,209787,1,0,0:0:0:0:
64,192,209840,1,0,0:0:0:0:
192,192,209894,1,0,0:0:0:0:
448,192,209947,1,0,0:0:0:0:
320,192,210001,1,0,0:0:0:0:
192,192,210054,1,0,0:0:0:0:
64,192,210108,1,0,0:0:0:0:
448,192,210162,1,0,0:0:0:0:
320,192,210162,1,0,0:0:0:0:
192,192,210215,1,0,0:0:0:0:
448,192,210269,1,0,0:0:0:0:
320,192,210322,1,0,0:0:0:0:
64,192,210376,1,0,0:0:0:0:
192,192,210429,1,0,0:0:0:0:
320,192,210483,1,0,0:0:0:0:
448,192,210537,1,0,0:0:0:0:
64,192,210590,1,0,0:0:0:0:
192,192,210590,1,0,0:0:0:0:
320,192,210644,1,0,0:0:0:0:
448,192,210697,1,0,0:0:0:0:
64,192,210751,1,0,0:0:0:0:
448,192,210804,128,0,211019:0:0:0:0:
192,192,210804,1,0,0:0:0:0:
320,192,210858,1,0,0:0:0:0:
64,192,210912,1,0,0:0:0:0:
192,192,210965,1,0,0:0:0:0:
320,192,211019,1,0,0:0:0:0:
64,192,211072,1,0,0:0:0:0:
192,192,211126,1,0,0:0:0:0:
320,192,211179,1,0,0:0:0:0:
448,192,211233,128,0,211447:0:0:0:0:
64,192,211233,1,0,0:0:0:0:
192,192,211287,1,0,0:0:0:0:
320,192,211340,1,0,0:0:0:0:
64,192,211394,1,0,0:0:0:0:
192,192,211447,1,0,0:0:0:0:
320,192,211501,1,0,0:0:0:0:
448,192,211554,1,0,0:0:0:0:
64,192,211608,1,0,0:0:0:0:
192,192,211662,1,0,0:0:0:0:
448,192,211715,1,0,0:0:0:0:
320,192,211769,1,0,0:0:0:0:
192,192,211822,1,0,0:0:0:0:
64,192,211876,1,0,0:0:0:0:
448,192,211876,1,0,0:0:0:0:
320,192,211929,1,0,0:0:0:0:
192,192,211983,1,0,0:0:0:0:
64,192,212037,1,0,0:0:0:0:
448,192,212090,1,0,0:0:0:0:
320,192,212144,1,0,0:0:0:0:
192,192,212197,1,0,0:0:0:0:
64,192,212251,1,0,0:0:0:0:
192,192,212304,128,0,212519:0:0:0:0:
320,192,212358,1,0,0:0:0:0:
448,192,212412,1,0,0:0:0:0:
64,192,212465,1,0,0:0:0:0:
448,192,212519,128,0,212733:0:0:0:0:
320,192,212572,1,0,0:0:0:0:
64,192,212626,1,0,0:0:0:0:
192,192,212679,1,0,0:0:0:0:
64,192,212733,128,0,212840:0:0:0:0:
320,192,212733,1,0,0:0:0:0:
448,192,212840,1,0,0:0:0:0:
64,192,212947,128,0,213054:0:0:0:0:
192,192,212947,1,0,0:0:0:0:
320,192,213054,1,0,0:0:0:0:
448,192,213162,1,0,0:0:0:0:
64,192,213162,1,0,0:0:0:0:
192,192,213269,1,0,0:0:0:0:
320,192,213376,1,0,0:0:0:0:
448,192,213483,1,0,0:0:0:0:
64,192,213590,128,0,213697:0:0:0:0:
192,192,213590,1,0,0:0:0:0:
320,192,213697,1,0,0:0:0:0:
64,192,213804,128,0,213912:0:0:0:0:
192,192,213804,1,0,0:0:0:0:
320,192,213858,1,0,0:0:0:0:
448,192,213912,1,0,0:0:0:0:
192,192,213965,1,0,0:0:0:0:
64,192,214019,1,0,0:0:0:0:
320,192,214019,1,0,0:0:0:0:
192,192,214126,1,0,0:0:0:0:
320,192,214233,1,0,0:0:0:0:
448,192,214340,1,0,0:0:0:0:
448,192,214447,128,0,214554:0:0:0:0:
320,192,214447,1,0,0:0:0:0:
192,192,214554,1,0,0:0:0:0:
448,192,214662,128,0,214769:0:0:0:0:
64,192,214662,1,0,0:0:0:0:
192,192,214769,1,0,0:0:0:0:
448,192,214876,1,0,0:0:0:0:
320,192,214876,1,0,0:0:0:0:
192,192,214983,1,0,0:0:0:0:
64,192,215090,1,0,0:0:0:0:
192,192,215197,1,0,0:0:0:0:
448,192,215304,128,0,215412:0:0:0:0:
320,192,215304,1,0,0:0:0:0:
64,192,215304,1,0,0:0:0:0:
192,192,215412,1,0,0:0:0:0:
448,192,215519,128,0,215626:0:0:0:0:
320,192,215519,1,0,0:0:0:0:
192,192,215572,1,0,0:0:0:0:
64,192,215626,1,0,0:0:0:0:
320,192,215679,1,0,0:0:0:0:
192,192,215733,1,0,0:0:0:0:
64,192,215840,1,0,0:0:0:0:
192,192,215947,1,0,0:0:0:0:
320,192,216054,1,0,0:0:0:0:
