osu file format v14

[General]
AudioFilename: audio.mp3
AudioLeadIn: 0
PreviewTime: 148523
Countdown: 0
SampleSet: Normal
StackLeniency: 0.4
Mode: 0
LetterboxInBreaks: 0
WidescreenStoryboard: 1

[Editor]
DistanceSpacing: 1.1
BeatDivisor: 4
GridSize: 8
TimelineZoom: 2.090006

[Metadata]
Title:Hi no Eternal Chain
TitleUnicode:碑のEternal Chain
Artist:Eclipseed
ArtistUnicode:Eclipseed
Creator:AdveNt
Version:gazimal's Extra
Source:
Tags:凍てついた紅蓮の炎に裁きを itetsuita guren no honoo ni sabaki wo 星魚有香 hoshio yuka AYUTRICA Hearty Smile Factory えむらまお emura mao 【S】 SNOW japanese j-rock j rock jrock symphonic metal j-metal gazimal
BeatmapID:3472890
BeatmapSetID:1697194

[Difficulty]
HPDrainRate:5.5
CircleSize:4
OverallDifficulty:8.7
ApproachRate:9.4
SliderMultiplier:1.8
SliderTickRate:1

[Events]
//Background and Video events
0,0,"bg.jpg",0,0
//Break Periods
2,102673,104333
2,169873,173108
2,213232,230364
//Storyboard Layer 0 (Background)
//Storyboard Layer 1 (Fail)
//Storyboard Layer 2 (Pass)
//Storyboard Layer 3 (Foreground)
//Storyboard Layer 4 (Overlay)
//Storyboard Sound Samples

[TimingPoints]
946,528.63436123348,4,2,1,30,1,0
1210,352.941176470588,4,2,1,30,1,0
1210,-200,4,2,1,30,0,0
1562,344.827586206897,4,2,1,30,1,0
1562,-200,4,2,1,30,0,0
2424,352.941176470588,4,2,1,30,1,0
2424,-200,4,2,1,30,0,0
2776,379.746835443038,4,2,1,30,1,0
2776,-200,4,2,1,30,0,0
3155,333.333333333333,4,2,1,30,1,0
3821,324.324324324324,4,2,1,30,1,0
3821,-200,4,2,1,30,0,0
4469,359.281437125748,4,2,1,30,1,0
4469,-200,4,2,1,30,0,0
5187,365.853658536585,4,2,1,30,1,0
5918,405.405405405405,4,2,1,30,1,0
6728,387.096774193548,4,2,1,30,1,0
6728,-125,4,2,1,30,0,0
7405,-125,4,2,1,5,0,0
7502,348.837209302326,4,2,1,30,1,0
7502,-200,4,2,1,30,0,0
8112,-200,4,2,1,5,0,0
8199,375,4,2,1,30,1,0
8574,352.941176470588,4,2,1,30,1,0
8926,338.983050847458,4,2,1,30,1,0
8926,-166.666666666667,4,2,1,30,0,0
9264,327.868852459016,4,2,1,30,1,0
9264,-166.666666666667,4,2,1,30,0,0
9591,-125,4,2,1,30,0,0
9919,352.941176470588,4,2,1,30,1,0
10271,324.324324324324,4,2,1,30,1,0
10271,-166.666666666667,4,2,1,30,0,0
10919,348.837209302326,4,2,1,30,1,0
11616,333.333333333333,4,2,1,30,1,0
11616,-166.666666666667,4,2,1,30,0,0
12282,363.636363636364,4,2,1,30,1,0
12282,-142.857142857143,4,2,1,30,0,0
13009,352.941176470588,4,2,1,30,1,0
13009,-166.666666666667,4,2,1,30,0,0
13714,387.096774193548,4,2,1,30,1,0
13714,-166.666666666667,4,2,1,30,0,0
14101,444.444444444444,4,2,1,30,1,0
14101,-166.666666666667,4,2,1,30,0,0
14545,750,4,2,1,30,1,0
14826,857.142857142857,4,2,1,30,1,0
15072,759.493670886076,4,2,1,30,1,0
15451,800,4,2,1,30,1,0
15851,1311.47540983607,4,2,1,30,1,0
15851,-125,4,2,1,30,0,0
18473,300,4,1,1,50,1,0
18473,-166.666666666667,4,1,1,50,0,0
19973,-333.333333333334,4,1,1,50,0,0
20873,-166.666666666667,4,1,1,50,0,0
22673,-125,4,1,1,50,0,0
22823,-200,4,1,1,50,0,0
23198,-200,4,1,1,5,0,0
23273,-166.666666666667,4,1,1,50,0,0
24473,-200,4,1,1,50,0,0
24923,-250.000000000001,4,1,1,50,0,0
25598,-250.000000000001,4,1,1,5,0,0
25673,-250.000000000001,4,1,1,50,0,0
26423,-200.000000000001,4,1,1,50,0,0
27473,-142.857142857143,4,1,1,50,0,0
27998,-142.857142857143,4,1,1,5,0,0
28073,-111.111111111111,4,1,1,50,0,0
29498,-111.111111111111,4,1,1,5,0,0
29573,-111.111111111111,4,1,1,50,0,0
31898,-111.111111111111,4,1,1,5,0,0
31973,-111.111111111111,4,1,1,50,0,0
34298,-111.111111111111,4,1,1,5,0,0
34373,-111.111111111111,4,1,1,50,0,0
35498,-111.111111111111,4,1,1,5,0,0
35573,-111.111111111111,4,1,1,50,0,0
37073,-499.999999999997,4,1,1,50,0,0
37598,-111.111111111111,4,1,1,5,0,0
37673,-111.111111111111,4,1,1,50,0,0
38873,-111.111111111111,4,1,1,60,0,0
40073,-83.3333333333333,4,1,1,60,0,0
40298,-111.111111111111,4,1,1,5,0,0
40373,-111.111111111111,4,1,1,60,0,0
43298,-111.111111111111,4,1,1,5,0,0
43373,-111.111111111111,4,1,1,60,0,0
45098,-111.111111111111,4,1,1,5,0,0
45173,-111.111111111111,4,1,1,60,0,0
45398,-111.111111111111,4,1,1,5,0,0
45473,-111.111111111111,4,1,1,60,0,0
47273,-90.9090909090908,4,1,1,60,0,0
47498,-111.111111111111,4,1,1,5,0,0
47573,-90.9090909090908,4,1,1,60,0,0
48098,-111.111111111111,4,1,1,5,0,0
48173,-90.9090909090908,4,1,1,60,0,0
48473,-111.111111111111,4,1,1,60,0,0
48698,-111.111111111111,4,1,1,5,0,0
48773,-111.111111111111,4,1,1,60,0,0
49148,-111.111111111111,4,1,1,5,0,0
49223,-111.111111111111,4,1,1,60,0,0
49673,-83.3333333333333,4,1,1,60,0,0
49898,-111.111111111111,4,1,1,5,0,0
49973,-111.111111111111,4,1,1,60,0,0
53498,-111.111111111111,4,1,1,5,0,0
53573,-111.111111111111,4,1,1,60,0,0
53873,-111.111111111111,4,1,1,60,0,0
54098,-111.111111111111,4,1,1,5,0,0
54173,-111.111111111111,4,1,1,60,0,0
54473,-111.111111111111,4,1,1,60,0,0
54698,-111.111111111111,4,1,1,5,0,0
54773,-111.111111111111,4,1,1,60,0,0
54998,-111.111111111111,4,1,1,5,0,0
55073,-111.111111111111,4,1,1,60,0,0
55298,-111.111111111111,4,1,1,5,0,0
55373,-111.111111111111,4,1,1,60,0,0
56498,-111.111111111111,4,1,1,5,0,0
56573,-111.111111111111,4,1,1,60,0,0
57098,-111.111111111111,4,1,1,5,0,0
57173,-111.111111111111,4,1,1,60,0,0
57698,-111.111111111111,4,1,1,5,0,0
57773,-111.111111111111,4,1,1,60,0,0
58298,-111.111111111111,4,1,1,5,0,0
58373,-111.111111111111,4,1,1,60,0,0
59273,-71.4285714285714,4,1,1,60,0,0
59498,-111.111111111111,4,1,1,5,0,0
59573,-111.111111111111,4,1,1,60,0,0
61448,-111.111111111111,4,1,1,5,0,0
61523,-111.111111111111,4,1,1,60,0,0
62498,-111.111111111111,4,1,1,5,0,0
62573,-111.111111111111,4,1,1,60,0,0
64298,-111.111111111111,4,1,1,5,0,0
64373,-111.111111111111,4,1,1,60,0,0
64973,-166.666666666666,4,1,1,60,0,0
65273,-83.3333333333333,4,1,1,60,0,0
66173,-166.666666666667,4,1,1,60,0,0
66473,-83.3333333333333,4,1,1,60,0,0
66998,-111.111111111111,4,1,1,5,0,0
67073,-83.3333333333333,4,1,1,60,0,0
67373,-111.111111111111,4,1,1,60,0,0
68123,-83.3333333333333,4,1,1,60,0,0
68348,-111.111111111111,4,1,1,5,0,0
68423,-83.3333333333333,4,1,1,60,0,0
68873,-111.111111111111,4,1,1,60,0,0
69098,-111.111111111111,4,1,1,5,0,0
69173,-111.111111111111,4,1,1,60,0,0
73673,-83.3333333333333,4,1,1,60,0,0
74573,-111.111111111111,4,1,1,60,0,0
74798,-111.111111111111,4,1,1,5,0,0
74873,-166.666666666666,4,1,1,60,0,0
75173,-90.9090909090908,4,1,1,60,0,0
75398,-111.111111111111,4,1,1,5,0,0
75473,-166.666666666667,4,1,1,60,0,0
75698,-111.111111111111,4,1,1,5,0,0
75773,-111.111111111111,4,1,1,60,0,0
77273,-769.230769230769,4,1,1,60,0,0
77798,-111.111111111111,4,1,1,5,0,0
77873,-111.111111111111,4,1,1,60,0,0
78398,-111.111111111111,4,1,1,5,0,0
78473,-83.3333333333333,4,1,2,80,0,1
78548,-83.3333333333333,4,1,1,80,0,1
79598,-83.3333333333333,4,1,1,5,0,1
79673,-83.3333333333333,4,1,1,80,0,1
79898,-83.3333333333333,4,1,1,5,0,1
79973,-83.3333333333333,4,1,1,80,0,1
80798,-83.3333333333333,4,1,1,5,0,1
80873,-83.3333333333333,4,1,1,80,0,1
81998,-83.3333333333333,4,1,1,5,0,1
82073,-83.3333333333333,4,1,1,80,0,1
82298,-83.3333333333333,4,1,1,5,0,1
82373,-83.3333333333333,4,1,1,80,0,1
83498,-83.3333333333333,4,1,1,5,0,1
83573,-83.3333333333333,4,1,1,80,0,1
84698,-83.3333333333333,4,1,1,5,0,1
84773,-83.3333333333333,4,1,1,80,0,1
85898,-83.3333333333333,4,1,1,5,0,1
85973,-100,4,1,1,80,0,1
86273,-83.3333333333333,4,1,1,80,0,1
86498,-83.3333333333333,4,1,1,5,0,1
86573,-83.3333333333333,4,1,1,80,0,1
87098,-83.3333333333333,4,1,1,5,0,1
87173,-83.3333333333333,4,1,1,80,0,1
89198,-83.3333333333333,4,1,1,5,0,1
89273,-83.3333333333333,4,1,1,80,0,1
89498,-83.3333333333333,4,1,1,5,0,1
89573,-83.3333333333333,4,1,1,80,0,1
90398,-83.3333333333333,4,1,1,5,0,1
90473,-83.3333333333333,4,1,1,80,0,1
91598,-83.3333333333333,4,1,1,5,0,1
91673,-83.3333333333333,4,1,1,80,0,1
91898,-83.3333333333333,4,1,1,5,0,1
91973,-83.3333333333333,4,1,1,80,0,1
93098,-83.3333333333333,4,1,1,5,0,1
93173,-83.3333333333333,4,1,1,80,0,1
93698,-83.3333333333333,4,1,1,5,0,1
93773,-83.3333333333333,4,1,1,80,0,1
94298,-83.3333333333333,4,1,1,5,0,1
94373,-83.3333333333333,4,1,1,80,0,1
95498,-83.3333333333333,4,1,1,5,0,1
95573,-83.3333333333333,4,1,1,80,0,1
95873,-250,4,1,1,80,0,1
96098,-83.3333333333333,4,1,1,5,0,1
96173,-83.3333333333333,4,1,1,80,0,1
97673,-83.3333333333333,4,1,3,80,0,1
97748,-83.3333333333333,4,1,1,5,0,1
97823,-83.3333333333333,4,1,1,80,0,1
97898,-83.3333333333333,4,1,1,5,0,1
97973,-83.3333333333333,4,1,1,80,0,1
98048,-83.3333333333333,4,1,1,5,0,1
98123,-83.3333333333333,4,1,1,80,0,1
98198,-83.3333333333333,4,1,1,5,0,1
98273,-83.3333333333333,4,1,1,80,0,1
99098,-83.3333333333333,4,1,1,5,0,1
99173,-83.3333333333333,4,1,1,80,0,1
100673,-666.666666666667,4,1,1,80,0,1
101198,-83.3333333333333,4,1,1,5,0,1
101273,-133.333333333333,4,1,1,80,0,1
101798,-133.333333333333,4,1,1,5,0,1
101873,-100,4,1,1,80,0,1
102473,-100,4,1,1,80,0,0
104873,-142.857142857143,4,1,1,60,0,0
107198,-142.857142857143,4,1,1,5,0,0
107273,-142.857142857143,4,1,1,60,0,0
110873,-111.111111111111,4,1,1,60,0,0
111773,-83.3333333333333,4,1,1,60,0,0
111998,-83.3333333333333,4,1,1,5,0,0
112073,-142.857142857143,4,1,3,60,0,0
112148,-142.857142857143,4,1,1,60,0,0
113198,-142.857142857143,4,1,1,5,0,0
113273,-142.857142857143,4,1,1,60,0,0
113648,-142.857142857143,4,1,1,5,0,0
113723,-142.857142857143,4,1,1,60,0,0
114098,-142.857142857143,4,1,1,5,0,0
114173,-142.857142857143,4,1,1,60,0,0
114248,-142.857142857143,4,1,1,5,0,0
114323,-142.857142857143,4,1,1,60,0,0
114398,-142.857142857143,4,1,1,5,0,0
114473,-111.111111111111,4,1,1,60,0,0
115298,-111.111111111111,4,1,1,5,0,0
115373,-111.111111111111,4,1,1,60,0,0
117098,-111.111111111111,4,1,1,5,0,0
117173,-111.111111111111,4,1,1,60,0,0
117398,-111.111111111111,4,1,1,5,0,0
117473,-111.111111111111,4,1,1,60,0,0
119273,-83.3333333333333,4,1,1,60,0,0
119498,-111.111111111111,4,1,1,5,0,0
119573,-83.3333333333333,4,1,1,60,0,0
120098,-111.111111111111,4,1,1,5,0,0
120173,-111.111111111111,4,1,1,60,0,0
120473,-111.111111111111,4,1,1,60,0,0
120698,-111.111111111111,4,1,1,5,0,0
120773,-111.111111111111,4,1,1,60,0,0
121148,-111.111111111111,4,1,1,5,0,0
121223,-111.111111111111,4,1,1,60,0,0
121673,-83.3333333333333,4,1,1,60,0,0
121898,-111.111111111111,4,1,1,5,0,0
121973,-111.111111111111,4,1,1,60,0,0
124298,-111.111111111111,4,1,1,5,0,0
124373,-111.111111111111,4,1,1,60,0,0
125498,-111.111111111111,4,1,1,5,0,0
125573,-111.111111111111,4,1,1,60,0,0
125873,-111.111111111111,4,1,1,60,0,0
126098,-111.111111111111,4,1,1,5,0,0
126173,-111.111111111111,4,1,1,60,0,0
126473,-111.111111111111,4,1,1,60,0,0
126698,-111.111111111111,4,1,1,5,0,0
126773,-111.111111111111,4,1,1,60,0,0
126998,-111.111111111111,4,1,1,5,0,0
127073,-111.111111111111,4,1,1,60,0,0
127298,-111.111111111111,4,1,1,5,0,0
127373,-111.111111111111,4,1,1,60,0,0
128498,-111.111111111111,4,1,1,5,0,0
128573,-111.111111111111,4,1,1,60,0,0
129098,-111.111111111111,4,1,1,5,0,0
129173,-111.111111111111,4,1,1,60,0,0
129698,-111.111111111111,4,1,1,5,0,0
129773,-111.111111111111,4,1,1,60,0,0
130298,-111.111111111111,4,1,1,5,0,0
130373,-111.111111111111,4,1,1,60,0,0
131273,-71.4285714285714,4,1,1,60,0,0
131498,-111.111111111111,4,1,1,5,0,0
131573,-111.111111111111,4,1,1,60,0,0
133448,-111.111111111111,4,1,1,5,0,0
133523,-111.111111111111,4,1,1,60,0,0
134498,-111.111111111111,4,1,1,5,0,0
134573,-111.111111111111,4,1,1,60,0,0
136298,-111.111111111111,4,1,1,5,0,0
136373,-111.111111111111,4,1,1,60,0,0
136973,-166.666666666666,4,1,1,60,0,0
137273,-83.3333333333333,4,1,1,60,0,0
138173,-166.666666666667,4,1,1,60,0,0
138473,-90.9090909090909,4,1,1,60,0,0
138998,-111.111111111111,4,1,1,5,0,0
139073,-111.111111111111,4,1,1,60,0,0
139373,-111.111111111111,4,1,1,60,0,0
140123,-83.3333333333333,4,1,1,60,0,0
140348,-111.111111111111,4,1,1,5,0,0
140423,-111.111111111111,4,1,1,60,0,0
140873,-111.111111111111,4,1,1,60,0,0
141098,-111.111111111111,4,1,1,5,0,0
141173,-111.111111111111,4,1,1,60,0,0
145673,-83.3333333333333,4,1,1,60,0,0
146573,-111.111111111111,4,1,1,60,0,0
146798,-111.111111111111,4,1,1,5,0,0
146873,-166.666666666666,4,1,1,60,0,0
147098,-166.666666666666,4,1,1,5,0,0
147173,-90.9090909090909,4,1,1,60,0,0
147398,-111.111111111111,4,1,1,5,0,0
147473,-166.666666666667,4,1,1,60,0,0
147698,-111.111111111111,4,1,1,5,0,0
147773,-111.111111111111,4,1,1,60,0,0
149273,-666.666666666667,4,1,1,60,0,0
149798,-666.666666666667,4,1,1,5,0,0
149873,-111.111111111111,4,1,1,60,0,0
150398,-111.111111111111,4,1,1,5,0,0
150473,-83.3333333333333,4,1,2,80,0,1
150548,-83.3333333333333,4,1,1,80,0,1
151598,-83.3333333333333,4,1,1,5,0,1
151673,-83.3333333333333,4,1,1,80,0,1
151898,-83.3333333333333,4,1,1,5,0,1
151973,-83.3333333333333,4,1,1,80,0,1
152798,-83.3333333333333,4,1,1,5,0,1
152873,-83.3333333333333,4,1,1,80,0,1
153998,-83.3333333333333,4,1,1,5,0,1
154073,-83.3333333333333,4,1,1,80,0,1
154298,-83.3333333333333,4,1,1,5,0,1
154373,-83.3333333333333,4,1,1,80,0,1
155498,-83.3333333333333,4,1,1,5,0,1
155573,-83.3333333333333,4,1,1,80,0,1
156698,-83.3333333333333,4,1,1,5,0,1
156773,-83.3333333333333,4,1,1,80,0,1
157898,-83.3333333333333,4,1,1,5,0,1
157973,-100,4,1,1,80,0,1
158273,-83.3333333333333,4,1,1,80,0,1
158498,-83.3333333333333,4,1,1,5,0,1
158573,-83.3333333333333,4,1,1,80,0,1
159098,-83.3333333333333,4,1,1,5,0,1
159173,-83.3333333333333,4,1,1,80,0,1
161198,-83.3333333333333,4,1,1,5,0,1
161273,-83.3333333333333,4,1,1,80,0,1
161498,-83.3333333333333,4,1,1,5,0,1
161573,-83.3333333333333,4,1,1,80,0,1
162398,-83.3333333333333,4,1,1,5,0,1
162473,-83.3333333333333,4,1,1,80,0,1
163598,-83.3333333333333,4,1,1,5,0,1
163673,-83.3333333333333,4,1,1,80,0,1
163898,-83.3333333333333,4,1,1,5,0,1
163973,-83.3333333333333,4,1,1,80,0,1
165098,-83.3333333333333,4,1,1,5,0,1
165173,-83.3333333333333,4,1,1,80,0,1
165698,-83.3333333333333,4,1,1,5,0,1
165773,-83.3333333333333,4,1,1,80,0,1
166298,-83.3333333333333,4,1,1,5,0,1
166373,-83.3333333333333,4,1,1,80,0,1
167498,-83.3333333333333,4,1,1,5,0,1
167573,-83.3333333333333,4,1,1,80,0,1
169373,-200,4,1,1,80,0,1
169598,-83.3333333333333,4,1,1,5,0,1
169673,-200,4,1,1,80,0,0
172073,-200,4,1,1,5,0,0
173573,-200,4,1,1,40,0,0
173873,-125,4,1,1,40,0,0
174398,-125,4,1,1,5,0,0
174473,-166.666666666667,4,1,1,40,0,0
176798,-166.666666666667,4,1,1,5,0,0
176873,-166.666666666667,4,1,1,40,0,0
178073,-125,4,1,1,40,0,0
178523,-166.666666666667,4,1,1,40,0,0
179198,-166.666666666667,4,1,1,5,0,0
179273,-166.666666666667,4,1,1,40,0,0
181598,-166.666666666667,4,1,1,5,0,0
181673,-166.666666666667,4,1,1,40,0,0
185198,-166.666666666667,4,1,1,5,0,0
185273,-166.666666666667,4,1,1,40,0,0
186098,-166.666666666667,4,1,1,5,0,0
186173,-166.666666666667,4,1,1,40,0,0
186473,-142.857142857143,4,1,1,40,0,0
187823,-83.3333333333333,4,1,1,40,0,0
188048,-83.3333333333333,4,1,1,5,0,0
188123,-83.3333333333333,4,1,1,40,0,0
188348,-83.3333333333333,4,1,1,5,0,0
188423,-142.857142857143,4,1,1,40,0,0
188873,-125,4,1,3,50,0,0
188948,-125,4,1,1,50,0,0
207998,-83.3333333333333,4,1,1,5,0,0
208073,-125,4,1,1,50,0,0
210473,337.078651685394,4,2,1,40,1,0
211147,342.857142857143,4,2,1,40,1,0
211832,300,4,2,1,40,1,0
212432,-200,4,2,1,40,0,0
213032,319.148936170213,4,2,1,40,1,0
230904,666.666666666667,4,1,1,60,1,0
230904,-111.111111111111,4,1,1,60,0,0
232904,-111.111111111111,4,1,1,5,0,0
233070,-111.111111111111,4,1,1,60,0,0
233459,-111.111111111111,4,1,1,5,0,0
233570,545.454545454546,4,1,1,60,1,0
233570,-37.037037037037,4,1,1,60,0,0
233979,-37.037037037037,4,1,1,5,0,0
234115,566.037735849057,4,1,1,60,1,0
234539,-100,4,1,1,5,0,0
234681,300,4,1,1,60,1,0
234681,-1000,4,1,1,60,0,0
235206,-1000,4,1,1,5,0,0
235281,-100,4,1,1,60,0,0
235806,-100,4,1,1,5,0,0
235881,-83.3333333333333,4,1,2,80,0,1
235956,-83.3333333333333,4,1,1,80,0,1
237006,-83.3333333333333,4,1,1,5,0,1
237081,-83.3333333333333,4,1,1,80,0,1
237306,-83.3333333333333,4,1,1,5,0,1
237381,-83.3333333333333,4,1,1,80,0,1
238206,-83.3333333333333,4,1,1,5,0,1
238281,-83.3333333333333,4,1,1,80,0,1
239406,-83.3333333333333,4,1,1,5,0,1
239481,-83.3333333333333,4,1,1,80,0,1
239706,-83.3333333333333,4,1,1,5,0,1
239781,-83.3333333333333,4,1,1,80,0,1
240906,-83.3333333333333,4,1,1,5,0,1
240981,-83.3333333333333,4,1,1,80,0,1
242106,-83.3333333333333,4,1,1,5,0,1
242181,-83.3333333333333,4,1,1,80,0,1
243306,-83.3333333333333,4,1,1,5,0,1
243381,-83.3333333333333,4,1,1,80,0,1
243906,-83.3333333333333,4,1,1,5,0,1
243981,-83.3333333333333,4,1,1,80,0,1
244506,-83.3333333333333,4,1,1,5,0,1
244581,-83.3333333333333,4,1,1,80,0,1
246606,-83.3333333333333,4,1,1,5,0,1
246681,-83.3333333333333,4,1,1,80,0,1
246906,-83.3333333333333,4,1,1,5,0,1
246981,-83.3333333333333,4,1,1,80,0,1
247806,-83.3333333333333,4,1,1,5,0,1
247881,-83.3333333333333,4,1,1,80,0,1
249006,-83.3333333333333,4,1,1,5,0,1
249081,-83.3333333333333,4,1,1,80,0,1
249306,-83.3333333333333,4,1,1,5,0,1
249381,-83.3333333333333,4,1,1,80,0,1
250506,-83.3333333333333,4,1,1,5,0,1
250581,-83.3333333333333,4,1,1,80,0,1
251106,-83.3333333333333,4,1,1,5,0,1
251181,-83.3333333333333,4,1,1,80,0,1
251706,-83.3333333333333,4,1,1,5,0,1
251781,-83.3333333333333,4,1,1,80,0,1
252906,-83.3333333333333,4,1,1,5,0,1
252981,-83.3333333333333,4,1,1,80,0,1
255081,-83.3333333333333,4,1,2,80,0,1
255156,-83.3333333333333,4,1,1,80,0,1
256206,-83.3333333333333,4,1,1,5,0,1
256281,-83.3333333333333,4,1,1,80,0,1
256506,-83.3333333333333,4,1,1,5,0,1
256581,-83.3333333333333,4,1,1,80,0,1
257406,-83.3333333333333,4,1,1,5,0,1
257481,-83.3333333333333,4,1,1,80,0,1
258606,-83.3333333333333,4,1,1,5,0,1
258681,-83.3333333333333,4,1,1,80,0,1
258906,-83.3333333333333,4,1,1,5,0,1
258981,-83.3333333333333,4,1,1,80,0,1
260106,-83.3333333333333,4,1,1,5,0,1
260181,-83.3333333333333,4,1,1,80,0,1
261306,-83.3333333333333,4,1,1,5,0,1
261381,-83.3333333333333,4,1,1,80,0,1
262506,-83.3333333333333,4,1,1,5,0,1
262581,-100,4,1,1,80,0,1
262881,-83.3333333333333,4,1,1,80,0,1
263106,-83.3333333333333,4,1,1,5,0,1
263181,-83.3333333333333,4,1,1,80,0,1
263406,-83.3333333333333,4,1,1,5,0,1
263481,-83.3333333333333,4,1,1,80,0,1
263781,-83.3333333333333,4,1,1,80,0,1
265806,-83.3333333333333,4,1,1,5,0,1
265881,-83.3333333333333,4,1,1,80,0,1
266106,-83.3333333333333,4,1,1,5,0,1
266181,-83.3333333333333,4,1,1,80,0,1
266706,-83.3333333333333,4,1,1,5,0,1
266781,-83.3333333333333,4,1,1,80,0,1
267006,-83.3333333333333,4,1,1,5,0,1
267081,-83.3333333333333,4,1,1,80,0,1
268206,-83.3333333333333,4,1,1,5,0,1
268281,-83.3333333333333,4,1,1,80,0,1
268506,-83.3333333333333,4,1,1,5,0,1
268581,-83.3333333333333,4,1,1,80,0,1
269706,-83.3333333333333,4,1,1,5,0,1
269781,-83.3333333333333,4,1,1,80,0,1
270306,-83.3333333333333,4,1,1,5,0,1
270381,-83.3333333333333,4,1,1,80,0,1
270906,-83.3333333333333,4,1,1,5,0,1
270981,-83.3333333333333,4,1,1,80,0,1
272106,-83.3333333333333,4,1,1,5,0,1
272181,-83.3333333333333,4,1,1,80,0,1
273981,-200,4,1,1,80,0,1
274206,-83.3333333333333,4,1,1,5,0,1
274281,-83.3333333333333,4,1,3,80,0,1
274356,-83.3333333333333,4,1,1,5,0,1
274431,-83.3333333333333,4,1,1,80,0,1
274506,-83.3333333333333,4,1,1,5,0,1
274581,-83.3333333333333,4,1,1,80,0,1
274656,-83.3333333333333,4,1,1,5,0,1
274731,-83.3333333333333,4,1,1,80,0,1
274806,-83.3333333333333,4,1,1,5,0,1
274881,-83.3333333333333,4,1,1,80,0,1
275706,-83.3333333333333,4,1,1,5,0,1
275781,-83.3333333333333,4,1,1,80,0,1
277281,-83.3333333333333,4,1,1,80,0,1
277356,-83.3333333333333,4,1,1,5,0,1
277431,-83.3333333333333,4,1,1,80,0,1
277506,-83.3333333333333,4,1,1,5,0,1
277581,-83.3333333333333,4,1,1,80,0,1
279081,-100,4,1,1,80,0,1
279606,-100,4,1,1,5,0,1
279681,-100,4,1,1,80,0,1
281181,-303.030303030303,4,1,1,80,0,1
281406,-83.3333333333333,4,1,1,5,0,1
281481,-111.111111111111,4,1,1,80,0,0
281631,-111.111111111111,4,1,1,60,0,0
282906,-111.111111111111,4,1,1,5,0,0
282981,-111.111111111111,4,1,1,60,0,0
285306,-111.111111111111,4,1,1,5,0,0
285381,-111.111111111111,4,1,1,60,0,0
287706,-111.111111111111,4,1,1,5,0,0
287781,-111.111111111111,4,1,1,60,0,0
288906,-111.111111111111,4,1,1,5,0,0
288981,-111.111111111111,4,1,1,60,0,0
292506,-111.111111111111,4,1,1,5,0,0
292581,-111.111111111111,4,1,1,60,0,0
294906,-111.111111111111,4,1,1,5,0,0
294981,-111.111111111111,4,1,1,60,0,0
297306,-111.111111111111,4,1,1,5,0,0
297381,-111.111111111111,4,1,1,60,0,0
298281,-111.111111111111,4,1,3,60,0,0
298356,-111.111111111111,4,1,1,60,0,0
300531,-111.111111111111,4,1,1,60,0,0

[Colours]
Combo1 : 192,192,192
Combo2 : 248,63,1

[HitObjects]
117,208,945,5,2,0:0:0:0:
121,218,1034,1,0,0:0:0:0:
125,228,1122,1,0,0:0:0:0:
129,238,1210,2,0,P|102:230|67:224,2,45,0|2|0,0:0|0:0|0:0,0:0:0:0:
231,286,1734,2,0,L|186:295,1,45,2|0,0:0|0:0,0:0:0:0:
272,358,2079,2,0,L|227:367,1,45,2|0,0:0|0:0,0:0:0:0:
316,281,2424,6,0,L|360:290,1,45,2|0,0:0|0:0,0:0:0:0:
449,357,2776,2,0,L|404:366,1,45,2|0,0:0|0:0,0:0:0:0:
462,254,3155,5,2,0:0:0:0:
462,254,3488,1,2,0:0:0:0:
462,254,3821,6,0,L|451:203,1,45,2|0,0:0|0:0,0:0:0:0:
439,112,4145,1,2,0:0:0:0:
439,112,4469,2,0,B|433:93|411:76|411:76|434:87|472:83,1,90,2|2,0:0|0:0,0:0:0:0:
451,10,5187,5,2,0:0:0:0:
370,143,5552,1,2,0:0:0:0:
244,37,5918,5,2,0:0:0:0:
194,135,6323,1,2,0:0:0:0:
116,354,6728,6,0,B|55:339|15:362|15:362|43:325|28:269|28:269|46:297|78:305,1,252,2|0,0:0|0:0,0:0:0:0:
97,235,7502,2,0,L|85:188,1,45,2|0,0:0|0:0,0:0:0:0:
207,68,7850,2,0,L|192:141,1,67.5,2|0,0:0|0:0,0:0:0:0:
193,134,8199,5,2,0:0:0:0:
41,75,8386,1,2,0:0:0:0:
85,191,8574,5,2,0:0:0:0:
122,104,8750,1,2,0:0:0:0:
231,226,8926,2,0,L|177:214,1,53.9999983520508,2|2,0:0|0:0,0:0:0:0:
292,155,9264,2,0,L|357:141,1,53.9999983520508,2|2,0:0|0:0,0:0:0:0:
491,213,9591,6,0,B|469:242|477:280|477:280|461:245|415:234,1,144,2|0,0:0|0:0,0:0:0:0:
386,362,10271,2,0,L|398:302,1,53.9999983520508,2|0,0:0|0:0,0:0:0:0:
292,155,10595,2,0,L|310:244,1,80.9999975280763,2|0,0:0|0:0,0:0:0:0:
308,234,10919,5,2,0:0:0:0:
429,154,11093,1,2,0:0:0:0:
274,77,11267,1,2,0:0:0:0:
292,155,11442,1,2,0:0:0:0:
410,73,11616,6,0,L|472:59,1,53.9999983520508,2|2,0:0|0:0,0:0:0:0:
274,77,11949,2,0,L|336:90,1,53.9999983520508,2|2,0:0|0:0,0:0:0:0:
203,17,12282,6,0,B|140:-12|102:51|110:52|65:115|-5:72,1,220.499993270874,2|0,0:0|0:0,0:0:0:0:
8,79,13009,6,0,L|19:133,1,53.9999983520508,2|0,0:0|0:0,0:0:0:0:
78,237,13361,2,0,L|89:182,1,53.9999983520508,2|0,0:0|0:0,0:0:0:0:
147,289,13714,6,0,P|126:314|96:328,1,53.9999983520508,2|2,0:0|0:0,0:0:0:0:
245,228,14101,2,0,P|262:257|292:265,1,53.9999983520508,2|2,0:0|0:0,0:0:0:0:
434,209,14545,5,2,0:0:0:0:
382,109,14826,5,2,0:0:0:0:
311,194,15072,5,2,0:0:0:0:
379,384,15451,5,2,0:0:0:0:
432,217,15851,6,0,L|434:204,2,9,2|2|2,0:0|0:0|0:0,0:0:0:0:
233,252,18473,6,0,B|186:248|173:209|168:174|200:124|272:117|302:140|330:183|317:224|308:262|348:305|399:291|399:291|367:273|364:251,1,431.999986816407,4|0,3:0|0:0,0:0:0:0:
444,164,19973,2,0,L|429:223,2,53.9999983520508
496,94,20873,6,0,B|443:63|386:86|356:131|356:131|352:128|352:128|318:154|252:129|225:80|257:4|327:-15|376:35,1,431.999986816407,4|0,3:0|0:0,0:0:0:0:
459,179,22373,1,0,0:0:0:0:
459,179,22448,1,0,0:0:0:0:
459,179,22523,1,0,0:0:0:0:
459,179,22598,1,0,0:0:0:0:
459,179,22673,2,0,L|419:187,1,36,8|0,0:0|0:0,0:0:0:0:
303,242,22823,6,0,B|379:250|379:250|362:237|357:217,1,112.5
304,165,23273,6,0,B|236:155|204:77|224:-1|315:-23|348:7|348:7|289:33|287:94,1,377.999988464356,4|0,3:0|0:0,0:0:0:0:
105,43,24473,2,0,L|2:21,1,90,8|0,0:0|3:0,0:0:0:0:
123,128,24923,2,0,L|51:112,1,72,8|0,0:0|3:0,0:0:0:0:
141,213,25373,2,0,L|85:202,1,54,8|0,0:0|0:0,0:0:0:0:
88,202,25673,5,4,3:0:0:0:
116,310,25823,2,0,L|124:348,2,36
263,123,26273,1,0,3:0:0:0:
235,230,26423,2,0,L|222:285,2,45
88,43,26873,5,6,0:0:0:0:
114,181,27023,1,8,0:0:0:0:
114,181,27098,1,0,3:0:0:0:
114,181,27173,1,8,0:0:0:0:
4,98,27323,1,0,3:0:0:0:
263,123,27473,2,0,B|411:76|411:76|364:100|361:143,1,220.499993270874,8|0,0:0|0:0,0:0:0:0:
366,121,28073,6,0,L|348:40,1,80.9999975280763,4|0,3:0|3:0,0:0:0:0:
464,166,28373,2,0,L|446:246,1,80.9999975280763,10|0,0:0|3:0,0:0:0:0:
408,384,28673,1,0,3:0:0:0:
249,259,28823,1,0,3:0:0:0:
295,371,28973,1,10,0:0:0:0:
365,276,29123,1,0,3:0:0:0:
195,319,29273,6,0,B|172:312|137:327|137:327|167:303|171:274,1,121.499996292114,0|0,3:0|0:0,0:0:0:0:
184,191,29573,2,0,B|198:159|166:144|166:144|169:160|163:177,1,80.9999975280763,10|0,0:0|3:0,0:0:0:0:
12,240,29873,2,0,B|-22:243|-20:278|-20:278|-7:268|10:263,1,80.9999975280763,0|0,3:0|3:0,0:0:0:0:
84,166,30173,2,0,B|64:137|34:157|34:157|49:163|62:176,1,80.9999975280763,10|0,0:0|3:0,0:0:0:0:
170,276,30473,6,0,L|249:259,1,80.9999975280763,0|0,3:0|3:0,0:0:0:0:
447,150,30773,2,0,L|367:133,1,80.9999975280763,10|0,0:0|3:0,0:0:0:0:
148,100,31073,1,0,3:0:0:0:
323,11,31223,1,0,3:0:0:0:
260,111,31373,1,10,0:0:0:0:
210,4,31523,1,0,3:0:0:0:
367,133,31673,6,0,B|392:49|392:49|380:69|363:77,1,121.499996292114,0|0,3:0|0:0,0:0:0:0:
260,111,31973,2,0,B|260:130|249:148|249:148|267:136|290:137,1,80.9999975280763,10|0,0:0|3:0,0:0:0:0:
395,248,32273,2,0,B|411:237|432:237|432:237|413:229|402:208,1,80.9999975280763,0|0,3:0|3:0,0:0:0:0:
288,219,32573,2,0,B|305:227|315:246|315:246|313:225|325:205,1,80.9999975280763,10|0,0:0|3:0,0:0:0:0:
148,100,32873,6,0,L|58:118,1,80.9999975280763,4|0,3:0|3:0,0:0:0:0:
323,11,33173,2,0,L|412:29,1,80.9999975280763,10|0,0:0|3:0,0:0:0:0:
288,219,33473,1,0,3:0:0:0:
210,4,33623,1,0,3:0:0:0:
118,197,33773,1,10,0:0:0:0:
148,100,33923,1,0,3:0:0:0:
215,314,34073,6,0,B|251:327|281:296|281:296|252:296|231:269,1,121.499996292114,0|0,3:0|0:0,0:0:0:0:
140,284,34373,2,0,L|51:301,1,80.9999975280763,10|0,0:0|3:0,0:0:0:0:
367,234,34673,2,0,L|278:216,1,80.9999975280763,0|0,3:0|3:0,0:0:0:0:
293,384,34973,1,10,0:0:0:0:
217,175,35123,1,0,3:0:0:0:
385,354,35273,6,0,B|402:316|424:291|424:291|400:317|366:311,1,121.499996292114,4|0,3:0|0:0,0:0:0:0:
287,217,35573,2,0,L|305:307,1,80.9999975280763,10|0,0:0|3:0,0:0:0:0:
450,112,35873,2,0,L|465:32,1,80.9999975280763,8|0,0:0|3:0,0:0:0:0:
247,69,36173,1,8,0:0:0:0:
438,205,36323,1,0,3:0:0:0:
355,51,36473,5,4,3:0:0:0:
295,225,36623,1,8,0:0:0:0:
295,225,36698,1,8,0:0:0:0:
295,225,36773,1,8,0:0:0:0:
450,112,36923,1,8,0:0:0:0:
165,51,37073,6,0,L|100:37,1,63,4|0,3:0|0:0,0:0:0:0:
35,25,37673,6,0,B|-22:70|-15:142|21:188|21:188|14:194|14:194|78:193|141:248|123:333|123:333|114:272|48:255,1,485.999985168458,4|0,3:0|0:0,0:0:0:0:
3,348,38873,6,0,L|47:338,3,40.4999987640381,2|0|0|0,3:0|3:0|3:0|3:0,0:0:0:0:
159,248,39173,2,0,L|189:282,3,40.4999987640381,0|0|0|0,3:0|3:0|3:0|3:0,0:0:0:0:
276,354,39473,1,2,3:0:0:0:
295,343,39548,1,0,3:0:0:0:
314,342,39623,1,0,3:0:0:0:
331,348,39698,1,0,3:0:0:0:
344,360,39773,5,0,3:0:0:0:
335,320,39848,1,0,3:0:0:0:
327,280,39923,1,0,3:0:0:0:
318,241,39998,1,0,3:0:0:0:
310,201,40073,6,0,B|322:135|389:145|389:145|388:182|360:204,1,161.999995056153,4|0,3:0|0:0,0:0:0:0:
225,247,40373,2,0,L|139:227,1,80.9999975280763,10|0,0:0|3:0,0:0:0:0:
0,197,40673,1,0,3:0:0:0:
114,72,40823,2,0,B|111:55|125:33|125:33|104:46|85:46,1,80.9999975280763,0|10,3:0|0:0,0:0:0:0:
227,146,41123,6,0,B|266:165|302:142|302:142|329:98|381:108,1,161.999995056153,0|0,3:0|3:0,0:0:0:0:
439,271,41573,2,0,B|412:221|371:193|371:193|401:214|446:207,1,161.999995056153,10|0,0:0|3:0,0:0:0:0:
495,334,42023,2,0,B|485:352|485:373|485:373|473:357|439:353,1,80.9999975280763,0|10,3:0|0:0,0:0:0:0:
502,213,42323,1,0,3:0:0:0:
375,326,42473,6,0,L|290:308,1,80.9999975280763,0|0,3:0|3:0,0:0:0:0:
153,210,42773,2,0,L|237:192,1,80.9999975280763,10|0,0:0|3:0,0:0:0:0:
136,333,43073,2,0,B|82:321|87:268|87:268|104:287|129:287,1,121.499996292114,0|0,3:0|0:0,0:0:0:0:
193,283,43373,1,10,0:0:0:0:
314,209,43523,6,0,B|329:167|296:130|296:130|248:111|251:61,1,161.999995056153,0|0,3:0|3:0,0:0:0:0:
400,33,43973,2,0,B|296:6|296:6|332:32|329:69,1,161.999995056153,10|0,0:0|3:0,0:0:0:0:
512,102,44423,2,0,L|494:19,1,80.9999975280763,0|10,3:0|0:0,0:0:0:0:
401,156,44723,1,0,3:0:0:0:
251,73,44873,6,0,B|193:85|193:85|190:88|190:88|118:104,1,121.499996292114,0|0,3:0|0:0,0:0:0:0:
66,63,45173,2,0,B|60:35|34:17|34:17|76:15|106:37,1,121.499996292114,10|0,0:0|0:0,0:0:0:0:
68,144,45473,2,0,L|85:224,1,80.9999975280763,0|0,3:0|3:0,0:0:0:0:
120,378,45773,1,10,0:0:0:0:
235,238,45923,6,0,B|279:214|316:254|308:258|346:305|398:279,1,161.999995056153,0|0,3:0|3:0,0:0:0:0:
208,338,46373,2,0,B|177:330|180:294|180:294|193:305|206:307,1,80.9999975280763,10|0,0:0|3:0,0:0:0:0:
386,184,46673,2,0,B|417:184|423:149|423:149|408:156|395:155,1,80.9999975280763,0|0,3:0|3:0,0:0:0:0:
138,74,46973,2,0,B|106:74|100:39|100:39|115:46|128:45,1,80.9999975280763,10|0,0:0|3:0,0:0:0:0:
345,0,47273,6,0,L|312:153,1,148.50000453186,4|0,0:0|0:0,0:0:0:0:
298,219,47573,1,8,0:0:0:0:
432,82,47723,1,0,3:0:0:0:
171,162,47873,2,0,L|203:315,1,148.50000453186,0|0,3:0|0:0,0:0:0:0:
218,381,48173,1,8,0:0:0:0:
84,244,48323,1,0,3:0:0:0:
321,340,48473,6,0,B|358:321|360:272|360:272|338:294|310:294,1,121.499996292114,0|0,3:0|0:0,0:0:0:0:
298,219,48773,2,0,L|251:228,1,40.4999987640381,8|0,0:0|0:0,0:0:0:0:
84,244,48923,2,0,B|45:228|38:180|38:180|62:200|90:197,1,121.499996292114,8|0,0:0|0:0,0:0:0:0:
171,162,49223,1,8,0:0:0:0:
61,350,49373,1,8,0:0:0:0:
201,307,49523,1,0,3:0:0:0:
98,119,49673,6,0,B|124:68|193:68|193:68|208:98|251:110,1,161.999995056153,4|0,3:0|0:0,0:0:0:0:
333,50,49973,2,0,P|299:25|255:39,1,80.9999975280763,10|0,0:0|3:0,0:0:0:0:
298,219,50273,1,0,3:0:0:0:
478,109,50423,2,0,L|461:24,1,80.9999975280763,0|10,3:0|0:0,0:0:0:0:
382,227,50723,6,0,B|365:303|365:303|368:306|368:306|348:396,1,161.999995056153,0|0,3:0|3:0,0:0:0:0:
511,253,51173,2,0,B|517:193|452:179|452:179|474:210|463:253,1,161.999995056153,10|0,0:0|3:0,0:0:0:0:
351,384,51623,2,0,L|440:365,1,80.9999975280763,0|10,3:0|0:0,0:0:0:0:
382,227,51923,1,0,3:0:0:0:
201,317,52073,6,0,L|290:335,1,80.9999975280763,4|0,3:0|0:0,0:0:0:0:
33,380,52373,2,0,L|122:361,1,80.9999975280763,10|0,0:0|3:0,0:0:0:0:
104,191,52673,2,0,L|122:278,1,80.9999975280763,0|0,3:0|3:0,0:0:0:0:
0,225,52973,1,10,0:0:0:0:
30,115,53123,1,0,3:0:0:0:
221,218,53273,6,0,B|160:205|160:205|157:202|157:202|90:188,1,121.499996292114,0|0,3:0|0:0,0:0:0:0:
224,137,53573,2,0,L|267:127,1,40.4999987640381,10|0,0:0|2:0,0:0:0:0:
314,68,53723,2,0,L|343:100,1,40.4999987640381,0|0,3:0|2:0,0:0:0:0:
418,111,53873,2,0,B|399:168|399:168|400:172|400:172|376:243,1,121.499996292114,0|0,3:0|0:0,0:0:0:0:
316,290,54173,2,0,L|359:300,1,40.4999987640381,10|0,0:0|2:0,0:0:0:0:
406,359,54323,2,0,L|435:327,1,40.4999987640381,0|0,3:0|2:0,0:0:0:0:
510,316,54473,6,0,B|491:259|491:259|492:255|492:255|468:184,1,121.499996292114,4|0,3:0|0:0,0:0:0:0:
418,111,54773,2,0,B|448:105|478:76|478:76|453:106|457:125,1,121.499996292114,10|0,0:0|0:0,0:0:0:0:
381,226,55073,2,0,L|252:198,1,121.499996292114,0|0,3:0|0:0,0:0:0:0:
184,185,55373,1,10,0:0:0:0:
341,98,55523,1,0,3:0:0:0:
316,290,55673,6,0,L|230:271,1,80.9999975280763,0|0,3:0|0:0,0:0:0:0:
22,255,55973,2,0,L|48:335,1,80.9999975280763,10|0,0:0|3:0,0:0:0:0:
184,185,56273,2,0,L|127:248,1,80.9999975280763,0|0,3:0|0:0,0:0:0:0:
316,290,56573,2,0,L|232:272,1,80.9999975280763,10|0,0:0|3:0,0:0:0:0:
130,358,56873,6,0,B|167:373|199:345|199:345|173:332|166:301,1,121.499996292114,4|0,0:0|0:0,0:0:0:0:
129,245,57173,1,8,0:0:0:0:
0,380,57323,1,0,3:0:0:0:
236,273,57473,2,0,B|225:218|225:218|221:214|221:214|207:147,1,121.499996292114,4|0,3:0|0:0,0:0:0:0:
193,80,57773,1,8,0:0:0:0:
373,195,57923,1,0,3:0:0:0:
305,40,58073,6,0,B|272:41|245:19|245:19|272:44|268:86,1,121.499996292114,0|0,3:0|0:0,0:0:0:0:
343,113,58373,2,0,L|428:94,1,80.9999975280763,8|0,0:0|3:0,0:0:0:0:
236,273,58673,1,8,0:0:0:0:
193,80,58823,1,8,0:0:0:0:
29,202,58973,1,0,3:0:0:0:
83,45,59123,1,0,3:0:0:0:
213,177,59273,6,0,B|80:139|80:139|110:164|111:211,1,188.999994232178,4|0,3:0|0:0,0:0:0:0:
29,202,59573,2,0,L|47:289,1,80.9999975280763,8|2,0:0|0:0,0:0:0:0:
185,384,59873,1,0,3:0:0:0:
154,247,60023,1,0,3:0:0:0:
20,367,60173,2,0,L|106:347,1,80.9999975280763,8|2,0:0|0:0,0:0:0:0:
323,284,60473,5,0,3:0:0:0:
238,262,60623,1,0,3:0:0:0:
262,351,60773,1,8,0:0:0:0:
354,147,60923,1,2,0:0:0:0:
460,356,61073,1,0,3:0:0:0:
429,219,61223,2,0,B|446:183|494:199|494:199|467:211|461:235,1,121.499996292114,0|0,3:0|0:0,0:0:0:0:
405,296,61523,1,2,0:0:0:0:
238,262,61673,6,0,L|256:172,1,80.9999975280763,4|0,3:0|0:0,0:0:0:0:
105,54,61973,2,0,L|123:143,1,80.9999975280763,8|2,0:0|0:0,0:0:0:0:
287,12,62273,2,0,B|325:-4|347:30|341:29|367:65|422:44,1,121.499996292114,0|0,3:0|0:0,0:0:0:0:
466,15,62573,1,8,0:0:0:0:
354,147,62723,1,2,0:0:0:0:
480,175,62873,6,0,L|461:86,1,80.9999975280763,0|0,0:0|3:0,0:0:0:0:
383,247,63173,2,0,B|406:266|436:252|436:252|421:243|419:228,1,80.9999975280763,8|2,0:0|0:0,0:0:0:0:
167,238,63473,2,0,B|139:248|135:281|135:281|150:273|165:279,1,80.9999975280763,0|0,3:0|3:0,0:0:0:0:
273,305,63773,2,0,B|268:334|294:354|294:354|295:337|307:327,1,80.9999975280763,8|2,0:0|0:0,0:0:0:0:
206,98,64073,6,0,B|147:110|147:110|144:113|144:113|67:130,1,121.499996292114,0|0,3:0|0:0,0:0:0:0:
4,144,64373,1,8,0:0:0:0:
116,32,64523,1,2,0:0:0:0:
167,238,64673,1,0,3:0:0:0:
88,125,64823,1,0,3:0:0:0:
244,21,64973,2,0,L|308:34,1,53.9999983520508,8|2,0:0|0:0,0:0:0:0:
475,97,65273,6,0,L|356:122,1,107.999996704102,4|0,3:0|0:0,0:0:0:0:
440,189,65573,1,8,0:0:0:0:
402,31,65723,1,2,0:0:0:0:
243,189,65873,2,0,L|361:214,1,107.999996704102,0|0,3:0|0:0,0:0:0:0:
496,286,66173,2,0,L|431:299,1,53.9999983520508,8|2,0:0|0:0,0:0:0:0:
265,362,66473,6,0,L|383:387,1,107.999996704102,4|0,3:0|3:0,0:0:0:0:
216,274,66773,2,0,B|165:265|132:294|132:294|111:335|61:332,1,161.999995056153,8|0,0:0|0:0,0:0:0:0:
2,307,67073,1,0,3:0:0:0:
160,384,67223,1,0,3:0:0:0:
63,254,67373,2,0,L|81:167,1,80.9999975280763,8|2,0:0|0:0,0:0:0:0:
19,21,67673,6,0,L|67:31,1,40.4999987640381,8|0,0:0|0:0,0:0:0:0:
163,74,67823,2,0,L|114:84,1,40.4999987640381,8|0,0:0|0:0,0:0:0:0:
39,109,67973,2,0,L|-9:98,1,40.4999987640381,8|0,0:0|0:0,0:0:0:0:
220,11,68123,2,0,B|298:27|298:27|299:30|299:30|378:47,1,161.999995056153,4|0,3:0|0:0,0:0:0:0:
452,66,68423,1,8,0:0:0:0:
342,229,68573,1,8,0:0:0:0:
407,329,68723,1,0,3:0:0:0:
465,219,68873,6,0,B|452:175|406:173|406:173|429:200|425:238,1,121.499996292114,4|0,3:0|0:0,0:0:0:0:
342,229,69173,2,0,L|246:208,1,80.9999975280763,10|0,0:0|3:0,0:0:0:0:
135,361,69473,2,0,L|230:340,1,80.9999975280763,0|0,3:0|3:0,0:0:0:0:
135,210,69773,1,10,0:0:0:0:
35,336,69923,1,0,3:0:0:0:
214,344,70073,6,0,L|197:259,1,80.9999975280763,0|0,3:0|3:0,0:0:0:0:
57,82,70373,1,10,0:0:0:0:
18,250,70523,1,0,3:0:0:0:
174,108,70673,1,0,3:0:0:0:
0,172,70823,2,0,L|95:151,1,80.9999975280763,0|10,3:0|0:0,0:0:0:0:
269,117,71123,1,0,3:0:0:0:
198,264,71273,6,0,B|218:261|239:274|239:274|228:253|229:223,1,80.9999975280763,4|0,3:0|3:0,0:0:0:0:
389,238,71573,2,0,L|289:217,1,80.9999975280763,10|0,0:0|3:0,0:0:0:0:
506,208,71873,2,0,B|485:210|464:197|464:197|475:218|474:248,1,80.9999975280763,0|0,3:0|3:0,0:0:0:0:
507,356,72173,1,10,0:0:0:0:
394,152,72323,1,0,3:0:0:0:
360,327,72473,6,0,L|462:305,1,80.9999975280763,0|0,3:0|3:0,0:0:0:0:
106,331,72773,2,0,B|98:352|105:369|105:369|132:364|140:346,1,80.9999975280763,10|0,0:0|3:0,0:0:0:0:
155,191,73073,2,0,B|140:173|122:171|122:171|113:197|125:212,1,80.9999975280763,0|0,3:0|3:0,0:0:0:0:
251,303,73373,2,0,B|273:299|284:284|284:284|266:263|246:266,1,80.9999975280763,10|0,0:0|3:0,0:0:0:0:
124,62,73673,6,0,L|168:272,2,215.999993408203,4|10|0,3:0|0:0|3:0,0:0:0:0:
124,62,74423,1,0,3:0:0:0:
274,154,74573,2,0,B|333:141|333:141|337:138|337:138|390:127,1,121.499996292114,10|0,0:0|0:0,0:0:0:0:
467,117,74873,6,0,L|480:177,1,53.9999983520508,4|0,3:0|0:0,0:0:0:0:
510,25,75173,2,0,L|476:180,1,148.50000453186,10|0,0:0|0:0,0:0:0:0:
449,250,75473,6,0,B|412:242|412:242|401:200,1,80.9999975280763,4|0,3:0|0:0,0:0:0:0:
391,126,75773,2,0,L|338:137,1,40.4999987640381,10|0,0:0|0:0,0:0:0:0:
146,172,75923,1,0,3:0:0:0:
283,279,76073,5,0,3:0:0:0:
283,279,76148,1,0,3:0:0:0:
283,279,76223,2,0,L|273:235,1,40.4999987640381,0|0,3:0|3:0,0:0:0:0:
139,299,76373,1,0,3:0:0:0:
139,299,76448,1,0,3:0:0:0:
139,299,76523,2,0,L|171:269,1,40.4999987640381,0|0,3:0|3:0,0:0:0:0:
277,140,76673,5,8,0:0:0:0:
70,85,76823,1,0,3:0:0:0:
70,85,76898,1,0,3:0:0:0:
70,85,76973,1,0,3:0:0:0:
97,227,77123,1,0,3:0:0:0:
188,52,77273,6,2,L|154:82,1,40.949999750061,4|0,3:0|0:0,1:1:0:0:
157,79,77873,6,0,L|201:65,1,40.4999987640381,0|0,3:0|0:0,0:0:0:0:
390,14,78023,1,8,0:0:0:0:
390,14,78098,1,8,0:0:0:0:
390,14,78173,1,8,0:0:0:0:
274,239,78323,1,0,0:0:0:0:
480,147,78473,5,4,0:0:0:0:
297,14,78623,1,2,3:0:0:0:
274,239,78773,1,10,0:0:0:0:
346,131,78923,1,2,3:0:0:0:
449,328,79073,1,0,3:0:0:0:
403,247,79223,1,2,3:0:0:0:
287,362,79373,2,0,B|345:381|374:328|374:328|339:319|328:275,1,161.999995056153,10|0,0:0|0:0,0:0:0:0:
274,239,79673,6,2,B|192:256|192:256|189:259|189:259|105:276,1,161.999995056153,0|0,3:0|0:0,1:1:0:0:
42,291,79973,1,10,0:0:0:0:
193,157,80123,1,0,3:0:0:0:
44,107,80273,2,0,L|68:224,1,107.999996704102,2|2,3:0|3:0,0:0:0:0:
261,115,80573,2,0,B|255:82|286:43|286:43|251:79|214:81,1,161.999995056153,10|0,0:0|0:0,0:0:0:0:
193,157,80873,5,4,0:0:0:0:
22,0,81023,1,2,3:0:0:0:
44,107,81173,1,10,0:0:0:0:
214,3,81323,1,2,3:0:0:0:
174,254,81473,1,0,3:0:0:0:
65,212,81623,1,2,3:0:0:0:
261,115,81773,2,0,B|298:80|349:112|349:112|368:160|423:156,1,161.999995056153,10|0,0:0|0:0,0:0:0:0:
475,83,82073,6,2,B|470:57|501:31|501:31|438:36|420:91,1,161.999995056153,0|0,3:0|0:0,1:0:0:0:
411,234,82373,2,0,P|465:205|470:151,1,107.999996704102,10|0,0:0|3:0,0:0:0:0:
301,184,82673,1,2,3:0:0:0:
347,384,82823,1,2,3:0:0:0:
486,332,82973,2,0,L|367:306,1,107.999996704102,10|2,0:0|3:0,0:0:0:0:
186,183,83273,6,0,B|213:173|232:142|232:142|218:171|222:192,1,107.999996704102,4|0,0:0|0:0,0:0:0:0:
131,351,83573,2,0,B|108:332|72:331|72:331|104:329|120:315,1,107.999996704102,10|0,0:0|3:0,0:0:0:0:
51,131,83873,2,0,L|77:254,1,107.999996704102,0|0,3:0|3:0,0:0:0:0:
204,72,84173,1,10,0:0:0:0:
23,18,84323,1,0,3:0:0:0:
74,237,84473,6,0,B|114:251|148:214|144:214|174:175|230:186,1,161.999995056153,4|0,3:0|0:0,0:0:0:0:
256,280,84773,2,0,B|229:288|214:316|214:316|222:284|213:256,1,107.999996704102,10|0,0:0|3:0,0:0:0:0:
333,168,85073,1,0,3:0:0:0:
382,365,85223,1,0,3:0:0:0:
512,185,85373,1,10,0:0:0:0:
493,298,85523,1,0,3:0:0:0:
300,92,85673,6,0,B|343:64|392:102|392:102|409:137|446:139,1,161.999995056153,4|0,0:0|0:0,0:0:0:0:
462,66,85973,2,0,L|472:16,1,45,10|0,0:0|0:0,0:0:0:0:
333,168,86123,2,0,L|343:217,1,45,0|0,3:0|0:0,0:0:0:0:
382,365,86273,2,0,B|405:251|405:251|387:279|362:283,1,161.999995056153,0|0,3:0|0:0,0:0:0:0:
256,280,86573,2,0,L|150:301,1,107.999996704102,10|0,0:0|3:0,0:0:0:0:
253,43,86873,6,2,B|270:28|329:43|348:86|348:86|321:79|299:91,1,161.999995056153,0|0,3:0|0:0,1:1:0:0:
238,123,87173,2,0,L|184:111,1,53.9999983520508,10|0,0:0|0:0,0:0:0:0:
53,42,87323,2,0,L|106:30,1,53.9999983520508,0|0,3:0|0:0,0:0:0:0:
175,189,87473,1,0,3:0:0:0:
148,183,87548,1,0,3:0:0:0:
122,177,87623,1,0,3:0:0:0:
95,172,87698,1,0,3:0:0:0:
69,166,87773,2,0,L|81:224,1,53.9999983520508,0|0,3:0|3:0,0:0:0:0:
139,353,87923,2,0,L|151:295,1,53.9999983520508,0|0,3:0|3:0,0:0:0:0:
185,111,88073,5,4,0:0:0:0:
371,280,88223,1,2,3:0:0:0:
455,143,88373,1,10,0:0:0:0:
279,189,88523,1,2,3:0:0:0:
440,355,88673,1,0,3:0:0:0:
471,258,88823,1,2,3:0:0:0:
281,383,88973,2,0,B|242:323|292:283|292:283|290:315|329:345,1,161.999995056153,10|0,0:0|0:0,0:0:0:0:
371,280,89273,6,2,L|204:253,1,161.999995056153,0|0,3:0|0:0,1:1:0:0:
134,240,89573,1,10,0:0:0:0:
281,383,89723,1,0,3:0:0:0:
69,293,89873,2,0,B|74:318|67:348|67:348|90:326|113:325,1,107.999996704102,0|0,3:0|3:0,0:0:0:0:
290,72,90173,2,0,B|333:55|375:86|375:86|401:133|457:117,1,161.999995056153,10|0,0:0|0:0,0:0:0:0:
504,98,90473,5,4,0:0:0:0:
371,280,90623,1,2,3:0:0:0:
193,183,90773,1,10,0:0:0:0:
315,147,90923,1,2,3:0:0:0:
139,44,91073,1,0,3:0:0:0:
212,94,91223,1,2,3:0:0:0:
84,174,91373,2,0,B|33:132|65:75|65:75|78:104|112:119,1,161.999995056153,10|0,0:0|0:0,0:0:0:0:
193,183,91673,6,2,B|207:222|178:260|178:260|120:277|121:337,1,161.999995056153,0|0,3:0|0:0,1:1:0:0:
165,380,91973,2,0,B|191:370|216:385|216:385|199:364|195:335,1,107.999996704102,10|0,0:0|3:0,0:0:0:0:
8,209,92273,1,2,3:0:0:0:
80,384,92423,1,2,3:0:0:0:
298,205,92573,2,0,L|178:179,1,107.999996704102,10|2,0:0|3:0,0:0:0:0:
418,347,92873,6,0,B|455:348|480:367|480:367|462:353|457:320,1,107.999996704102,4|0,3:0|0:0,0:0:0:0:
298,205,93173,2,0,B|278:236|249:248|249:248|270:240|301:252,1,107.999996704102,10|0,0:0|3:0,0:0:0:0:
489,169,93473,2,0,L|464:54,1,107.999996704102,4|0,3:0|0:0,0:0:0:0:
192,182,93773,1,10,0:0:0:0:
234,10,93923,1,0,3:0:0:0:
390,52,94073,6,0,B|346:104|283:74|283:74|307:59|311:17,1,161.999995056153,4|0,3:0|0:0,0:0:0:0:
234,10,94373,2,0,L|120:34,1,107.999996704102,10|0,0:0|3:0,0:0:0:0:
0,146,94673,1,4,3:0:0:0:
192,182,94823,1,0,3:0:0:0:
65,330,94973,1,10,0:0:0:0:
84,218,95123,1,0,3:0:0:0:
249,366,95273,6,0,B|290:380|323:351|323:351|351:299|416:317,1,161.999995056153,4|0,0:0|0:0,0:0:0:0:
454,357,95573,1,10,0:0:0:0:
300,248,95723,1,0,3:0:0:0:
471,169,95873,6,2,L|458:224,1,54,0|0,3:0|0:0,1:0:0:0:
458,221,96173,6,0,L|394:207,1,53.9999983520508,10|0,0:0|0:0,0:0:0:0:
234,93,96323,2,0,L|297:79,1,53.9999983520508,0|0,3:0|0:0,0:0:0:0:
505,17,96473,5,0,3:0:0:0:
331,163,96623,1,0,3:0:0:0:
306,0,96773,1,10,0:0:0:0:
489,91,96923,1,0,3:0:0:0:
338,170,97073,1,0,3:0:0:0:
338,170,97148,1,0,3:0:0:0:
338,170,97223,2,0,L|274:156,1,53.9999983520508,0|0,3:0|3:0,0:0:0:0:
166,48,97373,1,0,3:0:0:0:
166,48,97448,1,0,0:0:0:0:
166,48,97523,2,0,L|121:96,1,53.9999983520508,0|0,3:0|0:0,0:0:0:0:
1,230,97673,6,0,L|107:208,1,107.999996704102,4|2,0:0|3:0,0:0:0:0:
275,382,97973,2,0,L|168:360,1,107.999996704102,10|2,0:0|3:0,0:0:0:0:
234,93,98273,1,0,3:0:0:0:
281,265,98423,1,2,3:0:0:0:
106,208,98573,2,0,L|212:186,1,107.999996704102,10|2,0:0|3:0,0:0:0:0:
512,49,98873,6,0,B|487:12|444:7|405:31|405:31|432:50|436:83,1,161.999995056153,4|0,3:0|0:0,0:0:0:0:
364,100,99173,2,0,L|389:221,1,107.999996704102,8|0,0:0|3:0,0:0:0:0:
430,371,99473,1,0,3:0:0:0:
430,371,99548,1,0,3:0:0:0:
430,371,99623,2,0,L|486:358,1,53.9999983520508,2|0,3:0|3:0,0:0:0:0:
289,272,99773,1,0,3:0:0:0:
289,272,99848,1,0,3:0:0:0:
289,272,99923,2,0,L|233:259,1,53.9999983520508,2|0,3:0|3:0,0:0:0:0:
289,365,100073,5,0,3:0:0:0:
364,100,100223,1,0,3:0:0:0:
439,217,100373,2,0,L|385:205,1,53.9999983520508,0|0,3:0|2:0,0:0:0:0:
168,164,100523,2,0,L|114:152,1,53.9999983520508,0|0,3:0|2:0,0:0:0:0:
364,100,100673,6,0,L|413:93,1,47.2499985580445,4|0,3:0|0:0,0:0:0:0:
410,93,101273,6,0,B|376:11|437:-48|506:-34|526:25|501:55|476:70,1,236.250009012223,4|0,3:0|0:0,0:0:0:0:
410,93,101873,2,0,L|365:83,1,45,0|0,3:0|0:0,0:0:0:0:
172,58,102023,1,8,0:0:0:0:
172,58,102098,1,8,0:0:0:0:
172,58,102173,1,10,0:0:0:0:
339,339,102323,1,8,0:0:0:0:
104,296,102473,1,4,0:0:0:0:
254,192,104873,6,0,L|124:164,1,125.999996154785,4|0,0:0|3:0,0:0:0:0:
303,105,105323,2,0,L|432:77,1,125.999996154785
222,278,105773,2,0,L|143:261,1,62.9999980773926,0|0,3:0|0:0,0:0:0:0:
202,103,106073,5,8,0:0:0:0:
352,195,106223,2,0,L|324:325,1,125.999996154785,0|0,3:0|3:0,0:0:0:0:
207,384,106673,1,0,3:0:0:0:
207,384,106748,1,0,3:0:0:0:
207,384,106823,2,0,L|245:375,1,31.4999990386963,0|0,3:0|0:0,0:0:0:0:
405,331,106973,2,0,L|483:314,1,62.9999980773926,12|0,0:0|0:0,0:0:0:0:
370,113,107273,6,0,B|327:104|299:129|299:129|281:161|238:157,1,125.999996154785,4|0,3:0|0:0,0:0:0:0:
56,104,107723,2,0,B|2:79|22:29|22:29|36:48|66:53,1,125.999996154785,0|0,3:0|3:0,0:0:0:0:
132,199,108173,2,0,L|117:266,1,62.9999980773926,0|0,3:0|0:0,0:0:0:0:
14,209,108473,5,8,0:0:0:0:
134,352,108623,2,0,B|169:343|196:356|196:356|183:327|197:291,1,125.999996154785,0|0,3:0|3:0,0:0:0:0:
50,320,109073,1,8,0:0:0:0:
230,209,109223,1,0,3:0:0:0:
230,209,109298,1,0,0:0:0:0:
230,209,109373,1,0,3:0:0:0:
56,104,109523,1,0,3:0:0:0:
118,260,109673,6,0,L|132:199,1,62.9999980773926,4|0,3:0|3:0,0:0:0:0:
311,52,109973,1,8,0:0:0:0:
384,289,110123,1,0,3:0:0:0:
476,131,110273,1,8,0:0:0:0:
230,209,110423,1,0,3:0:0:0:
351,140,110573,2,0,L|338:202,1,62.9999980773926,8|0,0:0|3:0,0:0:0:0:
170,40,110873,6,0,B|122:17|81:55|81:55|56:112|-2:108|-2:108|23:103|37:68,1,242.999992584229,8|0,0:0|3:0,0:0:0:0:
144,125,111473,1,0,3:0:0:0:
144,125,111548,1,0,3:0:0:0:
144,125,111623,2,0,L|132:176,1,40.4999987640381,0|0,3:0|3:0,0:0:0:0:
105,288,111773,2,0,B|79:222|19:234|19:234|52:258|51:293,1,161.999995056153,8|0,0:0|0:0,0:0:0:0:
47,356,112073,6,0,B|136:416|218:315|206:314|265:210|380:279,1,377.999988464356,4|0,0:0|0:0,0:0:0:0:
493,375,113123,6,0,L|507:306,2,62.9999980773926,8|0|0,0:0|3:0|3:0,0:0:0:0:
367,218,113573,2,0,L|381:286,2,62.9999980773926,8|0|0,0:0|3:0|3:0,0:0:0:0:
488,25,114023,1,8,0:0:0:0:
452,191,114173,1,8,0:0:0:0:
338,26,114323,1,8,0:0:0:0:
512,118,114473,6,0,L|421:98,1,80.9999975280763,4|0,3:0|3:0,0:0:0:0:
287,234,114773,2,0,L|377:214,1,80.9999975280763,10|0,0:0|3:0,0:0:0:0:
231,56,115073,2,0,B|220:5|268:-10|268:-10|255:14|263:35,1,121.499996292114,0|0,3:0|0:0,0:0:0:0:
303,97,115373,1,10,0:0:0:0:
148,17,115523,6,0,B|102:4|67:40|67:40|45:84|-14:77,1,161.999995056153,0|0,3:0|3:0,0:0:0:0:
98,286,115973,2,0,B|31:268|42:205|42:205|54:232|86:241,1,161.999995056153,10|0,0:0|3:0,0:0:0:0:
129,90,116423,2,0,L|110:176,1,80.9999975280763,0|10,3:0|0:0,0:0:0:0:
0,2,116723,1,0,3:0:0:0:
231,56,116873,6,0,B|287:43|287:43|290:41|290:41|358:26,1,121.499996292114,4|0,3:0|0:0,0:0:0:0:
431,38,117173,2,0,B|434:60|461:86|461:86|431:73|399:89,1,121.499996292114,10|0,0:0|0:0,0:0:0:0:
326,110,117473,2,0,L|343:190,1,80.9999975280763,0|0,3:0|3:0,0:0:0:0:
385,362,117773,1,10,0:0:0:0:
439,234,117923,6,0,B|439:193|473:170|518:170|538:188|539:216|504:239,1,161.999995056153,0|0,3:0|3:0,0:0:0:0:
280,285,118373,2,0,B|265:257|235:264|235:264|250:283|247:303,1,80.9999975280763,10|0,0:0|3:0,0:0:0:0:
26,374,118673,2,0,B|57:375|66:345|66:345|42:349|26:336,1,80.9999975280763,0|0,3:0|3:0,0:0:0:0:
75,109,118973,2,0,B|58:135|79:158|79:158|88:135|107:128,1,80.9999975280763,10|0,0:0|3:0,0:0:0:0:
280,285,119273,6,0,L|121:251,1,161.999995056153,4|0,3:0|0:0,0:0:0:0:
48,235,119573,1,10,0:0:0:0:
146,384,119723,1,0,3:0:0:0:
280,172,119873,2,0,L|438:138,1,161.999995056153,0|0,3:0|0:0,0:0:0:0:
512,122,120173,1,10,0:0:0:0:
410,269,120323,1,0,3:0:0:0:
244,67,120473,6,0,B|200:61|171:44|171:44|201:65|207:96,1,121.499996292114,0|0,3:0|0:0,0:0:0:0:
280,172,120773,2,0,L|319:163,1,40.4999987640381,8|0,0:0|0:0,0:0:0:0:
280,285,120923,2,0,B|245:311|228:341|228:341|243:307|233:278,1,121.499996292114,8|0,0:0|0:0,0:0:0:0:
161,296,121223,1,8,0:0:0:0:
132,112,121373,1,8,0:0:0:0:
280,172,121523,1,0,3:0:0:0:
87,331,121673,6,0,B|56:296|74:256|74:256|129:228|119:172,1,161.999995056153,4|0,3:0|0:0,0:0:0:0:
29,103,121973,2,0,L|46:188,1,80.9999975280763,10|0,0:0|3:0,0:0:0:0:
87,331,122273,1,0,3:0:0:0:
197,151,122423,2,0,P|170:121|132:112,1,80.9999975280763,0|10,3:0|0:0,0:0:0:0:
237,297,122723,6,0,B|275:307|309:272|302:270|338:218|393:238,1,161.999995056153,0|0,3:0|3:0,0:0:0:0:
487,384,123173,2,0,B|418:395|406:322|406:322|428:338|454:335,1,161.999995056153,10|0,0:0|3:0,0:0:0:0:
482,156,123623,2,0,B|504:156|521:142|521:142|509:162|509:188,1,80.9999975280763,0|10,3:0|0:0,0:0:0:0:
452,261,123923,1,0,3:0:0:0:
324,120,124073,6,0,B|302:120|285:106|285:106|297:126|296:142,1,80.9999975280763,4|0,3:0|0:0,0:0:0:0:
447,36,124373,2,0,B|469:36|486:22|486:22|474:42|474:58,1,80.9999975280763,10|0,0:0|3:0,0:0:0:0:
378,234,124673,2,0,L|283:213,1,80.9999975280763,0|0,3:0|3:0,0:0:0:0:
403,140,124973,1,10,0:0:0:0:
278,347,125123,1,0,3:0:0:0:
220,150,125273,6,0,B|186:139|154:156|154:156|134:189|88:195,1,121.499996292114,0|0,3:0|0:0,0:0:0:0:
39,199,125573,2,0,P|18:195|1:176,1,40.4999987640381,10|0,0:0|2:0,0:0:0:0:
50,100,125723,2,0,P|70:103|87:122,1,40.4999987640381,0|0,3:0|2:0,0:0:0:0:
197,232,125873,2,0,B|179:256|189:290|189:290|160:266|121:275,1,121.499996292114,0|0,3:0|0:0,0:0:0:0:
51,280,126173,2,0,P|28:282|12:305,1,40.4999987640381,10|0,0:0|2:0,0:0:0:0:
98,361,126323,2,0,P|121:359|137:336,1,40.4999987640381,0|0,3:0|2:0,0:0:0:0:
265,266,126473,6,0,B|325:278|325:278|326:282|326:282|403:298,1,121.499996292114,4|0,3:0|0:0,0:0:0:0:
494,320,126773,2,0,B|474:367|431:355|431:355|449:337|452:310,1,121.499996292114,10|0,0:0|0:0,0:0:0:0:
442,242,127073,2,0,L|469:112,1,121.499996292114,0|0,3:0|0:0,0:0:0:0:
484,45,127373,1,10,0:0:0:0:
295,140,127523,1,0,3:0:0:0:
371,198,127673,6,0,L|387:118,1,80.9999975280763,4|0,3:0|0:0,0:0:0:0:
277,242,127973,2,0,L|295:335,1,80.9999975280763,10|0,0:0|3:0,0:0:0:0:
79,299,128273,2,0,L|-11:268,1,80.9999975280763,0|0,3:0|0:0,0:0:0:0:
195,328,128573,2,0,L|123:390,1,80.9999975280763,10|0,0:0|3:0,0:0:0:0:
371,198,128873,6,0,B|382:141|382:141|385:138|385:138|398:63,1,121.499996292114,4|0,0:0|0:0,0:0:0:0:
411,3,129173,1,8,0:0:0:0:
512,158,129323,1,0,3:0:0:0:
312,90,129473,2,0,B|281:83|253:100|253:100|234:137|196:137,1,121.499996292114,4|0,3:0|0:0,0:0:0:0:
135,115,129773,1,8,0:0:0:0:
253,262,129923,1,0,3:0:0:0:
76,231,130073,6,0,B|47:206|67:160|67:160|81:184|116:191,1,121.499996292114,0|0,3:0|0:0,0:0:0:0:
178,222,130373,2,0,L|157:319,1,80.9999975280763,8|0,0:0|3:0,0:0:0:0:
40,352,130673,1,8,0:0:0:0:
253,262,130823,1,8,0:0:0:0:
61,85,130973,1,0,3:0:0:0:
76,231,131123,1,0,3:0:0:0:
216,28,131273,6,0,B|266:-12|329:14|336:74|336:74|305:86|299:111,1,188.999994232178,4|0,3:0|0:0,0:0:0:0:
215,132,131573,2,0,L|125:112,1,80.9999975280763,8|2,0:0|0:0,0:0:0:0:
266,340,131873,1,0,3:0:0:0:
446,227,132023,1,0,3:0:0:0:
371,371,132173,2,0,L|350:273,1,80.9999975280763,8|2,0:0|0:0,0:0:0:0:
311,89,132473,5,0,3:0:0:0:
338,215,132623,1,0,3:0:0:0:
429,109,132773,1,8,0:0:0:0:
192,190,132923,1,2,0:0:0:0:
293,0,133073,1,0,3:0:0:0:
446,227,133223,2,0,B|488:213|487:165|487:165|463:187|439:185,1,121.499996292114,0|0,3:0|0:0,0:0:0:0:
429,109,133523,1,2,0:0:0:0:
258,231,133673,6,0,L|343:212,1,80.9999975280763,4|0,3:0|0:0,0:0:0:0:
135,114,133973,2,0,L|49:95,1,80.9999975280763,8|2,0:0|0:0,0:0:0:0:
117,375,134273,2,0,L|90:256,1,121.499996292114,0|0,3:0|0:0,0:0:0:0:
74,181,134573,1,8,0:0:0:0:
26,311,134723,1,2,0:0:0:0:
192,190,134873,6,0,L|175:269,1,80.9999975280763,0|0,0:0|3:0,0:0:0:0:
8,122,135173,2,0,B|-22:108|-7:73|-7:73|6:86|25:93,1,80.9999975280763,8|2,0:0|0:0,0:0:0:0:
254,110,135473,2,0,B|281:91|303:121|303:121|286:126|270:139,1,80.9999975280763,0|0,3:0|3:0,0:0:0:0:
128,45,135773,2,0,B|125:12|162:7|162:7|158:25|161:45,1,80.9999975280763,8|2,0:0|0:0,0:0:0:0:
260,251,136073,6,0,B|320:237|320:237|321:234|321:234|378:221,1,121.499996292114,4|0,3:0|0:0,0:0:0:0:
458,201,136373,1,8,0:0:0:0:
292,345,136523,1,2,0:0:0:0:
281,130,136673,1,0,3:0:0:0:
431,282,136823,1,0,3:0:0:0:
260,251,136973,2,0,L|204:239,1,53.9999983520508,8|2,0:0|0:0,0:0:0:0:
39,209,137273,6,0,L|146:186,1,107.999996704102,4|0,3:0|0:0,0:0:0:0:
17,123,137573,1,8,0:0:0:0:
125,281,137723,1,2,0:0:0:0:
281,130,137873,2,0,L|173:107,1,107.999996704102,0|0,3:0|0:0,0:0:0:0:
72,292,138173,2,0,L|128:280,1,53.9999983520508,8|2,0:0|0:0,0:0:0:0:
304,49,138473,6,0,L|197:26,1,99.0000030212403,4|0,3:0|3:0,0:0:0:0:
300,285,138773,2,0,B|340:287|362:322|362:322|347:282|362:251,1,148.50000453186,8|0,0:0|0:0,0:0:0:0:
300,205,139073,1,0,3:0:0:0:
291,362,139223,1,0,3:0:0:0:
431,282,139373,2,0,L|447:202,1,80.9999975280763,8|2,0:0|0:0,0:0:0:0:
391,22,139673,6,0,L|405:65,1,40.4999987640381,8|0,0:0|0:0,0:0:0:0:
372,172,139823,2,0,L|402:137,1,40.4999987640381,8|0,0:0|0:0,0:0:0:0:
512,113,139973,2,0,L|467:103,1,40.4999987640381,8|0,0:0|0:0,0:0:0:0:
304,49,140123,2,0,B|226:65|226:65|224:68|224:68|148:85,1,161.999995056153,4|0,3:0|0:0,0:0:0:0:
73,102,140423,1,8,0:0:0:0:
183,265,140573,1,8,0:0:0:0:
118,365,140723,1,0,3:0:0:0:
8,204,140873,6,0,B|18:181|1:145|1:145|23:178|68:189,1,121.499996292114,4|0,3:0|0:0,0:0:0:0:
115,208,141173,2,0,L|97:292,1,80.9999975280763,10|0,0:0|3:0,0:0:0:0:
283,384,141473,2,0,L|265:299,1,80.9999975280763,0|0,3:0|3:0,0:0:0:0:
417,182,141773,1,10,0:0:0:0:
386,321,141923,1,0,3:0:0:0:
257,212,142073,6,0,L|355:192,1,80.9999975280763,0|0,3:0|3:0,0:0:0:0:
512,121,142373,1,10,0:0:0:0:
322,77,142523,1,0,3:0:0:0:
417,182,142673,1,0,3:0:0:0:
451,16,142823,2,0,L|433:101,1,80.9999975280763,0|10,3:0|0:0,0:0:0:0:
386,321,143123,1,0,3:0:0:0:
257,212,143273,6,0,B|249:184|219:179|219:179|225:197|222:211,1,80.9999975280763,4|0,3:0|3:0,0:0:0:0:
134,304,143573,2,0,L|150:224,1,80.9999975280763,10|0,0:0|3:0,0:0:0:0:
21,314,143873,2,0,B|29:342|59:347|59:347|53:329|56:315,1,80.9999975280763,0|0,3:0|3:0,0:0:0:0:
104,159,144173,1,10,0:0:0:0:
194,363,144323,1,0,3:0:0:0:
150,224,144473,6,0,L|134:304,1,80.9999975280763,0|0,3:0|3:0,0:0:0:0:
296,69,144773,2,0,B|278:65|263:47|263:47|270:70|264:86,1,80.9999975280763,10|0,0:0|3:0,0:0:0:0:
400,175,145073,2,0,B|414:161|437:157|437:157|413:152|403:139,1,80.9999975280763,0|0,3:0|3:0,0:0:0:0:
256,211,145373,2,0,B|261:230|253:252|253:252|270:234|287:232,1,80.9999975280763,10|0,0:0|3:0,0:0:0:0:
364,365,145673,6,0,L|317:143,2,215.999993408203,4|10|0,3:0|0:0|3:0,0:0:0:0:
364,365,146423,1,0,3:0:0:0:
181,223,146573,2,0,B|120:235|120:235|117:238|117:238|38:255,1,121.499996292114,10|0,0:0|0:0,0:0:0:0:
20,157,146873,6,0,L|32:98,1,53.9999983520508,4|0,3:0|0:0,0:0:0:0:
63,250,147173,2,0,L|27:82,1,148.50000453186,10|0,0:0|0:0,0:0:0:0:
47,30,147473,6,0,B|90:41|90:41|108:89,1,80.9999975280763,4|0,3:0|0:0,0:0:0:0:
119,148,147773,2,0,L|161:139,1,40.4999987640381,10|0,0:0|0:0,0:0:0:0:
358,110,147923,1,0,3:0:0:0:
210,41,148073,5,0,3:0:0:0:
210,41,148148,1,0,3:0:0:0:
210,41,148223,2,0,L|223:84,1,40.4999987640381,0|0,3:0|3:0,0:0:0:0:
301,184,148373,1,0,3:0:0:0:
301,184,148448,1,0,3:0:0:0:
301,184,148523,2,0,L|287:227,1,40.4999987640381,0|0,3:0|3:0,0:0:0:0:
207,353,148673,5,8,0:0:0:0:
238,317,148748,1,0,3:0:0:0:
283,311,148823,1,0,3:0:0:0:
321,323,148898,1,0,3:0:0:0:
347,353,148973,1,0,3:0:0:0:
375,375,149048,1,0,3:0:0:0:
410,377,149123,1,0,3:0:0:0:
443,365,149198,1,0,3:0:0:0:
453,349,149273,6,2,L|443:303,1,47.2499985580445,4|0,3:0|0:0,1:0:0:0:
443,302,149873,6,0,L|394:313,1,40.4999987640381,0|0,3:0|0:0,0:0:0:0:
214,360,150023,1,8,0:0:0:0:
214,360,150098,1,8,0:0:0:0:
214,360,150173,1,8,0:0:0:0:
379,206,150323,1,0,0:0:0:0:
163,140,150473,5,4,0:0:0:0:
82,335,150623,1,2,3:0:0:0:
286,173,150773,1,10,0:0:0:0:
219,42,150923,1,2,3:0:0:0:
74,120,151073,1,0,3:0:0:0:
102,208,151223,1,2,3:0:0:0:
323,77,151373,2,0,B|347:22|421:46|421:46|396:67|401:94,1,161.999995056153,10|0,0:0|0:0,0:0:0:0:
474,112,151673,6,2,B|458:183|458:183|460:188|460:188|441:279,1,161.999995056153,0|0,3:0|0:0,1:0:0:0:
425,347,151973,1,10,0:0:0:0:
286,173,152123,1,0,3:0:0:0:
291,342,152273,2,0,B|328:341|343:356|343:356|337:330|358:301,1,107.999996704102,2|2,3:0|3:0,0:0:0:0:
237,106,152573,2,0,B|196:112|155:99|155:99|194:123|204:173,1,161.999995056153,10|0,0:0|0:0,0:0:0:0:
286,173,152873,5,4,0:0:0:0:
461,37,153023,1,2,3:0:0:0:
443,270,153173,1,10,0:0:0:0:
317,96,153323,1,2,3:0:0:0:
439,177,153473,1,0,3:0:0:0:
361,227,153623,1,2,3:0:0:0:
428,384,153773,2,0,B|494:378|508:313|508:313|482:350|446:338,1,161.999995056153,10|0,0:0|0:0,0:0:0:0:
374,321,154073,6,2,B|297:337|297:337|293:342|293:342|204:361,1,161.999995056153,0|0,3:0|0:0,1:0:0:0:
137,380,154373,2,0,L|161:271,1,107.999996704102,10|0,0:0|3:0,0:0:0:0:
0,154,154673,1,2,3:0:0:0:
49,350,154823,1,2,3:0:0:0:
177,190,154973,2,0,L|61:213,1,107.999996704102,10|2,0:0|3:0,0:0:0:0:
374,321,155273,6,0,B|408:324|425:288|425:288|394:292|374:278,1,107.999996704102,4|0,0:0|0:0,0:0:0:0:
160,274,155573,2,0,B|140:301|162:334|162:334|174:305|196:295,1,107.999996704102,10|0,0:0|3:0,0:0:0:0:
409,209,155873,2,0,L|386:103,1,107.999996704102,0|0,3:0|3:0,0:0:0:0:
303,265,156173,1,10,0:0:0:0:
498,179,156323,1,0,3:0:0:0:
407,29,156473,6,0,B|360:14|328:48|328:48|300:94|241:84,1,161.999995056153,4|0,3:0|0:0,0:0:0:0:
218,24,156773,2,0,B|216:10|197:-8|197:-8|242:-18|266:17,1,107.999996704102,10|0,0:0|3:0,0:0:0:0:
97,237,157073,1,0,3:0:0:0:
150,57,157223,1,0,3:0:0:0:
303,265,157373,1,10,0:0:0:0:
284,174,157523,1,0,3:0:0:0:
152,366,157673,6,0,B|61:310|61:310|87:323|131:313,1,161.999995056153,4|0,0:0|0:0,0:0:0:0:
141,227,157973,2,0,L|87:238,1,45,10|0,0:0|0:0,0:0:0:0:
0,127,158123,2,0,L|53:138,1,45,0|0,3:0|0:0,0:0:0:0:
284,174,158273,2,2,B|360:157|360:157|363:154|363:154|444:136,1,161.999995056153,0|0,3:0|0:0,1:0:0:0:
510,177,158573,2,0,B|486:207|486:207|418:223,1,107.999996704102,10|0,0:0|3:0,0:0:0:0:
140,147,158873,6,2,B|140:105|190:83|236:102|236:102|211:119|208:147,1,161.999995056153,0|0,3:0|0:0,1:0:0:0:
284,174,159173,2,0,L|272:226,1,53.9999983520508,10|0,0:0|0:0,0:0:0:0:
185,335,159323,2,0,L|173:282,1,53.9999983520508,0|0,3:0|0:0,0:0:0:0:
348,223,159473,1,0,3:0:0:0:
342,249,159548,1,0,3:0:0:0:
336,275,159623,1,0,3:0:0:0:
331,302,159698,1,0,3:0:0:0:
325,328,159773,2,0,L|379:316,1,53.9999983520508,0|0,3:0|3:0,0:0:0:0:
510,177,159923,2,0,L|455:165,1,53.9999983520508,0|0,3:0|3:0,0:0:0:0:
212,129,160073,5,4,0:0:0:0:
418,9,160223,1,2,3:0:0:0:
367,148,160373,1,10,0:0:0:0:
238,27,160523,1,2,3:0:0:0:
96,191,160673,1,0,3:0:0:0:
16,118,160823,1,2,3:0:0:0:
212,129,160973,2,0,B|245:159|234:204|234:204|188:231|204:291,1,161.999995056153,10|0,0:0|0:0,0:0:0:0:
260,339,161273,6,2,B|301:343|333:276|333:276|301:253|262:274,1,161.999995056153,0|0,3:0|0:0,1:0:0:0:
174,347,161573,1,10,0:0:0:0:
96,191,161723,1,0,3:0:0:0:
15,308,161873,2,0,L|132:283,1,107.999996704102,2|2,3:0|3:0,0:0:0:0:
248,53,162173,2,0,B|207:28|164:55|164:55|141:100|94:90,1,161.999995056153,10|0,0:0|0:0,0:0:0:0:
46,44,162473,5,4,0:0:0:0:
212,129,162623,1,2,3:0:0:0:
120,285,162773,1,10,0:0:0:0:
96,191,162923,1,2,3:0:0:0:
276,267,163073,1,0,3:0:0:0:
251,354,163223,1,2,3:0:0:0:
301,180,163373,2,0,B|316:145|363:137|397:166|397:166|360:182|355:218,1,161.999995056153,10|0,0:0|0:0,0:0:0:0:
276,267,163673,6,2,B|236:264|201:295|201:295|240:248|229:218,1,161.999995056153,0|0,3:0|0:0,1:0:0:0:
426,242,163973,2,0,L|401:356,1,107.999996704102,10|0,0:0|3:0,0:0:0:0:
301,180,164273,1,2,3:0:0:0:
270,8,164423,1,2,3:0:0:0:
470,94,164573,2,0,L|346:67,1,107.999996704102,10|2,0:0|3:0,0:0:0:0:
169,150,164873,6,0,B|173:189|218:202|218:202|212:168|231:143,1,107.999996704102,4|0,0:0|0:0,0:0:0:0:
50,15,165173,2,0,B|13:-1|-20:31|-20:31|11:43|24:72,1,107.999996704102,10|0,0:0|3:0,0:0:0:0:
258,94,165473,2,0,L|382:67,1,107.999996704102,4|0,3:0|0:0,0:0:0:0:
422,329,165773,1,10,0:0:0:0:
308,173,165923,1,0,3:0:0:0:
470,94,166073,6,0,B|454:167|454:167|456:176|456:176|437:266,1,161.999995056153,4|0,3:0|0:0,0:0:0:0:
422,329,166373,2,0,B|459:336|468:352|468:352|468:334|496:304,1,107.999996704102,10|0,0:0|3:0,0:0:0:0:
308,173,166673,1,4,3:0:0:0:
144,282,166823,1,0,3:0:0:0:
321,370,166973,1,10,0:0:0:0:
258,273,167123,1,0,3:0:0:0:
103,356,167273,6,2,B|65:343|22:356|22:356|57:331|63:287,1,161.999995056153,4|0,0:0|0:0,1:0:0:0:
91,216,167573,1,10,0:0:0:0:
206,384,167723,1,0,3:0:0:0:
308,173,167873,1,0,3:0:0:0:
281,178,167948,1,0,3:0:0:0:
255,184,168023,1,0,3:0:0:0:
228,189,168098,1,0,3:0:0:0:
202,195,168173,2,0,L|213:140,1,53.9999983520508,0|0,3:0|3:0,0:0:0:0:
125,0,168323,2,0,L|136:55,1,53.9999983520508,0|0,3:0|3:0,0:0:0:0:
280,56,168473,5,0,3:0:0:0:
280,56,168548,1,0,3:0:0:0:
280,56,168623,2,0,L|221:43,1,53.9999983520508,0|0,3:0|3:0,0:0:0:0:
402,95,168773,1,0,3:0:0:0:
402,95,168848,1,0,3:0:0:0:
402,95,168923,2,0,L|461:82,1,53.9999983520508,0|0,3:0|3:0,0:0:0:0:
440,201,169073,1,0,3:0:0:0:
413,196,169148,1,0,3:0:0:0:
387,190,169223,1,0,3:0:0:0:
360,185,169298,1,0,3:0:0:0:
334,179,169373,6,0,L|349:250,1,67.5,0|0,3:0|0:0,0:0:0:0:
348,245,169673,1,4,0:0:0:0:
348,245,173648,6,0,L|341:212,2,22.5,0|0|0,3:0|3:0|3:0,0:0:0:0:
352,264,173873,2,0,L|309:255,1,36,8|0,0:0|0:0,0:0:0:0:
136,234,174023,1,8,0:0:0:0:
136,234,174473,6,0,B|82:209|32:246|32:246|41:137|111:85|209:114|209:114|213:111|213:111|245:147|280:167|335:186|422:97|386:16|321:-23|257:-12|224:37,1,755.999976928712,4|0,0:0|0:0,0:0:0:0:
353,350,176873,2,0,B|393:325|404:258|358:212|286:203|242:244|271:289|259:286|203:335|153:308|153:308|186:298|194:278,1,377.999988464356,0|0,2:0|3:0,0:0:0:0:
136,234,178073,6,0,L|140:212,1,18
0,268,178373,1,0,3:0:0:0:
22,374,178523,2,0,L|-1:264,1,107.999996704102,0|0,3:0|3:0,0:0:0:0:
101,362,178973,2,0,L|88:302,1,53.9999983520508,0|0,3:0|0:0,0:0:0:0:
178,352,179273,6,0,B|187:275|268:250|336:274|336:274|346:327|414:353|461:323|461:323|464:324|464:324|491:252|432:191|359:204|359:204|363:202|363:202|333:177|325:117|372:84|421:83|446:125,1,755.999976928712,4|0,0:0|0:0,0:0:0:0:
442,119,181673,5,0,3:0:0:0:
337,34,181823,1,0,3:0:0:0:
337,34,181973,2,0,L|348:88,1,53.9999983520508,2|0,0:0|0:0,0:0:0:0:
427,40,182273,1,0,3:0:0:0:
276,136,182423,2,0,L|264:81,1,53.9999983520508,2|0,0:0|3:0,0:0:0:0:
181,132,182723,1,2,0:0:0:0:
255,3,182873,6,0,L|212:11,3,26.9999991760254,0|0|0|0,3:0|3:0|3:0|3:0,0:0:0:0:
148,25,183173,1,0,3:0:0:0:
181,132,183323,1,0,3:0:0:0:
70,128,183473,2,0,L|79:83,3,26.9999991760254,0|0|0|0,3:0|3:0|3:0|3:0,0:0:0:0:
85,205,183773,1,0,3:0:0:0:
37,39,183923,1,0,3:0:0:0:
181,132,184073,6,0,B|194:50|279:14|356:43|385:91|361:165|295:172,1,323.999990112305,4|0,0:0|0:0,0:0:0:0:
273,331,185273,2,0,B|209:309|211:237|241:201|241:201|255:234|296:243,1,215.999993408203,4|0,0:0|0:0,0:0:0:0:
369,256,186248,1,0,3:0:0:0:
366,269,186323,1,0,3:0:0:0:
363,282,186398,1,0,3:0:0:0:
360,295,186473,6,0,L|444:277,1,62.9999980773926,4|0,3:0|3:0,0:0:0:0:
495,345,186773,1,0,3:0:0:0:
470,200,186923,2,0,L|527:263,1,62.9999980773926,0|0,3:0|3:0,0:0:0:0:
495,345,187223,1,0,3:0:0:0:
336,373,187373,2,0,P|299:353|287:322,1,62.9999980773926,12|0,0:0|0:0,0:0:0:0:
282,239,187673,5,8,0:0:0:0:
168,320,187823,2,0,P|107:375|34:344,1,161.999995056153,8|0,0:0|0:0,0:0:0:0:
23,263,188123,2,0,P|84:208|157:239,1,161.999995056153,8|0,0:0|0:0,0:0:0:0:
96,298,188423,6,0,L|94:279,10,15.7499995193482,8|0|0|0|0|0|0|0|0|0|0,0:0|0:0|0:0|0:0|0:0|0:0|0:0|0:0|0:0|0:0|0:0,0:0:0:0:
23,263,188873,6,0,B|33:196|33:196|35:193|35:193|48:106,1,144,4|0,0:0|2:0,0:0:0:0:
99,47,189323,2,0,L|25:31,1,72,0|0,0:0|2:0,0:0:0:0:
134,131,189623,1,0,0:0:0:0:
261,39,189773,2,0,L|187:54,1,72,0|0,0:0|2:0,0:0:0:0:
379,141,190073,6,0,B|269:116|269:116|296:115|318:87,1,144,8|0,0:0|2:0,0:0:0:0:
433,78,190523,2,0,B|447:79|468:71|468:71|457:89|458:106,1,72,0|0,0:0|2:0,0:0:0:0:
413,214,190823,2,0,B|405:225|401:247|401:247|391:229|376:221,1,72,0|0,0:0|2:0,0:0:0:0:
299,106,191123,1,0,3:0:0:0:
254,254,191273,6,0,B|230:147|230:147|240:168|262:176,1,144,4|0,0:0|2:0,0:0:0:0:
332,283,191723,2,0,L|316:357,1,72,0|0,0:0|2:0,0:0:0:0:
405,368,192023,1,0,0:0:0:0:
234,338,192173,2,0,L|158:321,1,72,0|0,0:0|2:0,0:0:0:0:
252,171,192473,5,8,0:0:0:0:
94,207,192623,2,0,L|171:190,2,72,8|0|0,0:0|3:0|3:0,0:0:0:0:
185,98,193073,1,8,0:0:0:0:
27,134,193223,2,0,L|104:117,2,72,8|0|0,0:0|3:0|3:0,0:0:0:0:
155,24,193673,6,0,B|189:1|231:27|231:27|257:68|305:46,1,144,4|0,0:0|2:0,0:0:0:0:
378,19,194123,2,0,L|361:95,1,72,0|0,0:0|2:0,0:0:0:0:
343,168,194423,1,0,0:0:0:0:
477,138,194573,2,0,L|460:61,1,72,0|0,0:0|2:0,0:0:0:0:
412,257,194873,6,0,B|459:272|497:222|497:222|462:228|430:200,1,144,8|0,0:0|2:0,0:0:0:0:
300,273,195323,2,0,L|316:350,1,72,0|0,0:0|2:0,0:0:0:0:
205,247,195623,2,0,L|221:324,1,72,0|0,0:0|2:0,0:0:0:0:
110,221,195923,1,0,3:0:0:0:
24,348,196073,6,0,B|37:304|80:295|80:295|117:314|154:284,1,144,4|0,0:0|2:0,0:0:0:0:
117,142,196523,2,0,P|78:145|52:168,1,72,0|0,0:0|2:0,0:0:0:0:
205,247,196823,1,0,0:0:0:0:
190,103,196973,2,0,P|167:70|134:59,1,72,0|0,0:0|2:0,0:0:0:0:
260,146,197273,6,0,L|336:129,1,72,8|0,0:0|2:0,0:0:0:0:
474,110,197573,1,0,3:0:0:0:
474,110,197648,1,0,0:0:0:0:
474,110,197723,1,0,3:0:0:0:
387,52,197873,1,8,0:0:0:0:
330,131,198023,1,0,3:0:0:0:
412,185,198173,1,0,3:0:0:0:
468,253,198323,1,0,3:0:0:0:
436,332,198473,6,0,B|395:315|363:339|363:339|339:382|281:374,1,144,4|0,0:0|2:0,0:0:0:0:
265,310,198923,2,0,B|270:293|265:273|265:273|276:292|293:301,1,72,0|0,0:0|2:0,0:0:0:0:
229,382,199223,1,0,0:0:0:0:
338,243,199373,2,0,B|355:238|370:224|370:224|359:243|359:262,1,72,0|0,0:0|2:0,0:0:0:0:
185,304,199673,6,0,B|114:289|114:289|112:286|112:286|45:272,1,144,8|0,0:0|2:0,0:0:0:0:
177,223,200123,2,0,L|246:208,1,72,0|0,0:0|2:0,0:0:0:0:
87,161,200423,2,0,L|156:146,1,72,0|0,0:0|2:0,0:0:0:0:
16,93,200723,1,0,3:0:0:0:
45,272,200873,6,0,B|58:305|54:342|54:342|74:310|116:298,1,144,4|0,3:0|2:0,0:0:0:0:
247,208,201323,2,0,L|230:132,1,72,0|0,0:0|2:0,0:0:0:0:
213,48,201623,1,0,0:0:0:0:
320,7,201773,2,0,L|303:82,1,72,0|0,0:0|2:0,0:0:0:0:
430,207,202073,5,8,0:0:0:0:
488,112,202223,1,0,3:0:0:0:
398,55,202373,1,0,3:0:0:0:
335,149,202523,1,0,3:0:0:0:
496,119,202673,1,8,0:0:0:0:
496,119,202748,1,8,0:0:0:0:
496,119,202823,1,0,3:0:0:0:
371,300,202973,1,0,3:0:0:0:
371,300,203123,1,0,3:0:0:0:
335,149,203273,6,0,B|291:128|266:167|273:168|244:212|189:192,1,144,4|0,0:0|2:0,0:0:0:0:
77,199,203723,2,0,P|99:226|134:229,1,72,0|0,0:0|2:0,0:0:0:0:
209,196,204023,1,0,0:0:0:0:
138,82,204174,2,0,P|172:85|195:112,1,72,0|0,0:0|2:0,0:0:0:0:
61,116,204473,5,8,0:0:0:0:
209,196,204623,2,0,L|280:180,1,72,0|0,3:0|3:0,0:0:0:0:
420,70,204923,2,0,L|349:54,1,72,8|0,0:0|3:0,0:0:0:0:
426,180,205223,1,0,3:0:0:0:
272,90,205373,1,0,3:0:0:0:
306,266,205523,5,0,3:0:0:0:
306,266,205598,1,0,3:0:0:0:
306,266,205673,2,0,L|382:249,2,72,12|0|0,0:0|3:0|3:0,0:0:0:0:
124,366,206123,2,0,L|71:308,2,72,8|0|0,0:0|3:0|3:0,0:0:0:0:
208,195,206573,2,0,L|186:264,1,72,12|0,0:0|3:0,0:0:0:0:
336,353,206873,5,0,3:0:0:0:
362,347,206948,1,0,3:0:0:0:
388,341,207023,1,0,3:0:0:0:
415,336,207098,1,0,3:0:0:0:
441,330,207173,2,0,L|431:285,1,36,0|0,3:0|0:0,0:0:0:0:
408,169,207323,5,0,3:0:0:0:
426,146,207398,1,0,3:0:0:0:
455,138,207473,1,0,3:0:0:0:
482,150,207548,1,0,3:0:0:0:
497,175,207623,1,0,3:0:0:0:
493,204,207698,1,0,0:0:0:0:
473,226,207773,2,0,B|423:218|423:218|419:214|419:214|362:205,1,108,8|0,0:0|0:0,0:0:0:0:
256,192,208073,5,0,0:0:0:0:
256,192,208148,12,0,210473,0:0:0:0:
257,192,212432,6,0,L|245:137,1,45
277,200,212732,2,0,L|257:291,1,90,0|2,0:0|3:0,0:0:0:0:
255,191,230904,6,0,B|222:86|85:102|85:102|97:191|162:210|162:210|127:229|140:276|140:276|155:244|187:236,1,485.999985168458,4|0,3:0|0:0,0:0:0:0:
240,283,233070,2,0,B|254:295|257:320|257:320|259:294|275:278,1,80.9999975280763
257,191,233570,6,2,B|290:86|427:102|427:102|415:191|350:210|350:210|385:229|372:276|372:276|357:244|325:236,1,486.000001853943,2|4,0:0|3:0,1:0:0:0:
332,238,234681,6,2,L|363:230,1,31.5,0|0,3:0|0:0,1:0:0:0:
362,230,235281,6,0,L|308:218,1,45,0|0,3:0|0:0,0:0:0:0:
143,197,235431,1,8,0:0:0:0:
143,197,235506,1,8,0:0:0:0:
143,197,235581,1,8,0:0:0:0:
313,103,235731,1,0,0:0:0:0:
309,297,235881,5,4,0:0:0:0:
92,118,236031,1,2,3:0:0:0:
58,340,236181,1,10,0:0:0:0:
241,248,236331,1,2,3:0:0:0:
7,105,236481,1,0,3:0:0:0:
39,186,236631,1,2,3:0:0:0:
252,1,236781,2,0,B|235:78|235:78|232:80|232:80|213:171,1,161.999995056153,10|0,0:0|0:0,0:0:0:0:
313,103,237081,6,2,B|360:69|404:105|404:105|424:146|466:149,1,161.999995056153,0|0,3:0|0:0,1:0:0:0:
480,74,237381,1,10,0:0:0:0:
318,220,237531,1,0,3:0:0:0:
511,314,237681,2,0,L|486:197,1,107.999996704102,2|2,3:0|3:0,0:0:0:0:
375,333,237981,2,0,B|382:390|460:382|460:382|431:359|433:315,1,161.999995056153,10|0,0:0|0:0,0:0:0:0:
410,259,238281,5,4,0:0:0:0:
221,384,238431,1,2,3:0:0:0:
153,246,238581,1,10,0:0:0:0:
284,307,238731,1,2,3:0:0:0:
246,112,238881,1,0,3:0:0:0:
254,222,239031,1,2,3:0:0:0:
381,93,239181,2,0,B|356:38|297:48|297:48|327:73|323:105,1,161.999995056153,10|0,0:0|0:0,0:0:0:0:
246,112,239481,6,2,B|198:130|165:103|165:103|136:64|82:79,1,161.999995056153,0|0,3:0|0:0,1:0:0:0:
41,162,239781,2,0,B|68:173|78:198|78:198|81:167|113:139,1,107.999996704102,10|0,0:0|3:0,0:0:0:0:
214,21,240081,1,2,3:0:0:0:
254,222,240231,1,2,3:0:0:0:
486,115,240381,2,0,L|365:89,1,107.999996704102,10|2,0:0|3:0,0:0:0:0:
474,329,240681,6,0,B|507:320|512:278|512:278|491:297|473:294,1,107.999996704102,4|0,0:0|0:0,0:0:0:0:
254,222,240981,2,0,B|221:213|216:171|216:171|237:190|255:187,1,107.999996704102,10|0,0:0|3:0,0:0:0:0:
486,115,241281,2,0,L|461:232,1,107.999996704102,0|0,3:0|3:0,0:0:0:0:
269,111,241581,1,10,0:0:0:0:
464,24,241731,1,0,3:0:0:0:
390,265,241881,6,0,B|343:271|296:293|296:293|325:270|328:240,1,161.999995056153,4|0,3:0|0:0,0:0:0:0:
383,188,242181,2,0,L|404:82,1,107.999996704102,10|0,0:0|3:0,0:0:0:0:
173,21,242481,1,0,3:0:0:0:
254,222,242631,1,0,3:0:0:0:
33,198,242781,1,10,0:0:0:0:
75,86,242931,1,0,3:0:0:0:
199,164,243081,6,0,B|143:147|110:190|110:190|114:234|78:260,1,161.999995056153,4|0,0:0|0:0,0:0:0:0:
12,219,243381,2,0,B|15:206|8:192|8:192|21:199|48:199,1,53.9999983520508,10|0,0:0|0:0,0:0:0:0:
230,238,243531,2,0,B|242:239|255:247|255:247|249:233|253:221,1,53.9999983520508,0|0,3:0|0:0,0:0:0:0:
75,86,243681,2,2,L|92:248,1,161.999995056153,0|0,3:0|0:0,1:0:0:0:
105,327,243981,2,0,B|79:365|42:349|42:349|57:327|61:304,1,107.999996704102,10|0,0:0|3:0,0:0:0:0:
173,21,244281,6,2,B|220:-14|273:25|273:25|292:61|337:57,1,161.999995056153,0|0,3:0|0:0,1:0:0:0:
395,39,244581,2,0,L|382:96,1,53.9999983520508,10|0,0:0|0:0,0:0:0:0:
512,226,244731,2,0,L|499:168,1,53.9999983520508,0|0,3:0|0:0,0:0:0:0:
315,134,244881,1,0,3:0:0:0:
320,160,244956,1,0,3:0:0:0:
326,186,245031,1,0,3:0:0:0:
331,213,245106,1,0,3:0:0:0:
337,239,245181,2,0,L|395:226,1,53.9999983520508,0|0,3:0|3:0,0:0:0:0:
501,341,245331,2,0,L|442:328,1,53.9999983520508,0|0,3:0|3:0,0:0:0:0:
261,291,245481,5,4,0:0:0:0:
426,156,245631,1,2,3:0:0:0:
285,377,245781,1,10,0:0:0:0:
237,205,245931,1,2,3:0:0:0:
448,329,246081,1,0,3:0:0:0:
348,314,246231,1,2,3:0:0:0:
431,76,246381,2,0,B|470:60|491:20|491:20|474:63|487:108,1,161.999995056153,10|0,0:0|0:0,0:0:0:0:
426,156,246681,6,2,B|345:138|345:138|342:135|342:135|248:115,1,161.999995056153,0|0,3:0|0:0,1:0:0:0:
193,103,246981,1,10,0:0:0:0:
272,294,247131,1,0,3:0:0:0:
111,204,247281,2,0,L|217:181,1,107.999996704102,2|2,3:0|3:0,0:0:0:0:
77,357,247581,2,0,B|91:308|51:283|49:289|5:248|29:203,1,161.999995056153,10|0,0:0|0:0,0:0:0:0:
55,137,247881,5,4,0:0:0:0:
300,196,248031,1,2,3:0:0:0:
111,204,248181,1,10,0:0:0:0:
155,43,248331,1,2,3:0:0:0:
246,262,248481,1,0,3:0:0:0:
216,181,248631,1,2,3:0:0:0:
77,357,248781,2,0,B|95:288|167:288|167:288|177:320|208:329,1,161.999995056153,10|0,0:0|0:0,0:0:0:0:
246,262,249081,6,2,B|328:278|328:278|330:282|330:282|408:298,1,161.999995056153,0|0,3:0|0:0,1:0:0:0:
480,313,249381,2,0,L|456:202,1,107.999996704102,10|0,0:0|3:0,0:0:0:0:
339,18,249681,1,2,3:0:0:0:
300,196,249831,1,2,3:0:0:0:
487,124,249981,2,0,L|363:97,1,107.999996704102,10|2,0:0|3:0,0:0:0:0:
33,37,250281,6,0,B|40:61|28:91|28:91|52:70|75:73,1,107.999996704102,4|0,0:0|0:0,0:0:0:0:
300,196,250581,2,0,B|293:220|305:250|305:250|281:229|258:232,1,107.999996704102,10|0,0:0|3:0,0:0:0:0:
84,150,250881,2,0,L|111:279,1,107.999996704102,4|0,3:0|0:0,0:0:0:0:
0,229,251181,1,10,0:0:0:0:
216,86,251331,1,0,3:0:0:0:
247,309,251481,6,0,B|207:280|171:299|171:299|141:343|89:330,1,161.999995056153,4|0,3:0|0:0,0:0:0:0:
0,229,251781,2,0,L|27:358,1,107.999996704102,10|0,0:0|3:0,0:0:0:0:
205,384,252081,1,4,3:0:0:0:
300,196,252231,1,0,3:0:0:0:
460,362,252381,1,10,0:0:0:0:
429,253,252531,1,0,3:0:0:0:
247,309,252681,6,2,B|199:282|224:221|224:221|236:256|271:271,1,161.999995056153,4|0,0:0|0:0,1:0:0:0:
340,269,252981,1,10,0:0:0:0:
102,332,253131,1,0,3:0:0:0:
166,167,253281,1,8,0:0:0:0:
200,147,253356,1,0,3:0:0:0:
240,145,253431,1,0,3:0:0:0:
276,163,253506,1,0,3:0:0:0:
300,196,253581,2,0,L|311:140,3,53.9999983520508,0|0|0|0,3:0|3:0|3:0|3:0,0:0:0:0:
395,37,253881,5,8,0:0:0:0:
395,37,253956,1,0,3:0:0:0:
395,37,254031,2,0,L|406:93,1,53.9999983520508,0|0,3:0|3:0,0:0:0:0:
512,166,254181,1,8,0:0:0:0:
512,166,254256,1,0,3:0:0:0:
512,166,254331,2,0,L|469:203,1,53.9999983520508,0|0,3:0|3:0,0:0:0:0:
353,289,254481,1,8,0:0:0:0:
338,303,254556,1,0,3:0:0:0:
318,310,254631,1,0,3:0:0:0:
297,307,254706,1,0,3:0:0:0:
278,293,254781,1,8,0:0:0:0:
255,264,254856,1,0,3:0:0:0:
215,238,254931,1,0,3:0:0:0:
159,238,255006,1,0,3:0:0:0:
111,276,255081,5,4,0:0:0:0:
231,57,255231,1,2,3:0:0:0:
0,27,255381,1,10,0:0:0:0:
53,218,255531,1,2,3:0:0:0:
174,123,255681,1,0,3:0:0:0:
142,47,255831,1,2,3:0:0:0:
111,276,255981,2,0,B|152:305|196:272|196:272|219:226|274:233,1,161.999995056153,10|0,0:0|0:0,0:0:0:0:
317,323,256281,6,2,B|300:345|312:382|312:382|257:356|267:294,1,161.999995056153,0|0,3:0|0:0,1:0:0:0:
323,246,256581,1,10,0:0:0:0:
492,354,256731,1,0,3:0:0:0:
413,185,256881,2,0,L|388:299,1,107.999996704102,2|2,3:0|3:0,0:0:0:0:
150,339,257181,2,0,B|139:280|205:257|205:257|183:288|195:313,1,161.999995056153,10|0,0:0|0:0,0:0:0:0:
233,372,257481,5,4,0:0:0:0:
1,288,257631,1,2,3:0:0:0:
208,182,257781,1,10,0:0:0:0:
80,292,257931,1,2,3:0:0:0:
29,130,258081,1,0,3:0:0:0:
45,223,258231,1,2,3:0:0:0:
174,76,258381,2,0,B|255:93|255:93|256:95|256:95|348:115,1,161.999995056153,10|0,0:0|0:0,0:0:0:0:
452,114,258681,6,2,B|444:59|385:54|385:54|411:78|408:118,1,161.999995056153,0|0,3:0|0:0,1:0:0:0:
367,184,258981,2,0,L|391:298,1,107.999996704102,10|0,0:0|3:0,0:0:0:0:
250,3,259281,1,2,3:0:0:0:
208,182,259431,1,2,3:0:0:0:
331,111,259581,2,0,L|216:86,1,107.999996704102,10|2,0:0|3:0,0:0:0:0:
210,309,259881,6,0,B|222:278|249:259|249:259|221:271|204:267,1,107.999996704102,4|0,0:0|0:0,0:0:0:0:
0,321,260181,2,0,B|19:347|22:379|22:379|26:349|39:336,1,107.999996704102,10|0,0:0|3:0,0:0:0:0:
127,122,260481,2,0,L|12:146,1,107.999996704102,0|0,3:0|3:0,0:0:0:0:
111,13,260781,1,10,0:0:0:0:
208,182,260931,1,0,3:0:0:0:
339,25,261081,6,0,B|377:-8|435:22|444:53|444:53|416:61|404:94,1,161.999995056153,4|0,3:0|0:0,0:0:0:0:
331,111,261381,2,0,L|216:86,1,107.999996704102,10|0,0:0|3:0,0:0:0:0:
286,277,261681,1,4,3:0:0:0:
471,135,261831,1,0,3:0:0:0:
512,363,261981,1,10,0:0:0:0:
496,272,262131,1,0,3:0:0:0:
268,367,262281,6,0,B|347:350|347:350|349:347|349:347|437:328,1,161.999995056153,4|0,0:0|0:0,0:0:0:0:
496,272,262581,2,0,L|449:262,1,45,10|0,0:0|0:0,0:0:0:0:
378,167,262731,2,0,L|345:202,1,45,0|0,3:0|0:0,0:0:0:0:
196,315,262881,2,0,B|173:247|173:247|175:241|175:241|147:156,1,161.999995056153,0|0,3:0|0:0,0:0:0:0:
72,137,263181,2,0,B|62:117|62:117|0:118|0:118|47:151|47:151|68:143,1,161.999995056153,10|0,0:0|0:0,0:0:0:0:
132,85,263481,6,2,L|244:62,1,107.999996704102,0|0,3:0|0:0,1:0:0:0:
322,48,263706,1,0,0:0:0:0:
322,48,263781,2,0,L|308:111,1,53.9999983520508,10|0,0:0|0:0,0:0:0:0:
286,277,263931,1,0,3:0:0:0:
244,150,264081,5,0,3:0:0:0:
258,167,264156,1,0,3:0:0:0:
282,178,264231,1,0,3:0:0:0:
315,181,264306,1,0,3:0:0:0:
346,171,264381,1,0,3:0:0:0:
379,139,264456,1,0,3:0:0:0:
406,109,264531,1,0,3:0:0:0:
456,99,264606,1,0,3:0:0:0:
505,128,264681,5,4,0:0:0:0:
427,374,264831,1,2,3:0:0:0:
286,277,264981,1,10,0:0:0:0:
310,100,265131,1,2,3:0:0:0:
115,227,265281,1,0,3:0:0:0:
164,313,265431,1,2,3:0:0:0:
297,188,265581,2,0,B|178:159|178:159|204:184|198:206,1,161.999995056153,10|0,0:0|0:0,0:0:0:0:
286,277,265881,6,2,B|352:256|352:256|367:236|367:236|447:215,1,161.999995056153,0|0,3:0|0:0,1:0:0:0:
506,200,266181,1,10,0:0:0:0:
440,384,266331,1,0,3:0:0:0:
297,188,266481,2,0,B|272:140|304:102|304:102|351:81|348:42,1,161.999995056153,2|0,3:0|0:0,0:0:0:0:
276,26,266781,2,0,B|236:-11|182:11|182:11|222:22|235:60,1,161.999995056153,10|0,0:0|0:0,0:0:0:0:
163,90,267081,5,4,0:0:0:0:
374,157,267231,1,2,3:0:0:0:
196,287,267381,1,10,0:0:0:0:
297,188,267531,1,2,3:0:0:0:
385,331,267681,1,0,3:0:0:0:
362,239,267831,1,2,3:0:0:0:
154,358,267981,2,0,B|121:343|78:365|78:365|115:339|114:288,1,161.999995056153,10|0,0:0|0:0,0:0:0:0:
35,291,268281,6,2,B|52:211|52:211|50:205|50:205|70:111,1,161.999995056153,0|0,3:0|0:0,1:0:0:0:
84,57,268581,2,0,B|65:19|24:27|24:27|39:55|39:82,1,107.999996704102,10|0,0:0|3:0,0:0:0:0:
178,187,268881,1,2,3:0:0:0:
294,26,269031,1,2,3:0:0:0:
374,157,269181,2,0,L|249:131,1,107.999996704102,10|2,0:0|3:0,0:0:0:0:
388,347,269481,6,0,B|423:355|439:374|439:374|421:348|431:317,1,107.999996704102,4|0,0:0|0:0,0:0:0:0:
245,240,269781,2,0,B|219:266|195:270|195:270|226:268|249:292,1,107.999996704102,10|0,0:0|3:0,0:0:0:0:
374,157,270081,2,0,L|249:131,1,107.999996704102,4|0,3:0|0:0,0:0:0:0:
9,99,270381,1,10,0:0:0:0:
294,26,270531,1,0,3:0:0:0:
147,67,270681,6,0,B|153:16|216:-4|216:-4|201:30|223:62,1,161.999995056153,4|0,3:0|0:0,0:0:0:0:
268,135,270981,2,0,L|241:260,1,107.999996704102,10|0,0:0|3:0,0:0:0:0:
80,376,271281,1,4,3:0:0:0:
45,165,271431,1,0,3:0:0:0:
245,240,271581,1,10,0:0:0:0:
118,255,271731,1,0,3:0:0:0:
237,376,271881,6,0,B|317:358|317:358|321:354|321:354|403:337,1,161.999995056153,4|0,0:0|0:0,0:0:0:0:
469,322,272181,1,10,0:0:0:0:
317,195,272331,1,0,3:0:0:0:
512,131,272481,1,8,1:0:0:0:
506,157,272556,1,0,3:0:0:0:
500,183,272631,1,0,3:0:0:0:
495,210,272706,1,0,3:0:0:0:
489,236,272781,2,0,L|422:221,1,53.9999983520508,0|0,3:0|3:0,0:0:0:0:
353,154,272931,2,0,L|307:204,1,53.9999983520508,0|0,3:0|3:0,0:0:0:0:
229,281,273081,5,8,1:0:0:0:
229,281,273156,1,0,3:0:0:0:
229,281,273231,2,0,L|213:230,1,53.9999983520508,0|0,3:0|3:0,0:0:0:0:
53,172,273381,1,8,1:0:0:0:
53,172,273456,1,0,3:0:0:0:
53,172,273531,2,0,L|69:121,1,53.9999983520508,0|0,3:0|3:0,0:0:0:0:
172,0,273681,1,8,1:0:0:0:
187,36,273756,1,0,3:0:0:0:
221,58,273831,1,0,3:0:0:0:
261,57,273906,1,0,3:0:0:0:
293,33,273981,6,0,L|278:99,1,67.5,8|0,1:0|0:0,0:0:0:0:
278,98,274281,6,0,L|392:72,1,107.999996704102,4|2,0:0|3:0,0:0:0:0:
512,245,274581,2,0,L|397:219,1,107.999996704102,10|2,0:0|3:0,0:0:0:0:
449,351,274881,1,0,3:0:0:0:
501,132,275031,1,2,3:0:0:0:
309,191,275181,2,0,L|333:305,1,107.999996704102,10|2,0:0|3:0,0:0:0:0:
27,364,275481,6,0,B|19:314|61:296|61:296|115:298|134:253,1,161.999995056153,4|0,3:0|0:0,0:0:0:0:
102,185,275781,2,0,B|71:185|45:175|45:175|66:199|68:222,1,107.999996704102,8|0,0:0|3:0,0:0:0:0:
196,360,276081,1,2,3:0:0:0:
406,221,276231,1,2,3:0:0:0:
186,200,276381,1,8,0:0:0:0:
331,296,276531,1,2,3:0:0:0:
309,191,276681,6,0,L|297:136,1,53.9999983520508,8|0,0:0|2:0,0:0:0:0:
207,307,276831,2,0,L|195:361,1,53.9999983520508,8|0,0:0|2:0,0:0:0:0:
414,229,276981,1,0,3:0:0:0:
414,229,277056,1,0,3:0:0:0:
414,229,277131,2,0,L|402:169,1,53.9999983520508,8|0,0:0|2:0,0:0:0:0:
512,0,277281,2,0,L|486:119,1,107.999996704102,8|0,0:0|3:2,0:0:0:0:
315,51,277581,1,8,0:0:0:0:
275,42,277656,1,0,3:0:0:0:
235,34,277731,1,0,3:0:0:0:
196,25,277806,1,0,3:0:0:0:
156,17,277881,6,0,L|169:80,1,53.9999983520508,12|0,0:0|3:0,0:0:0:0:
54,199,278031,2,0,L|67:136,1,53.9999983520508,0|0,3:0|3:0,0:0:0:0:
194,207,278181,1,8,0:0:0:0:
194,207,278256,1,0,3:0:0:0:
194,207,278331,2,0,L|127:221,1,53.9999983520508,0|0,3:0|3:0,0:0:0:0:
0,324,278481,1,8,0:0:0:0:
0,324,278556,1,0,3:0:0:0:
0,324,278631,2,0,L|67:338,1,53.9999983520508,0|0,3:0|3:0,0:0:0:0:
195,359,278781,1,8,0:0:0:0:
234,350,278856,1,0,3:0:0:0:
274,342,278931,1,0,3:0:0:0:
313,333,279006,1,0,3:0:0:0:
353,325,279081,6,2,B|396:287|375:231|375:231|301:186|332:126|332:126|331:154|347:167,1,270,8|0,0:0|0:0,1:0:0:0:
455,122,279681,2,0,L|409:131,1,45,0|0,3:0|0:0,0:0:0:0:
219,178,279831,1,8,0:0:0:0:
219,178,279906,1,0,3:0:0:0:
219,178,279981,1,0,3:0:0:0:
389,55,280131,1,0,3:0:0:0:
235,0,280281,6,0,L|256:99,1,90,4|0,3:0|0:0,0:0:0:0:
239,283,280581,1,8,0:0:0:0:
239,283,280656,1,0,3:0:0:0:
239,283,280731,2,0,L|186:271,1,45,0|0,3:0|3:0,0:0:0:0:
37,314,280881,1,8,0:0:0:0:
37,314,280956,1,0,3:0:0:0:
37,314,281031,2,0,L|73:274,1,45,0|0,3:0|3:0,0:0:0:0:
111,124,281181,6,0,L|127:175,1,44.5499998640442,0|0,3:0|3:0,0:0:0:0:
124,166,281481,6,0,L|34:146,1,80.9999975280763,4|0,3:0|0:0,0:0:0:0:
155,16,281781,2,0,L|244:-3,1,80.9999975280763
405,117,282081,1,0,0:0:0:0:
253,88,282231,1,0,0:0:0:0:
304,235,282381,1,0,0:0:0:0:
318,147,282531,1,0,0:0:0:0:
429,250,282681,6,0,B|461:175|461:175|439:197|421:194,1,121.499996292114
423,335,282981,2,0,B|446:344|458:357|458:357|455:333|468:303,1,80.9999975280763
226,242,283281,2,0,B|206:257|188:261|188:261|211:270|230:297,1,80.9999975280763
405,117,283581,2,0,B|401:92|406:74|406:74|387:89|355:93,1,80.9999975280763,10|0,0:0|0:0,0:0:0:0:
159,104,283881,6,0,L|178:193,1,80.9999975280763,4|0,3:0|3:0,0:0:0:0:
20,345,284181,2,0,L|39:255,1,80.9999975280763,10|0,0:0|3:0,0:0:0:0:
223,375,284481,1,0,3:0:0:0:
112,301,284631,1,0,3:0:0:0:
298,235,284781,1,10,0:0:0:0:
175,183,284931,1,0,3:0:0:0:
223,375,285081,6,0,B|209:310|209:310|205:308|205:308|191:243,1,121.499996292114,0|0,3:0|0:0,0:0:0:0:
175,183,285381,2,0,B|157:157|123:165|123:165|137:180|134:199,1,80.9999975280763,10|0,0:0|3:0,0:0:0:0:
412,184,285681,2,0,B|443:181|453:147|453:147|433:152|418:140,1,80.9999975280763,0|0,3:0|3:0,0:0:0:0:
294,115,285981,2,0,B|307:86|283:60|283:60|277:80|259:87,1,80.9999975280763,10|0,0:0|3:0,0:0:0:0:
314,318,286281,6,0,L|403:299,1,80.9999975280763,4|0,3:0|3:0,0:0:0:0:
175,183,286581,2,0,L|85:164,1,80.9999975280763,10|0,0:0|3:0,0:0:0:0:
246,0,286881,1,0,3:0:0:0:
294,115,287031,1,0,3:0:0:0:
460,69,287181,1,10,0:0:0:0:
412,184,287331,1,0,3:0:0:0:
347,47,287481,6,0,B|360:3|409:5|409:5|384:28|390:67,1,121.499996292114,0|0,3:0|0:0,0:0:0:0:
294,115,287781,2,0,L|186:92,1,80.9999975280763,10|0,0:0|3:0,0:0:0:0:
0,35,288081,2,0,L|107:12,1,80.9999975280763,0|0,3:0|3:0,0:0:0:0:
246,0,288381,1,10,0:0:0:0:
95,166,288531,1,0,3:0:0:0:
322,238,288681,6,0,B|363:211|355:169|355:169|337:190|311:193,1,121.499996292114,4|0,3:0|0:0,0:0:0:0:
239,225,288981,2,0,L|258:324,1,80.9999975280763,10|0,0:0|3:0,0:0:0:0:
95,166,289281,2,0,L|114:66,1,80.9999975280763,8|0,0:0|3:0,0:0:0:0:
37,243,289581,1,8,0:0:0:0:
214,98,289731,1,0,3:0:0:0:
254,304,289881,5,4,3:0:0:0:
102,173,290031,1,8,0:0:0:0:
102,173,290106,1,8,0:0:0:0:
102,173,290181,2,0,L|112:218,1,40.4999987640381,8|0,0:0|0:0,0:0:0:0:
145,367,290331,1,8,0:0:0:0:
239,225,290481,2,0,B|218:221|197:209|197:209|201:232|192:257,1,80.9999975280763,4|8,3:0|0:0,0:0:0:0:
306,366,290781,2,0,L|351:356,1,40.4999987640381,0|0,3:0|0:0,0:0:0:0:
438,378,290931,2,0,L|452:333,1,40.4999987640381,0|0,3:0|0:0,0:0:0:0:
495,227,291081,6,0,L|408:244,1,80.9999975280763,4|0,3:0|3:0,0:0:0:0:
214,98,291381,2,0,L|300:115,1,80.9999975280763,10|0,0:0|3:0,0:0:0:0:
415,139,291681,1,0,3:0:0:0:
333,6,291831,1,0,3:0:0:0:
158,167,291981,1,10,0:0:0:0:
126,80,292131,1,0,3:0:0:0:
293,113,292281,6,0,B|280:173|280:173|276:176|276:176|263:238,1,121.499996292114,0|0,3:0|0:0,0:0:0:0:
298,306,292581,2,0,B|330:311|348:282|348:282|322:276|315:269,1,80.9999975280763,10|0,0:0|3:0,0:0:0:0:
158,167,292881,2,0,B|137:192|153:222|153:222|171:202|181:200,1,80.9999975280763,0|0,3:0|3:0,0:0:0:0:
333,123,293181,2,0,B|321:92|287:91|287:91|295:117|292:126,1,80.9999975280763,10|0,0:0|3:0,0:0:0:0:
487,281,293481,6,0,L|468:192,1,80.9999975280763,4|0,3:0|3:0,0:0:0:0:
349,43,293781,2,0,L|330:131,1,80.9999975280763,10|0,0:0|3:0,0:0:0:0:
298,306,294081,1,0,3:0:0:0:
158,167,294231,1,0,3:0:0:0:
108,358,294381,1,10,0:0:0:0:
188,271,294531,1,0,3:0:0:0:
39,203,294681,6,0,B|54:240|104:231|104:231|83:209|83:191,1,121.499996292114,0|0,3:0|0:0,0:0:0:0:
185,194,294981,2,0,B|178:175|188:149|188:149|167:167|137:170,1,80.9999975280763,10|0,0:0|3:0,0:0:0:0:
178,308,295281,2,0,B|190:293|218:288|218:288|192:279|174:255,1,80.9999975280763,0|0,3:0|3:0,0:0:0:0:
91,111,295581,2,0,B|72:107|54:86|54:86|59:113|47:140,1,80.9999975280763,10|0,0:0|3:0,0:0:0:0:
265,183,295881,6,0,L|357:163,1,80.9999975280763,4|0,3:0|3:0,0:0:0:0:
493,323,296181,2,0,L|400:303,1,80.9999975280763,10|0,0:0|3:0,0:0:0:0:
285,86,296481,1,0,3:0:0:0:
327,264,296631,1,0,3:0:0:0:
496,106,296781,1,10,0:0:0:0:
470,211,296931,1,0,3:0:0:0:
382,70,297081,6,0,B|404:30|451:37|451:37|425:56|425:81,1,121.499996292114,0|0,3:0|0:0,0:0:0:0:
285,86,297381,2,0,L|193:66,1,80.9999975280763,10|0,0:0|3:0,0:0:0:0:
14,207,297681,2,0,L|105:187,1,80.9999975280763,0|0,3:0|3:0,0:0:0:0:
29,80,297981,1,10,0:0:0:0:
87,321,298131,1,0,3:0:0:0:
336,192,298281,5,4,3:0:0:0:
161,161,298431,1,8,0:0:0:0:
87,321,298581,1,8,0:0:0:0:
326,278,298731,5,0,3:0:0:0:
442,275,298881,1,8,0:0:0:0:
484,384,299031,1,8,0:0:0:0:
243,341,299181,5,8,0:0:0:0:
236,311,299256,1,8,0:0:0:0:
230,281,299331,1,8,0:0:0:0:
224,251,299406,1,8,0:0:0:0:
217,222,299481,2,0,L|276:234,1,40.4999987640381,12|0,0:0|0:0,0:0:0:0:
408,166,299631,1,8,0:0:0:0:
414,136,299706,1,8,0:0:0:0:
421,107,299781,2,0,L|361:119,1,40.4999987640381,8|8,0:0|0:0,0:0:0:0:
161,161,299931,1,8,0:0:0:0:
236,45,300081,6,0,P|260:55|273:82,1,40.4999987640381,8|0,0:0|2:0,0:0:0:0:
236,311,300231,2,0,P|215:326|185:324,1,40.4999987640381,8|0,0:0|2:0,0:0:0:0:
5,178,300381,2,0,P|1:152|18:127,1,40.4999987640381,8|0,0:0|2:0,0:0:0:0:
161,161,300531,5,12,0:0:0:0:
