osu file format v14

[General]
AudioFilename: audio.mp3
AudioLeadIn: 0
PreviewTime: 148523
Countdown: 0
SampleSet: Normal
StackLeniency: 0.7
Mode: 0
LetterboxInBreaks: 0
WidescreenStoryboard: 1

[Editor]
DistanceSpacing: 1.7
BeatDivisor: 4
GridSize: 8
TimelineZoom: 4.490004

[Metadata]
Title:Hi no Eternal Chain
TitleUnicode:碑のEternal Chain
Artist:Eclipseed
ArtistUnicode:Eclipseed
Creator:AdveNt
Version:Insane
Source:
Tags:凍てついた紅蓮の炎に裁きを itetsuita guren no honoo ni sabaki wo 星魚有香 hoshio yuka AYUTRICA Hearty Smile Factory えむらまお emura mao 【S】 SNOW japanese j-rock j rock jrock symphonic metal j-metal gazimal
BeatmapID:3471735
BeatmapSetID:1697194

[Difficulty]
HPDrainRate:5
CircleSize:3.8
OverallDifficulty:8
ApproachRate:9
SliderMultiplier:1.6
SliderTickRate:1

[Events]
//Background and Video events
0,0,"bg.jpg",0,0
//Break Periods
2,105073,109073
2,213032,229627
//Storyboard Layer 0 (Background)
//Storyboard Layer 1 (Fail)
//Storyboard Layer 2 (Pass)
//Storyboard Layer 3 (Foreground)
//Storyboard Layer 4 (Overlay)
//Storyboard Sound Samples

[TimingPoints]
946,528.63436123348,4,2,1,30,1,0
1210,352.941176470588,4,2,1,30,1,0
1562,344.827586206897,4,2,1,30,1,0
2424,352.941176470588,4,2,1,30,1,0
2776,379.746835443038,4,2,1,30,1,0
3155,333.333333333333,4,2,1,30,1,0
3821,324.324324324324,4,2,1,30,1,0
4469,359.281437125748,4,2,1,30,1,0
5187,365.853658536585,4,2,1,30,1,0
5918,405.405405405405,4,2,1,30,1,0
5918,-142.857142857143,4,2,1,30,0,0
6728,387.096774193548,4,2,1,30,1,0
7502,348.837209302326,4,2,1,30,1,0
8199,375,4,2,1,30,1,0
8574,352.941176470588,4,2,1,30,1,0
8926,338.983050847458,4,2,1,30,1,0
9264,327.868852459016,4,2,1,30,1,0
9919,352.941176470588,4,2,1,30,1,0
10271,324.324324324324,4,2,1,30,1,0
10919,348.837209302326,4,2,1,30,1,0
11616,333.333333333333,4,2,1,30,1,0
12282,363.636363636364,4,2,1,30,1,0
13009,352.941176470588,4,2,1,30,1,0
13714,387.096774193548,4,2,1,30,1,0
14101,444.444444444444,4,2,1,30,1,0
14545,750,4,2,1,30,1,0
14826,857.142857142857,4,2,1,30,1,0
15072,759.493670886076,4,2,1,30,1,0
15451,800,4,2,1,30,1,0
15851,1311.47540983607,4,2,1,30,1,0
18473,300,4,1,1,50,1,0
37598,-100,4,1,1,5,0,0
37673,-142.857142857143,4,1,1,50,0,0
38873,-100,4,1,1,60,0,0
54698,-100,4,1,1,5,0,0
54773,-100,4,1,1,60,0,0
56498,-100,4,1,1,5,0,0
56573,-100,4,1,1,60,0,0
59273,-83.3333333333333,4,1,1,60,0,0
77273,-500,4,1,1,60,0,0
77873,-83.3333333333333,4,1,1,60,0,0
78173,-142.857142857143,4,1,1,60,0,0
78398,-142.857142857143,4,1,1,5,0,0
78473,-66.6666666666667,4,1,2,80,0,1
78548,-66.6666666666667,4,1,1,80,0,1
79898,-66.6666666666667,4,1,1,5,0,1
79973,-66.6666666666667,4,1,1,80,0,1
82298,-66.6666666666667,4,1,1,5,0,1
82373,-66.6666666666667,4,1,1,80,0,1
83498,-66.6666666666667,4,1,1,5,0,1
83573,-66.6666666666667,4,1,1,80,0,1
84698,-66.6666666666667,4,1,1,5,0,1
84773,-66.6666666666667,4,1,1,80,0,1
85898,-66.6666666666667,4,1,1,5,0,1
85973,-66.6666666666667,4,1,1,80,0,1
86273,-333.333333333333,4,1,1,80,0,1
86573,-66.6666666666667,4,1,1,80,0,1
89498,-66.6666666666667,4,1,1,5,0,1
89573,-66.6666666666667,4,1,1,80,0,1
91898,-66.6666666666667,4,1,1,5,0,1
91973,-66.6666666666667,4,1,1,80,0,1
93098,-66.6666666666667,4,1,1,5,0,1
93173,-66.6666666666667,4,1,1,80,0,1
93698,-66.6666666666667,4,1,1,5,0,1
93773,-66.6666666666667,4,1,1,80,0,1
95273,-55.5555555555556,4,1,1,80,0,1
95498,-66.6666666666667,4,1,1,5,0,1
95573,-66.6666666666667,4,1,1,80,0,1
95873,-100,4,1,1,80,0,1
96173,-66.6666666666667,4,1,1,80,0,1
97673,-66.6666666666667,4,1,3,80,0,1
97748,-66.6666666666667,4,1,1,80,0,1
97973,-66.6666666666667,4,1,1,80,0,1
98873,-55.5555555555556,4,1,1,80,0,1
99098,-55.5555555555556,4,1,1,5,0,1
99173,-66.6666666666667,4,1,1,80,0,1
100673,-100,4,1,1,80,0,1
101873,-66.6666666666667,4,1,1,80,0,1
104873,-100,4,1,1,60,0,0
110873,-200,4,1,1,60,0,0
111773,-100,4,1,1,60,0,0
112073,-100,4,1,3,60,0,0
112148,-100,4,1,1,60,0,0
120473,-133.333333333333,4,1,1,60,0,0
121673,-100,4,1,1,60,0,0
126698,-100,4,1,1,5,0,0
126773,-100,4,1,1,60,0,0
128498,-100,4,1,1,5,0,0
128573,-100,4,1,1,60,0,0
131273,-83.3333333333333,4,1,1,60,0,0
149273,-333.333333333333,4,1,1,60,0,0
149873,-83.3333333333333,4,1,1,60,0,0
150173,-142.857142857143,4,1,1,60,0,0
150398,-142.857142857143,4,1,1,5,0,0
150473,-66.6666666666667,4,1,2,80,0,1
150548,-66.6666666666667,4,1,1,80,0,1
151898,-66.6666666666667,4,1,1,5,0,1
151973,-66.6666666666667,4,1,1,80,0,1
154298,-66.6666666666667,4,1,1,5,0,1
154373,-66.6666666666667,4,1,1,80,0,1
155498,-66.6666666666667,4,1,1,5,0,1
155573,-66.6666666666667,4,1,1,80,0,1
156698,-66.6666666666667,4,1,1,5,0,1
156773,-66.6666666666667,4,1,1,80,0,1
157898,-66.6666666666667,4,1,1,5,0,1
157973,-66.6666666666667,4,1,1,80,0,1
158273,-333.333333333333,4,1,1,80,0,1
158573,-66.6666666666667,4,1,1,80,0,1
161498,-66.6666666666667,4,1,1,5,0,1
161573,-66.6666666666667,4,1,1,80,0,1
163898,-66.6666666666667,4,1,1,5,0,1
163973,-66.6666666666667,4,1,1,80,0,1
165098,-66.6666666666667,4,1,1,5,0,1
165173,-66.6666666666667,4,1,1,80,0,1
165698,-66.6666666666667,4,1,1,5,0,1
165773,-66.6666666666667,4,1,1,80,0,1
167273,-55.5555555555556,4,1,1,80,0,1
167498,-66.6666666666667,4,1,1,5,0,1
167573,-66.6666666666667,4,1,1,80,0,1
167873,-100,4,1,1,80,0,1
168473,-66.6666666666667,4,1,1,80,0,1
169673,-100,4,1,1,80,0,1
172073,-100,4,1,1,5,0,0
173573,-166.666666666667,4,1,1,40,0,0
174023,-250,4,1,1,40,0,0
174398,-250,4,1,1,5,0,0
174473,-250,4,1,1,40,0,0
176798,-250,4,1,1,5,0,0
176873,-250,4,1,1,40,0,0
178073,-166.666666666667,4,1,1,40,0,0
178973,-500.000000000003,4,1,1,40,0,0
179198,-333.333333333334,4,1,1,5,0,0
179273,-250.000000000001,4,1,1,40,0,0
181598,-250.000000000001,4,1,1,5,0,0
181673,-166.666666666667,4,1,1,40,0,0
183173,-125,4,1,1,40,0,0
183473,-166.666666666667,4,1,1,40,0,0
183773,-125,4,1,1,40,0,0
184073,-166.666666666667,4,1,1,40,0,0
185198,-166.666666666667,4,1,1,5,0,0
185273,-166.666666666667,4,1,1,40,0,0
186098,-166.666666666667,4,1,1,5,0,0
186173,-166.666666666667,4,1,1,40,0,0
186473,-100,4,1,1,40,0,0
188873,-142.857142857143,4,1,3,50,0,0
188948,-142.857142857143,4,1,1,50,0,0
210473,337.078651685394,4,2,1,40,1,0
210473,-100,4,2,1,40,0,0
211147,342.857142857143,4,2,1,40,1,0
211832,300,4,2,1,40,1,0
213032,319.148936170213,4,2,1,40,1,0
213032,-166.666666666667,4,2,1,40,0,0
230904,666.666666666667,4,1,1,60,1,0
230904,-1000,4,1,1,60,0,0
233404,-1000,4,1,1,5,0,0
233570,545.454545454546,4,1,1,60,1,0
233570,-76.9230769230769,4,1,1,60,0,0
233979,-76.9230769230769,4,1,1,5,0,0
234115,566.037735849057,4,1,1,60,1,0
234115,-66.6666666666667,4,1,1,60,0,0
234539,-100,4,1,1,5,0,0
234681,300,4,1,1,60,1,0
234681,-500,4,1,1,60,0,0
235206,-200,4,1,1,5,0,0
235281,-66.6666666666667,4,1,1,60,0,0
235581,-100,4,1,1,60,0,0
235806,-100,4,1,1,5,0,0
235881,-66.6666666666667,4,1,2,80,0,1
235956,-66.6666666666667,4,1,1,80,0,1
237306,-66.6666666666667,4,1,1,5,0,1
237381,-66.6666666666667,4,1,1,80,0,1
239706,-66.6666666666667,4,1,1,5,0,1
239781,-66.6666666666667,4,1,1,80,0,1
240906,-66.6666666666667,4,1,1,5,0,1
240981,-66.6666666666667,4,1,1,80,0,1
242106,-66.6666666666667,4,1,1,5,0,1
242181,-66.6666666666667,4,1,1,80,0,1
243306,-66.6666666666667,4,1,1,5,0,1
243381,-66.6666666666667,4,1,1,80,0,1
243681,-333.333333333333,4,1,1,80,0,1
243906,-333.333333333333,4,1,1,5,0,1
243981,-66.6666666666667,4,1,1,80,0,1
244506,-66.6666666666667,4,1,1,5,0,1
244581,-66.6666666666667,4,1,1,80,0,1
246906,-66.6666666666667,4,1,1,5,0,1
246981,-66.6666666666667,4,1,1,80,0,1
249306,-66.6666666666667,4,1,1,5,0,1
249381,-66.6666666666667,4,1,1,80,0,1
250506,-66.6666666666667,4,1,1,5,0,1
250581,-66.6666666666667,4,1,1,80,0,1
251106,-66.6666666666667,4,1,1,5,0,1
251181,-66.6666666666667,4,1,1,80,0,1
252681,-55.5555555555556,4,1,1,80,0,1
252906,-55.5555555555556,4,1,1,5,0,1
252981,-66.6666666666667,4,1,1,80,0,1
253131,-66.6666666666667,4,1,1,80,0,0
253281,-133.333333333333,4,1,1,80,0,1
253356,-133.333333333333,4,1,1,80,0,0
253881,-66.6666666666667,4,1,1,80,0,1
253956,-66.6666666666667,4,1,1,80,0,0
254181,-66.6666666666667,4,1,1,80,0,1
254256,-66.6666666666667,4,1,1,80,0,0
254481,-66.6666666666667,4,1,1,80,0,1
254556,-66.6666666666667,4,1,1,80,0,0
254781,-66.6666666666667,4,1,1,80,0,1
254856,-66.6666666666667,4,1,1,80,0,0
255081,-66.6666666666667,4,1,2,80,0,1
255156,-66.6666666666667,4,1,1,80,0,1
256506,-66.6666666666667,4,1,1,5,0,1
256581,-66.6666666666667,4,1,1,80,0,1
258906,-66.6666666666667,4,1,1,5,0,1
258981,-66.6666666666667,4,1,1,80,0,1
260106,-66.6666666666667,4,1,1,5,0,1
260181,-66.6666666666667,4,1,1,80,0,1
261306,-66.6666666666667,4,1,1,5,0,1
261381,-66.6666666666667,4,1,1,80,0,1
262506,-66.6666666666667,4,1,1,5,0,1
262581,-66.6666666666667,4,1,1,80,0,1
262881,-333.333333333333,4,1,1,80,0,1
263106,-333.333333333333,4,1,1,5,0,1
263181,-66.6666666666667,4,1,1,80,0,1
263706,-66.6666666666667,4,1,1,5,0,1
263781,-66.6666666666667,4,1,1,80,0,1
266106,-66.6666666666667,4,1,1,5,0,1
266181,-66.6666666666667,4,1,1,80,0,1
268506,-66.6666666666667,4,1,1,5,0,1
268581,-66.6666666666667,4,1,1,80,0,1
269706,-66.6666666666667,4,1,1,5,0,1
269781,-66.6666666666667,4,1,1,80,0,1
270306,-66.6666666666667,4,1,1,5,0,1
270381,-66.6666666666667,4,1,1,80,0,1
272106,-66.6666666666667,4,1,1,5,0,1
272181,-66.6666666666667,4,1,1,80,0,1
272481,-100,4,1,1,80,0,1
273981,-333.333333333333,4,1,1,80,0,1
274206,-333.333333333333,4,1,1,5,0,1
274281,-66.6666666666667,4,1,3,80,0,1
274356,-66.6666666666667,4,1,1,5,0,1
274431,-66.6666666666667,4,1,1,80,0,1
274506,-66.6666666666667,4,1,1,5,0,1
274581,-66.6666666666667,4,1,1,80,0,1
274656,-66.6666666666667,4,1,1,5,0,1
274731,-66.6666666666667,4,1,1,80,0,1
274806,-66.6666666666667,4,1,1,5,0,1
274881,-66.6666666666667,4,1,1,80,0,1
275706,-66.6666666666667,4,1,1,5,0,1
275781,-66.6666666666667,4,1,1,80,0,1
276756,-66.6666666666667,4,1,1,5,0,1
276831,-66.6666666666667,4,1,1,80,0,1
276906,-66.6666666666667,4,1,1,5,0,1
276981,-66.6666666666667,4,1,1,80,0,1
277056,-66.6666666666667,4,1,1,5,0,1
277131,-66.6666666666667,4,1,1,80,0,1
277206,-66.6666666666667,4,1,1,5,0,1
277281,-66.6666666666667,4,1,1,80,0,1
277356,-66.6666666666667,4,1,1,5,0,1
277431,-66.6666666666667,4,1,1,80,0,1
277506,-66.6666666666667,4,1,1,5,0,1
277581,-66.6666666666667,4,1,1,80,0,1
277881,-133.333333333333,4,1,1,80,0,1
279081,-100,4,1,1,80,0,1
279606,-76.9230769230769,4,1,1,5,0,1
279681,-76.9230769230769,4,1,1,80,0,1
281481,-66.6666666666667,4,1,1,80,0,0
283581,-66.6666666666667,4,1,1,60,0,0
298281,-66.6666666666667,4,1,3,60,0,1
298356,-66.6666666666667,4,1,1,60,0,1
300081,-41.6666666666667,4,1,1,60,0,1
300156,-41.6666666666667,4,1,1,5,0,1
300231,-41.6666666666667,4,1,1,60,0,1
300306,-41.6666666666667,4,1,1,5,0,1
300381,-41.6666666666667,4,1,1,60,0,1
300456,-41.6666666666667,4,1,1,5,0,1
300531,-41.6666666666667,4,1,1,60,0,0

[Colours]
Combo1 : 192,192,192
Combo2 : 248,63,1

[HitObjects]
256,192,17162,12,0,18310,0:0:0:0:
170,202,18473,6,0,B|146:157|146:157|162:106,1,80,4|0,3:0|0:0,0:0:0:0:
267,56,18773,2,0,B|291:101|291:101|275:152,1,80
377,238,19073,2,0,B|353:283|353:283|369:334,1,80
474,384,19373,2,0,B|498:339|498:339|482:288,1,80
444,176,19673,5,0,0:0:0:0:
444,176,19823,1,0,0:0:0:0:
364,320,19973,2,0,B|319:344|319:344|268:328,1,80
191,239,20273,2,0,B|236:215|236:215|287:231,1,80
364,330,20573,2,0,B|319:354|319:354|268:338,1,80
92,151,20873,6,0,B|71:210|71:210|87:255,1,80,4|0,3:0|0:0,0:0:0:0:
175,314,21173,2,0,B|196:255|196:255|180:210,1,80
317,192,21473,6,0,B|296:133|296:133|312:88,1,80
404,20,21773,2,0,B|425:79|425:79|409:124,1,80
398,230,22073,5,0,0:0:0:0:
398,230,22223,1,0,0:0:0:0:
270,91,22373,2,0,B|249:83|249:83|217:87,3,40,0|0|0|0,3:0|3:0|3:0|3:0,3:0:0:0:
206,93,22673,2,0,B|181:133|181:133|191:198,1,80,8|0,0:0|0:0,0:0:0:0:
297,250,22973,2,0,B|322:210|322:210|312:145,1,80
61,106,23273,6,0,B|43:51|43:51|57:-3,1,80,4|0,3:0|0:0,0:0:0:0:
206,93,23573,2,0,B|224:148|224:148|210:202,1,80
328,264,23873,6,0,B|310:319|310:319|324:373,1,80
463,275,24173,2,0,B|481:220|481:220|467:166,1,80
409,0,24473,6,0,L|383:186,1,160,8|0,0:0|3:0,0:0:0:0:
328,264,24923,1,8,0:0:0:0:
328,264,25073,2,0,B|282:280|282:280|236:266,1,80,0|0,0:0|3:0,0:0:0:0:
145,208,25373,2,0,B|99:192|99:192|53:206,1,80,8|0,0:0|0:0,0:0:0:0:
8,294,25673,5,4,3:0:0:0:
8,294,25823,1,0,0:0:0:0:
74,358,25973,2,0,P|124:368|164:342,1,80
390,184,26273,5,0,3:0:0:0:
390,184,26423,1,0,0:0:0:0:
324,248,26573,2,0,P|274:258|234:232,1,80
23,12,26873,5,6,0:0:0:0:
6,125,27023,1,8,0:0:0:0:
6,125,27098,1,0,3:0:0:0:
6,125,27173,2,0,P|41:169|83:168,1,80,8|0,0:0|3:0,0:0:0:0:
167,123,27473,1,8,0:0:0:0:
167,123,27623,1,0,3:0:0:0:
276,166,27773,1,0,3:0:0:0:
276,166,27923,1,0,3:0:0:0:
393,121,28073,6,0,P|419:61|395:21,1,80,4|0,3:0|3:0,0:0:0:0:
261,0,28373,2,0,P|234:59|258:99,1,80,10|0,0:0|3:0,0:0:0:0:
362,220,28673,1,0,3:0:0:0:
362,220,28823,1,0,3:0:0:0:
329,66,28973,1,10,0:0:0:0:
329,66,29123,1,0,3:0:0:0:
238,195,29273,5,0,3:0:0:0:
238,195,29423,1,0,3:0:0:0:
149,251,29573,2,0,B|97:264|97:264|42:234,1,80,10|0,0:0|3:0,0:0:0:0:
324,141,29873,2,0,B|376:128|376:128|431:158,1,80,0|0,3:0|3:0,0:0:0:0:
149,261,30173,2,0,B|97:274|97:274|42:244,1,80,10|0,0:0|3:0,0:0:0:0:
127,53,30473,6,0,P|90:111|93:134,1,80,0|0,3:0|3:0,0:0:0:0:
211,343,30773,2,0,P|247:284|244:261,1,80,10|0,0:0|3:0,0:0:0:0:
233,150,31073,1,0,3:0:0:0:
233,150,31223,1,0,3:0:0:0:
56,210,31373,1,10,0:0:0:0:
56,210,31523,1,0,3:0:0:0:
169,277,31673,5,0,3:0:0:0:
169,277,31823,1,0,3:0:0:0:
132,146,31973,2,0,B|124:95|124:95|153:46,1,80,10|0,0:0|3:0,0:0:0:0:
267,250,32273,2,0,B|274:300|274:300|245:349,1,80,0|0,3:0|3:0,0:0:0:0:
122,146,32573,2,0,B|114:95|114:95|143:46,1,80,10|0,0:0|3:0,0:0:0:0:
296,152,32873,6,0,P|343:172|381:148,1,80,4|0,3:0|3:0,0:0:0:0:
432,35,33173,2,0,P|385:15|347:39,1,80,10|0,0:0|3:0,0:0:0:0:
259,69,33473,1,0,3:0:0:0:
259,69,33623,1,0,3:0:0:0:
448,183,33773,1,10,0:0:0:0:
448,183,33923,1,0,3:0:0:0:
317,290,34073,5,0,3:0:0:0:
317,290,34223,1,0,3:0:0:0:
403,346,34373,2,0,B|448:363|448:363|498:343,1,80,10|0,0:0|3:0,0:0:0:0:
234,221,34673,2,0,B|189:204|189:204|139:224,1,80,0|0,3:0|3:0,0:0:0:0:
403,356,34973,2,0,B|448:373|448:373|498:353,1,80,10|0,0:0|3:0,0:0:0:0:
358,204,35273,5,4,3:0:0:0:
358,204,35423,1,0,3:0:0:0:
247,337,35573,2,0,L|152:325,1,80,10|0,0:0|3:0,0:0:0:0:
7,211,35873,2,0,L|95:196,1,80,8|0,0:0|3:0,0:0:0:0:
275,89,36173,2,0,L|177:81,1,80,8|0,0:0|3:0,0:0:0:0:
118,14,36473,6,0,P|85:64|98:104,1,80,4|8,3:0|0:0,0:0:0:0:
107,115,36698,1,8,0:0:0:0:
132,146,36773,2,0,P|155:196|135:245,1,80,8|8,0:0|0:0,0:0:0:0:
39,329,37073,6,0,B|0:324|-14:200|174:177|196:311,1,280,4|0,3:0|0:0,0:0:0:0:
202,309,37673,2,0,B|256:410|465:334|376:186|294:232,1,335.999989746094,4|0,3:0|0:0,0:0:0:0:
93,73,38873,6,0,L|44:53,3,40,2|0|0|0,3:0|3:0|3:0|3:0,0:0:0:0:
155,141,39173,2,0,L|206:128,3,40,0|0|0|0,3:0|3:0|3:0|3:0,0:0:0:0:
74,159,39473,5,2,3:0:0:0:
71,181,39548,1,0,3:0:0:0:
68,203,39623,1,0,3:0:0:0:
65,225,39698,1,0,3:0:0:0:
62,248,39773,5,0,3:0:0:0:
78,276,39848,1,0,3:0:0:0:
107,293,39923,1,0,3:0:0:0:
140,294,39998,1,0,3:0:0:0:
170,278,40073,6,0,B|209:251|247:257|247:257|288:303|351:285,1,160,4|10,3:0|0:0,0:0:0:0:
453,182,40523,1,0,3:0:0:0:
344,135,40673,2,0,P|313:174|317:218,1,80,0|0,3:0|3:0,0:0:0:0:
401,354,40973,2,0,P|432:315|428:271,1,80,10|0,0:0|3:0,0:0:0:0:
312,203,41273,6,0,L|210:184,1,80,0|0,3:0|3:0,0:0:0:0:
174,77,41573,2,0,L|274:96,1,80,10|0,0:0|3:0,0:0:0:0:
377,133,41873,6,0,L|483:114,1,80,0|0,3:0|3:0,0:0:0:0:
509,11,42173,2,0,L|399:30,1,80,10|0,0:0|3:0,0:0:0:0:
252,91,42473,6,0,L|223:271,1,160,0|10,3:0|0:0,0:0:0:0:
210,341,42923,1,0,3:0:0:0:
132,279,43073,2,0,P|83:258|38:266,1,80,0|0,3:0|3:0,0:0:0:0:
298,319,43373,2,0,P|347:340|391:334,1,80,10|0,0:0|3:0,0:0:0:0:
461,290,43673,5,0,3:0:0:0:
461,290,43823,1,0,3:0:0:0:
453,201,43973,2,0,L|448:93,1,80,10|0,0:0|3:0,0:0:0:0:
331,190,44273,5,0,3:0:0:0:
331,190,44423,1,0,3:0:0:0:
339,101,44573,2,0,L|345:-9,1,80,10|0,0:0|3:0,0:0:0:0:
164,81,44873,6,0,B|146:132|146:132|178:185,1,80,0|0,3:0|3:0,0:0:0:0:
326,263,45173,2,0,B|344:212|344:212|312:159,1,80,10|0,0:0|3:0,0:0:0:0:
245,150,45473,6,0,L|225:330,1,160,0|10,3:0|0:0,0:0:0:0:
123,344,45923,2,0,P|90:293|144:319,1,160,0|0,3:0|3:0,0:0:0:0:
388,207,46373,2,0,P|410:178|380:192,1,80,10|0,0:0|3:0,0:0:0:0:
175,98,46673,2,0,P|155:68|189:73,1,80,0|0,3:0|3:0,0:0:0:0:
267,116,46973,2,0,L|348:101,1,80,10|0,0:0|3:0,0:0:0:0:
401,47,47273,6,0,L|385:242,1,160,4|8,0:0|0:0,0:0:0:0:
165,187,47723,1,0,3:0:0:0:
165,187,47873,6,0,L|181:379,1,160,0|8,3:0|0:0,0:0:0:0:
373,343,48323,1,0,3:0:0:0:
373,343,48473,6,0,B|438:338|450:304|450:304|418:287|377:312,1,160,0|8,3:0|0:0,0:0:0:0:
275,276,48923,2,0,B|210:271|192:243|192:243|230:220|271:245,1,160,8|8,0:0|0:0,0:0:0:0:
357,224,49373,1,8,0:0:0:0:
280,361,49523,1,0,3:0:0:0:
124,314,49673,6,0,P|91:235|147:165,1,160,4|10,3:0|0:0,0:0:0:0:
198,142,50123,1,0,3:0:0:0:
271,110,50273,2,0,P|317:69|322:25,1,80,0|0,3:0|3:0,0:0:0:0:
169,10,50573,2,0,P|123:51|118:95,1,80,10|0,0:0|3:0,0:0:0:0:
96,242,50873,6,0,P|50:201|45:157,1,80,0|0,3:0|3:0,0:0:0:0:
198,142,51173,2,0,P|244:183|249:227,1,80,10|0,0:0|3:0,0:0:0:0:
255,326,51473,5,0,3:0:0:0:
255,326,51623,1,0,3:0:0:0:
342,303,51773,2,0,L|426:283,1,80,10|0,0:0|3:0,0:0:0:0:
435,35,52073,6,0,P|398:29|368:139,1,160,4|10,3:0|0:0,0:0:0:0:
396,197,52523,1,0,3:0:0:0:
448,267,52673,2,0,P|454:317|360:343,1,160,0|10,3:0|0:0,0:0:0:0:
296,299,53123,1,0,3:0:0:0:
224,204,53273,6,0,L|241:113,1,80,0|0,3:0|3:0,0:0:0:0:
313,71,53573,2,0,B|360:76|360:76|312:90,1,80,10|0,0:0|3:0,0:0:0:0:
140,208,53873,6,0,L|123:299,1,80,0|0,3:0|3:0,0:0:0:0:
51,341,54173,2,0,B|4:336|4:336|52:322,1,80,10|0,0:0|3:0,0:0:0:0:
255,351,54473,6,0,P|316:292|302:255,1,120,4|0,3:0|0:0,0:0:0:0:
293,237,54773,2,0,P|271:189|293:144,1,80,10|0,0:0|3:0,0:0:0:0:
383,55,55073,2,0,P|410:105|323:190,1,160,0|10,3:0|0:0,0:0:0:0:
276,164,55523,1,0,3:0:0:0:
203,111,55673,6,0,B|142:86|120:127|97:158|41:132,1,160,0|10,3:0|0:0,0:0:0:0:
69,61,56123,1,0,3:0:0:0:
175,186,56273,2,0,B|154:324,1,120,0|0,3:0|0:0,0:0:0:0:
154,333,56573,2,0,P|191:358|243:347,1,80,10|0,0:0|3:0,0:0:0:0:
366,293,56873,5,4,0:0:0:0:
366,293,57023,1,0,0:0:0:0:
437,247,57173,2,0,P|399:209|355:212,1,80,8|0,0:0|3:0,0:0:0:0:
161,183,57473,5,4,3:0:0:0:
161,183,57623,1,0,0:0:0:0:
93,136,57773,2,0,P|128:99|172:102,1,80,8|0,0:0|3:0,0:0:0:0:
278,38,58073,6,0,L|259:227,1,160,0|8,3:0|0:0,0:0:0:0:
261,197,58523,1,0,3:0:0:0:
195,74,58673,1,8,0:0:0:0:
360,158,58823,1,8,0:0:0:0:
198,262,58973,2,0,P|136:261|111:243,1,80,0|0,3:0|3:0,0:0:0:0:
0,29,59273,5,4,3:0:0:0:
19,135,59423,1,0,3:0:0:0:
121,168,59573,1,8,0:0:0:0:
223,135,59723,2,0,P|329:139|367:234,1,191.999994140625,2|0,0:0|3:0,0:0:0:0:
407,282,60173,2,0,P|366:296|307:249,1,95.9999970703126,8|2,0:0|0:0,0:0:0:0:
121,168,60473,6,0,B|92:122|92:122|139:98,1,95.9999970703126,0|0,3:0|3:0,0:0:0:0:
223,135,60773,2,0,L|204:249,1,95.9999970703126,8|2,0:0|0:0,0:0:0:0:
407,282,61073,6,0,B|436:236|436:236|389:212,1,95.9999970703126,0|0,3:0|3:0,0:0:0:0:
305,249,61373,2,0,L|324:363,1,95.9999970703126,8|2,0:0|0:0,0:0:0:0:
207,241,61673,6,0,P|103:255|29:188,1,191.999994140625,4|8,3:0|0:0,0:0:0:0:
38,204,62123,1,2,0:0:0:0:
194,68,62273,2,0,P|230:122|189:257,1,191.999994140625,0|8,3:0|0:0,0:0:0:0:
224,240,62723,6,0,P|253:151|211:67,1,191.999994140625,2|0,0:0|3:0,0:0:0:0:
108,3,63173,5,8,0:0:0:0:
108,3,63323,1,2,0:0:0:0:
48,87,63473,2,0,B|71:96|92:112|92:112|115:102|156:96,1,95.9999970703126,0|0,3:0|3:0,0:0:0:0:
372,207,63773,2,0,B|349:216|328:232|328:232|305:222|264:216,1,95.9999970703126,8|2,0:0|0:0,0:0:0:0:
30,331,64073,6,0,P|93:294|221:345,1,191.999994140625,0|8,3:0|0:0,0:0:0:0:
202,323,64523,1,2,0:0:0:0:
301,373,64673,2,0,P|349:327|348:294,1,95.9999970703126,0|0,3:0|3:0,0:0:0:0:
287,162,64973,2,0,P|239:208|240:241,1,95.9999970703126,8|2,0:0|0:0,0:0:0:0:
463,271,65273,6,0,P|501:201|419:233,1,191.999994140625,4|8,3:0|0:0,0:0:0:0:
370,285,65723,1,2,0:0:0:0:
474,267,65873,6,0,P|516:193|430:229,1,191.999994140625,0|8,3:0|0:0,0:0:0:0:
370,285,66323,1,2,0:0:0:0:
287,352,66473,6,0,L|169:329,1,95.9999970703126,4|0,3:0|3:0,0:0:0:0:
49,222,66773,2,0,L|158:206,1,95.9999970703126,8|2,0:0|0:0,0:0:0:0:
274,141,67073,1,0,3:0:0:0:
115,67,67223,1,0,3:0:0:0:
274,141,67373,1,8,0:0:0:0:
115,67,67523,1,2,0:0:0:0:
170,187,67673,5,8,0:0:0:0:
170,187,67823,1,8,0:0:0:0:
170,187,67973,1,8,0:0:0:0:
170,187,68123,2,0,B|162:233|208:272|208:272|229:333|191:389,1,191.999994140625,4|8,3:0|0:0,0:0:0:0:
112,321,68573,1,8,0:0:0:0:
112,321,68723,1,0,3:0:0:0:
333,301,68873,6,0,P|392:298|425:246,1,95.9999970703126,4|0,3:0|3:0,0:0:0:0:
405,165,69173,2,0,P|346:168|313:220,1,95.9999970703126,10|0,0:0|3:0,0:0:0:0:
212,210,69473,6,0,P|153:207|120:155,1,95.9999970703126,0|0,3:0|3:0,0:0:0:0:
140,74,69773,2,0,P|199:77|232:129,1,95.9999970703126,10|0,0:0|3:0,0:0:0:0:
255,354,70073,5,0,3:0:0:0:
255,354,70223,1,0,3:0:0:0:
331,309,70373,2,0,B|352:247|352:247|326:195,1,95.9999970703126,10|0,0:0|3:0,0:0:0:0:
299,146,70673,5,0,3:0:0:0:
299,146,70823,1,0,3:0:0:0:
223,101,70973,2,0,B|202:39|202:39|228:-13,1,95.9999970703126,10|0,0:0|3:0,0:0:0:0:
500,88,71273,6,0,P|499:133|474:181,1,95.9999970703126,4|0,3:0|3:0,0:0:0:0:
387,147,71573,2,0,P|387:101|412:53,1,95.9999970703126,10|0,0:0|3:0,0:0:0:0:
246,262,71873,6,0,P|246:307|271:355,1,95.9999970703126,0|0,3:0|3:0,0:0:0:0:
359,321,72173,2,0,P|358:275|333:227,1,95.9999970703126,10|0,0:0|3:0,0:0:0:0:
163,26,72473,5,0,3:0:0:0:
163,26,72623,1,0,3:0:0:0:
101,82,72773,2,0,B|80:133|80:133|97:170,1,95.9999970703126,10|0,0:0|3:0,0:0:0:0:
162,222,73073,5,0,3:0:0:0:
162,222,73223,1,0,3:0:0:0:
224,278,73373,2,0,B|245:329|245:329|228:366,1,95.9999970703126,10|0,0:0|3:0,0:0:0:0:
58,353,73673,6,0,P|41:322|75:349,1,95.9999970703126,4|0,3:0|3:0,0:0:0:0:
120,229,73973,6,0,P|128:194|134:238,1,95.9999970703126,10|0,0:0|3:0,0:0:0:0:
270,177,74273,6,0,P|301:160|274:194,1,95.9999970703126,0|0,3:0|3:0,0:0:0:0:
394,239,74573,6,0,P|429:247|384:253,1,95.9999970703126,10|0,0:0|3:0,0:0:0:0:
213,384,74873,6,0,P|157:303|217:225,1,191.999994140625,4|10,3:0|0:0,0:0:0:0:
200,232,75323,1,0,3:0:0:0:
270,177,75473,2,0,P|323:122|274:22,1,191.999994140625,4|10,3:0|0:0,0:0:0:0:
222,96,75923,1,0,3:0:0:0:
320,278,76073,6,0,L|333:329,3,47.9999985351563,0|0|0|0,3:0|3:0|3:0|3:0,0:0:0:0:
409,205,76373,2,0,L|422:152,3,47.9999985351563,0|0|0|0,3:0|3:0|3:0|3:0,0:0:0:0:
454,296,76673,1,8,0:0:0:0:
454,296,76748,1,0,3:0:0:0:
454,296,76823,2,0,L|391:283,1,47.9999985351563,0|0,3:0|3:0,0:0:0:0:
313,187,76973,2,0,L|198:208,1,95.9999970703126,0|0,3:0|3:0,0:0:0:0:
29,232,77273,5,4,3:0:0:0:
29,232,77573,1,0,0:0:0:0:
29,232,77873,6,0,B|21:268|21:268|31:295,1,47.9999985351563,0|0,3:0|0:0,0:0:0:0:
133,364,78023,1,8,0:0:0:0:
133,364,78098,1,8,0:0:0:0:
133,364,78173,2,0,B|147:335|162:322|162:322|159:302|143:278,1,83.9999974365235,8|0,0:0|0:0,0:0:0:0:
131,262,78473,6,0,B|109:190|109:190|148:136,1,120.000004577637,4|2,0:0|3:0,0:0:0:0:
381,122,78773,2,0,B|403:194|403:194|364:248,1,120.000004577637,10|2,0:0|3:0,0:0:0:0:
86,71,79073,2,0,B|149:52|149:52|217:91,1,120.000004577637,0|2,3:0|3:0,0:0:0:0:
426,313,79373,2,0,B|363:332|363:332|295:293,1,120.000004577637,10|2,0:0|3:0,0:0:0:0:
252,222,79673,6,2,L|278:19,1,180.000006866455,0|0,3:0|0:0,1:1:0:0:
280,5,79973,2,0,B|351:33|351:33|359:95,1,120.000004577637,10|0,0:0|3:0,0:0:0:0:
250,377,80273,2,0,B|179:349|179:349|171:287,1,120.000004577637,2|2,3:0|3:0,0:0:0:0:
95,184,80573,1,10,0:0:0:0:
95,184,80723,1,2,3:0:0:0:
337,102,80873,6,0,L|318:252,1,120.000004577637,4|2,0:0|3:0,0:0:0:0:
175,282,81173,2,0,L|194:132,1,120.000004577637,10|2,0:0|3:0,0:0:0:0:
379,326,81473,2,0,L|252:292,1,120.000004577637,0|2,3:0|3:0,0:0:0:0:
133,58,81773,2,0,L|260:92,1,120.000004577637,10|2,0:0|3:0,0:0:0:0:
422,235,82073,6,2,P|490:158|447:78,1,180.000006866455,0|0,3:0|0:0,1:0:0:0:
446,70,82373,2,0,P|384:102|381:158,1,120.000004577637,10|0,0:0|3:0,0:0:0:0:
431,368,82673,2,0,P|493:336|496:280,1,120.000004577637,2|2,3:0|3:0,0:0:0:0:
436,70,82973,2,0,P|374:102|371:158,1,120.000004577637,10|2,0:0|3:0,0:0:0:0:
337,298,83273,6,0,B|152:273,1,180.000006866455,4|0,0:0|0:0,0:0:0:0:
130,268,83573,2,0,P|76:213|96:164,1,120.000004577637,10|0,0:0|3:0,0:0:0:0:
167,103,83873,2,0,P|221:158|201:207,1,120.000004577637,0|0,3:0|3:0,0:0:0:0:
67,332,84173,1,10,0:0:0:0:
67,332,84323,1,0,3:0:0:0:
84,178,84473,6,0,B|110:168|110:168|228:199|228:199|277:188,1,180.000006866455,4|0,3:0|0:0,0:0:0:0:
285,179,84773,2,0,B|316:119|316:119|302:68,1,120.000004577637,10|0,0:0|3:0,0:0:0:0:
214,0,85073,2,0,B|250:56|250:56|301:70,1,120.000004577637,0|0,3:0|3:0,0:0:0:0:
406,30,85373,2,0,B|338:33|338:33|301:70,1,120.000004577637,10|0,0:0|3:0,0:0:0:0:
279,286,85673,6,0,B|344:250|356:308|365:350|475:320,1,180.000006866455,4|0,0:0|0:0,0:0:0:0:
469,310,85973,2,0,P|475:257|410:267,1,120.000004577637,10|0,0:0|3:0,0:0:0:0:
242,186,86273,6,0,L|253:135,1,47.9999985351563,0|10,3:0|0:0,0:0:0:0:
221,29,86723,1,0,3:0:0:0:
253,140,86873,6,2,P|312:173|372:155,1,120.000004577637,0|0,3:0|0:0,1:1:0:0:
456,60,87173,2,0,P|397:27|337:45,1,120.000004577637,10|0,0:0|3:0,0:0:0:0:
158,181,87473,2,0,L|170:247,3,60.0000022888184,0|0|0|0,3:0|3:0|3:0|3:0,0:0:0:0:
165,279,87773,2,0,L|222:316,3,60.0000022888184,0|0|0|0,3:0|3:0|3:0|3:0,0:0:0:0:
230,353,88073,6,0,B|301:353|301:353|351:305,1,120.000004577637,4|2,0:0|3:0,0:0:0:0:
282,31,88373,2,0,B|211:31|211:31|161:79,1,120.000004577637,10|2,0:0|3:0,0:0:0:0:
417,218,88673,2,0,B|417:147|417:147|369:97,1,120.000004577637,0|2,3:0|3:0,0:0:0:0:
95,166,88973,2,0,B|95:237|95:237|143:287,1,120.000004577637,10|2,0:0|3:0,0:0:0:0:
247,276,89273,6,2,L|267:79,1,180.000006866455,0|0,3:0|0:0,1:1:0:0:
273,64,89573,2,0,B|325:36|325:36|363:32|396:56,1,120.000004577637,10|0,0:0|3:0,0:0:0:0:
483,280,89873,2,0,B|431:308|431:308|393:312|360:288,1,120.000004577637,0|0,3:0|3:0,0:0:0:0:
188,181,90173,1,10,0:0:0:0:
188,181,90323,1,0,3:0:0:0:
353,129,90473,6,0,B|494:113,1,120.000004577637,4|2,0:0|3:0,0:0:0:0:
188,181,90773,2,0,B|47:165,1,120.000004577637,10|2,0:0|3:0,0:0:0:0:
357,276,91073,2,0,B|498:260,1,120.000004577637,0|2,3:0|3:0,0:0:0:0:
191,354,91373,2,0,B|50:338,1,120.000004577637,10|2,0:0|3:0,0:0:0:0:
288,188,91673,6,2,B|473:174,1,180.000006866455,0|0,3:0|0:0,1:1:0:0:
491,173,91973,2,0,P|504:99|465:67,1,120.000004577637,10|0,0:0|3:0,0:0:0:0:
216,151,92273,2,0,P|203:225|242:257,1,120.000004577637,2|2,3:0|3:0,0:0:0:0:
501,173,92573,2,0,P|514:99|475:67,1,120.000004577637,10|2,0:0|3:0,0:0:0:0:
265,42,92873,6,0,B|209:79|174:9|67:21,1,180.000006866455,4|0,3:0|0:0,0:0:0:0:
66,20,93173,2,0,P|44:89|96:133,1,120.000004577637,10|0,0:0|3:0,0:0:0:0:
292,195,93473,6,0,B|348:232|383:162|490:174,1,180.000006866455,4|0,3:0|0:0,0:0:0:0:
491,173,93773,2,0,P|513:242|461:286,1,120.000004577637,10|0,0:0|3:0,0:0:0:0:
202,360,94073,5,4,3:0:0:0:
202,360,94223,1,0,3:0:0:0:
50,305,94373,2,0,B|57:285|77:269|77:269|79:263|79:263|125:252|153:274,1,120.000004577637,10|0,0:0|3:0,0:0:0:0:
276,286,94673,5,4,3:0:0:0:
276,286,94823,1,0,3:0:0:0:
428,231,94973,2,0,B|421:211|401:195|401:195|399:189|399:189|353:178|323:201,1,120.000004577637,10|0,0:0|3:0,0:0:0:0:
197,218,95273,6,0,P|138:98|202:28,1,215.999993408203,4|0,0:0|0:0,0:0:0:0:
207,30,95573,2,0,P|258:76|255:129,1,120.000004577637,10|0,0:0|3:0,0:0:0:0:
197,218,95873,6,2,P|165:295|216:373,2,160,0|10|0,3:0|0:0|3:0,1:0:0:0:
257,123,96623,1,0,3:0:0:0:
258,291,96773,5,10,0:0:0:0:
105,202,96923,1,0,3:0:0:0:
331,70,97073,5,0,3:0:0:0:
331,70,97148,1,0,3:0:0:0:
331,70,97223,2,0,B|360:105|360:105|350:141,1,60.0000022888184,0|0,3:0|3:0,0:0:0:0:
310,213,97373,2,0,L|180:192,1,120.000004577637,0|0,3:0|3:0,0:0:0:0:
89,65,97673,6,0,B|153:48|153:48|199:79,1,120.000004577637,4|2,0:0|3:0,0:0:0:0:
423,319,97973,2,0,B|359:336|359:336|313:305,1,120.000004577637,10|2,0:0|3:0,0:0:0:0:
383,25,98273,2,0,B|400:89|400:89|369:135,1,120.000004577637,0|2,3:0|3:0,0:0:0:0:
129,359,98573,2,0,B|112:295|112:295|143:249,1,120.000004577637,10|2,0:0|3:0,0:0:0:0:
264,165,98873,6,0,L|39:146,1,215.999993408203,4|0,3:0|0:0,0:0:0:0:
23,143,99173,2,0,B|-7:208|-7:208|22:274,1,120.000004577637,8|0,0:0|3:0,0:0:0:0:
129,359,99473,6,0,L|194:344,3,60.0000022888184,0|0|2|0,3:0|3:0|3:0|3:0,0:0:0:0:
213,319,99773,1,0,3:0:0:0:
242,324,99848,1,0,3:0:0:0:
272,329,99923,1,2,3:0:0:0:
301,335,99998,1,0,3:0:0:0:
331,340,100073,6,0,P|383:295|373:245,1,120.000004577637,0|0,3:0|3:0,0:0:0:0:
352,46,100373,2,0,P|300:91|310:141,1,120.000004577637,0|0,3:0|3:0,0:0:0:0:
376,249,100673,6,0,L|462:239,1,80,4|0,3:0|0:0,0:0:0:0:
479,154,100973,2,0,L|393:164,1,80
150,123,101273,6,0,L|64:113,1,80,4|0,3:0|0:0,0:0:0:0:
47,28,101573,2,0,L|133:38,1,80
339,58,101873,5,0,3:0:0:0:
256,164,102023,1,8,0:0:0:0:
256,164,102098,1,8,0:0:0:0:
256,164,102173,2,0,L|282:292,1,120.000004577637,10|8,0:0|0:0,0:0:0:0:
197,370,102473,5,4,0:0:0:0:
256,192,102548,12,4,104873,0:0:0:0:
206,337,109673,6,0,P|146:346|111:327,1,80,4|0,3:0|3:0,0:0:0:0:
295,283,109973,2,0,P|355:292|390:273,1,80,8|0,0:0|3:0,0:0:0:0:
169,248,110273,2,0,P|131:196|141:162,1,80,8|0,0:0|3:0,0:0:0:0:
329,193,110573,2,0,P|367:141|357:107,1,80,8|0,0:0|3:0,0:0:0:0:
266,8,110873,6,0,P|236:16|239:98,1,120,8|0,0:0|3:0,0:0:0:0:
366,129,111473,1,0,3:0:0:0:
389,124,111548,1,0,3:0:0:0:
411,120,111623,1,0,3:0:0:0:
433,116,111698,1,0,3:0:0:0:
455,111,111773,2,0,P|481:160|467:206,1,80,8|0,0:0|0:0,0:0:0:0:
420,284,112073,5,4,0:0:0:0:
420,284,113123,6,0,P|399:247|339:235,2,80,8|0|0,0:0|3:0|3:0,0:0:0:0:
267,332,113573,2,0,P|309:332|349:286,2,80,8|0|0,0:0|3:0|3:0,0:0:0:0:
288,173,114023,2,0,P|266:209|286:267,2,80,8|8|8,0:0|0:0|0:0,0:0:0:0:
406,110,114473,6,0,L|226:81,1,160,4|10,3:0|0:0,0:0:0:0:
144,115,114923,1,0,3:0:0:0:
144,115,115073,2,0,P|123:164|131:209,1,80,0|0,3:0|3:0,0:0:0:0:
224,358,115373,2,0,P|245:309|237:264,1,80,10|0,0:0|3:0,0:0:0:0:
213,197,115673,5,0,3:0:0:0:
213,197,115823,1,0,3:0:0:0:
124,189,115973,2,0,L|16:184,1,80,10|0,0:0|3:0,0:0:0:0:
259,112,116273,5,0,3:0:0:0:
259,112,116423,1,0,3:0:0:0:
348,104,116573,2,0,L|456:99,1,80,10|0,0:0|3:0,0:0:0:0:
491,143,116873,6,0,B|509:92|509:92|477:39,1,80,4|0,3:0|3:0,0:0:0:0:
332,202,117173,2,0,B|314:253|314:253|346:306,1,80,10|0,0:0|3:0,0:0:0:0:
436,363,117473,6,0,L|416:183,1,160,0|10,3:0|0:0,0:0:0:0:
393,58,117923,2,0,B|323:44|327:128|218:107,1,160,0|0,3:0|3:0,0:0:0:0:
112,101,118373,6,0,P|121:51|151:45,1,80,10|0,0:0|3:0,0:0:0:0:
150,179,118673,2,0,P|102:196|82:173,1,80,0|0,3:0|3:0,0:0:0:0:
199,108,118973,2,0,P|237:140|227:169,1,80,10|0,0:0|3:0,0:0:0:0:
163,338,119273,6,0,L|147:143,1,160,4|10,3:0|0:0,0:0:0:0:
347,187,119723,1,0,3:0:0:0:
347,187,119873,6,0,L|363:-5,1,160,0|10,3:0|0:0,0:0:0:0:
269,81,120323,1,0,3:0:0:0:
269,81,120473,6,0,B|204:76|209:47|209:47|224:25|265:50,1,120.000004577637,0|8,3:0|0:0,0:0:0:0:
431,62,120923,2,0,B|496:67|491:96|491:96|476:118|435:93,1,120.000004577637,8|8,0:0|0:0,0:0:0:0:
328,9,121373,5,8,0:0:0:0:
347,187,121523,1,0,3:0:0:0:
125,207,121673,6,0,P|89:138|175:111,1,160,4|10,3:0|0:0,0:0:0:0:
198,242,122123,1,0,3:0:0:0:
271,274,122273,2,0,P|317:315|322:359,1,80,0|0,3:0|3:0,0:0:0:0:
169,374,122573,2,0,P|123:333|118:289,1,80,10|0,0:0|3:0,0:0:0:0:
96,142,122873,6,0,P|50:183|45:227,1,80,0|0,3:0|3:0,0:0:0:0:
198,242,123173,2,0,P|244:201|249:157,1,80,10|0,0:0|3:0,0:0:0:0:
255,58,123473,5,0,3:0:0:0:
255,58,123623,1,0,3:0:0:0:
342,81,123773,2,0,L|426:101,1,80,10|0,0:0|3:0,0:0:0:0:
435,349,124073,6,0,P|398:355|368:245,1,160,4|10,3:0|0:0,0:0:0:0:
396,187,124523,1,0,3:0:0:0:
448,117,124673,2,0,P|454:67|360:41,1,160,0|10,3:0|0:0,0:0:0:0:
296,85,125123,1,0,3:0:0:0:
224,180,125273,6,0,L|241:271,1,80,0|0,3:0|3:0,0:0:0:0:
313,313,125573,2,0,B|360:308|360:308|312:294,1,80,10|0,0:0|3:0,0:0:0:0:
140,176,125873,6,0,L|123:85,1,80,0|0,3:0|3:0,0:0:0:0:
51,43,126173,2,0,B|4:48|4:48|52:62,1,80,10|0,0:0|3:0,0:0:0:0:
255,33,126473,6,0,P|316:92|302:129,1,120,4|0,3:0|0:0,0:0:0:0:
293,147,126773,2,0,P|271:195|293:240,1,80,10|0,0:0|3:0,0:0:0:0:
383,329,127073,2,0,P|410:279|323:194,1,160,0|10,3:0|0:0,0:0:0:0:
276,220,127523,1,0,3:0:0:0:
203,273,127673,6,0,B|142:298|120:257|97:226|41:252,1,160,4|10,3:0|0:0,0:0:0:0:
69,323,128123,1,0,3:0:0:0:
175,198,128273,2,0,B|154:60,1,120,0|0,3:0|0:0,0:0:0:0:
154,51,128573,2,0,P|191:26|243:37,1,80,10|0,0:0|3:0,0:0:0:0:
366,91,128873,5,4,0:0:0:0:
366,91,129023,1,0,0:0:0:0:
437,137,129173,2,0,P|399:175|355:172,1,80,8|0,0:0|3:0,0:0:0:0:
161,201,129473,5,4,3:0:0:0:
161,201,129623,1,0,0:0:0:0:
93,248,129773,2,0,P|128:285|172:282,1,80,8|0,0:0|3:0,0:0:0:0:
278,346,130073,6,0,L|259:157,1,160,0|8,3:0|0:0,0:0:0:0:
262,186,130523,1,0,3:0:0:0:
195,310,130673,1,8,0:0:0:0:
360,226,130823,1,8,0:0:0:0:
198,122,130973,2,0,P|136:123|111:141,1,80,0|0,3:0|3:0,0:0:0:0:
0,355,131273,5,4,3:0:0:0:
104,341,131423,1,0,3:0:0:0:
208,326,131573,1,8,0:0:0:0:
312,310,131723,2,0,P|384:232|343:138,1,191.999994140625,2|0,0:0|3:0,0:0:0:0:
315,48,132173,2,0,P|276:67|267:142,1,95.9999970703126,8|2,0:0|0:0,0:0:0:0:
112,287,132473,5,0,3:0:0:0:
112,287,132623,1,0,3:0:0:0:
190,225,132773,2,0,L|171:111,1,95.9999970703126,8|2,0:0|0:0,0:0:0:0:
380,214,133073,5,0,3:0:0:0:
380,214,133223,1,0,3:0:0:0:
305,135,133373,2,0,L|324:21,1,95.9999970703126,8|2,0:0|0:0,0:0:0:0:
174,130,133673,6,0,B|76:116|76:116|-3:186,1,191.999994140625,4|8,3:0|0:0,0:0:0:0:
6,177,134123,1,2,0:0:0:0:
194,316,134273,2,0,B|230:262|230:262|189:127,1,191.999994140625,0|8,3:0|0:0,0:0:0:0:
207,138,134723,6,0,B|243:259|243:259|207:313,1,191.999994140625,2|0,0:0|3:0,0:0:0:0:
80,365,135173,5,8,0:0:0:0:
80,365,135323,1,2,0:0:0:0:
14,291,135473,2,0,P|60:263|129:291,1,95.9999970703126,0|0,3:0|3:0,0:0:0:0:
371,183,135773,2,0,P|328:155|264:168,1,95.9999970703126,8|2,0:0|0:0,0:0:0:0:
15,34,136073,6,0,P|70:96|192:75,1,191.999994140625,4|8,3:0|0:0,0:0:0:0:
172,90,136523,1,2,0:0:0:0:
297,22,136673,2,0,P|345:68|344:101,1,95.9999970703126,0|0,3:0|3:0,0:0:0:0:
253,242,136973,2,0,P|205:196|206:163,1,95.9999970703126,8|2,0:0|0:0,0:0:0:0:
431,113,137273,6,0,L|413:309,1,191.999994140625,4|8,3:0|0:0,0:0:0:0:
336,351,137723,1,2,0:0:0:0:
423,299,137873,6,0,L|440:107,1,191.999994140625,0|8,3:0|0:0,0:0:0:0:
390,18,138323,1,2,0:0:0:0:
295,38,138473,6,0,L|177:61,1,95.9999970703126,4|0,3:0|3:0,0:0:0:0:
47,164,138773,2,0,L|156:180,1,95.9999970703126,8|2,0:0|0:0,0:0:0:0:
274,243,139073,1,0,3:0:0:0:
115,317,139223,1,0,3:0:0:0:
274,243,139373,1,8,0:0:0:0:
115,317,139523,1,2,0:0:0:0:
152,189,139673,5,8,0:0:0:0:
152,189,139823,1,8,0:0:0:0:
152,189,139973,1,8,0:0:0:0:
152,189,140123,2,0,B|144:143|190:104|190:104|211:43|173:-13,1,191.999994140625,4|8,3:0|0:0,0:0:0:0:
99,73,140573,1,8,0:0:0:0:
99,73,140723,1,0,3:0:0:0:
415,98,140873,6,0,P|446:148|422:204,1,95.9999970703126,4|0,3:0|3:0,0:0:0:0:
344,234,141173,2,0,P|312:183|336:127,1,95.9999970703126,10|0,0:0|3:0,0:0:0:0:
77,200,141473,6,0,P|50:252|78:307,1,95.9999970703126,0|0,3:0|3:0,0:0:0:0:
158,330,141773,2,0,P|184:277|156:222,1,95.9999970703126,10|0,0:0|3:0,0:0:0:0:
235,15,142073,5,0,3:0:0:0:
235,15,142223,1,0,3:0:0:0:
311,60,142373,2,0,B|332:122|332:122|306:174,1,95.9999970703126,10|0,0:0|3:0,0:0:0:0:
265,216,142673,5,0,3:0:0:0:
265,216,142823,1,0,3:0:0:0:
204,274,142973,2,0,B|183:336|183:336|209:388,1,95.9999970703126,10|0,0:0|3:0,0:0:0:0:
402,363,143273,6,0,P|447:362|495:337,1,95.9999970703126,4|0,3:0|3:0,0:0:0:0:
461,250,143573,2,0,P|415:250|367:275,1,95.9999970703126,10|0,0:0|3:0,0:0:0:0:
99,256,143873,6,0,P|54:256|6:231,1,95.9999970703126,0|0,3:0|3:0,0:0:0:0:
40,143,144173,2,0,P|86:144|134:169,1,95.9999970703126,10|0,0:0|3:0,0:0:0:0:
272,350,144473,5,0,3:0:0:0:
272,350,144623,1,0,3:0:0:0:
210,294,144773,2,0,B|189:243|189:243|206:206,1,95.9999970703126,10|0,0:0|3:0,0:0:0:0:
271,154,145073,5,0,3:0:0:0:
271,154,145223,1,0,3:0:0:0:
333,98,145373,2,0,B|354:47|354:47|337:10,1,95.9999970703126,10|0,0:0|3:0,0:0:0:0:
101,94,145673,6,0,B|82:146|82:146|129:110,1,95.9999970703126,4|0,3:0|3:0,0:0:0:0:
177,196,145973,6,0,B|200:246|200:246|208:187,1,95.9999970703126,10|0,0:0|3:0,0:0:0:0:
312,185,146273,6,0,B|364:204|364:204|328:157,1,95.9999970703126,0|0,3:0|3:0,0:0:0:0:
384,75,146573,6,0,B|434:51|434:51|375:43,1,95.9999970703126,10|0,0:0|3:0,0:0:0:0:
127,119,146873,6,0,B|90:153|71:200|71:200|101:235|109:287,1,191.999994140625,4|10,3:0|0:0,0:0:0:0:
108,283,147323,1,0,3:0:0:0:
279,373,147473,2,0,B|316:339|335:292|335:292|305:257|297:205,1,191.999994140625,4|10,3:0|0:0,0:0:0:0:
297,208,147923,1,0,3:0:0:0:
314,103,148073,6,0,L|327:52,3,47.9999985351563,0|0|0|0,3:0|3:0|3:0|3:0,0:0:0:0:
403,176,148373,2,0,L|416:229,3,47.9999985351563,0|0|0|0,3:0|3:0|3:0|3:0,0:0:0:0:
447,80,148673,1,8,0:0:0:0:
447,80,148748,1,0,3:0:0:0:
447,80,148823,2,0,L|384:93,1,47.9999985351563,0|0,3:0|3:0,0:0:0:0:
297,208,148973,2,0,L|182:187,1,95.9999970703126,0|0,3:0|3:0,0:0:0:0:
29,152,149273,5,4,3:0:0:0:
29,152,149573,5,0,0:0:0:0:
29,152,149873,6,0,B|21:116|21:116|31:89,1,47.9999985351563,0|0,3:0|0:0,0:0:0:0:
109,37,150023,1,8,0:0:0:0:
109,37,150098,1,8,0:0:0:0:
109,37,150173,2,0,B|138:23|151:8|151:8|171:11|195:27,1,83.9999974365235,8|0,0:0|0:0,0:0:0:0:
210,33,150473,6,0,B|232:105|232:105|193:159,1,120.000004577637,4|2,0:0|3:0,0:0:0:0:
47,344,150773,2,0,B|25:272|25:272|64:218,1,120.000004577637,10|2,0:0|3:0,0:0:0:0:
253,230,151073,2,0,B|311:251|311:251|387:228,1,120.000004577637,0|2,3:0|3:0,0:0:0:0:
507,32,151373,2,0,B|449:11|449:11|373:34,1,120.000004577637,10|2,0:0|3:0,0:0:0:0:
318,161,151673,6,2,L|292:364,1,180.000006866455,0|0,3:0|0:0,1:0:0:0:
292,366,151973,2,0,B|230:375|230:375|176:321,1,120.000004577637,10|0,0:0|3:0,0:0:0:0:
220,18,152273,2,0,B|282:9|282:9|336:63,1,120.000004577637,2|2,3:0|3:0,0:0:0:0:
413,166,152573,1,10,0:0:0:0:
413,166,152723,1,2,3:0:0:0:
202,232,152873,6,0,L|52:213,1,120.000004577637,4|2,0:0|3:0,0:0:0:0:
55,210,153173,2,0,L|74:60,1,120.000004577637,10|2,0:0|3:0,0:0:0:0:
293,150,153473,6,0,L|443:169,1,120.000004577637,0|2,3:0|3:0,0:0:0:0:
440,172,153773,2,0,L|421:322,1,120.000004577637,10|2,0:0|3:0,0:0:0:0:
299,353,154073,6,2,P|197:352|121:312,1,180.000006866455,0|0,3:0|0:0,1:0:0:0:
113,297,154373,2,0,P|163:244|164:179,1,120.000004577637,10|0,0:0|3:0,0:0:0:0:
73,30,154673,2,0,P|23:83|22:148,1,120.000004577637,2|2,3:0|3:0,0:0:0:0:
123,297,154973,2,0,P|173:244|174:179,1,120.000004577637,10|2,0:0|3:0,0:0:0:0:
193,79,155273,6,0,B|378:104,1,180.000006866455,4|0,0:0|0:0,0:0:0:0:
400,109,155573,2,0,P|454:164|434:213,1,120.000004577637,10|0,0:0|3:0,0:0:0:0:
360,274,155873,2,0,P|306:219|326:170,1,120.000004577637,0|0,3:0|3:0,0:0:0:0:
456,41,156173,1,10,0:0:0:0:
456,41,156323,1,0,3:0:0:0:
487,198,156473,6,0,B|461:208|461:208|343:177|343:177|294:188,1,180.000006866455,4|0,3:0|0:0,0:0:0:0:
285,191,156773,2,0,B|254:131|254:131|268:80,1,120.000004577637,10|0,0:0|3:0,0:0:0:0:
214,239,157073,2,0,B|178:295|178:295|127:309,1,120.000004577637,0|0,3:0|3:0,0:0:0:0:
288,279,157373,2,0,B|356:282|356:282|393:319,1,120.000004577637,10|0,0:0|3:0,0:0:0:0:
126,309,157673,6,0,B|104:112,1,180.000006866455,4|0,0:0|0:0,0:0:0:0:
103,106,157973,2,0,P|154:82|219:104,1,120.000004577637,10|0,0:0|3:0,0:0:0:0:
298,232,158273,6,2,L|287:283,1,47.9999985351563,0|10,3:0|0:0,1:0:0:0:
266,377,158723,1,0,3:0:0:0:
384,202,158873,6,2,P|333:147|277:147,1,120.000004577637,0|0,3:0|0:0,1:0:0:0:
167,241,159173,2,0,P|92:243|52:204,1,120.000004577637,10|0,0:0|3:0,0:0:0:0:
30,51,159473,6,0,L|93:28,3,60.0000022888184,0|0|0|0,3:0|3:0|3:0|3:0,0:0:0:0:
118,8,159773,2,0,L|178:38,3,60.0000022888184,0|0|0|0,3:0|3:0|3:0|3:0,0:0:0:0:
203,49,160073,6,0,B|214:175,1,120.000004577637,4|2,0:0|3:0,0:0:0:0:
309,335,160373,2,0,B|298:209,1,120.000004577637,10|2,0:0|3:0,0:0:0:0:
104,139,160673,2,0,B|93:265,1,120.000004577637,0|2,3:0|3:0,0:0:0:0:
408,245,160973,2,0,B|419:119,1,120.000004577637,10|2,0:0|3:0,0:0:0:0:
494,23,161273,6,2,L|297:43,1,180.000006866455,0|0,3:0|0:0,1:0:0:0:
282,49,161573,2,0,B|254:101|254:101|250:139|274:172,1,120.000004577637,10|0,0:0|3:0,0:0:0:0:
392,355,161873,2,0,B|420:303|420:303|424:265|400:232,1,120.000004577637,2|2,3:0|3:0,0:0:0:0:
341,120,162173,1,10,0:0:0:0:
341,120,162323,1,2,3:0:0:0:
157,260,162473,6,0,B|163:327|163:327|229:363,1,120.000004577637,4|2,0:0|3:0,0:0:0:0:
179,98,162773,2,0,B|112:104|112:104|76:170,1,120.000004577637,10|2,0:0|3:0,0:0:0:0:
341,120,163073,2,0,B|335:53|335:53|269:17,1,120.000004577637,0|2,3:0|3:0,0:0:0:0:
319,282,163373,2,0,B|386:276|386:276|422:210,1,120.000004577637,10|2,0:0|3:0,0:0:0:0:
247,192,163673,6,2,B|62:206,1,180.000006866455,0|0,3:0|0:0,1:0:0:0:
44,207,163973,2,0,P|31:281|70:313,1,120.000004577637,10|0,0:0|3:0,0:0:0:0:
210,108,164273,2,0,P|223:34|184:2,1,120.000004577637,2|2,3:0|3:0,0:0:0:0:
34,207,164573,2,0,P|21:281|60:313,1,120.000004577637,10|2,0:0|3:0,0:0:0:0:
247,342,164873,6,0,B|303:305|338:375|445:363,1,180.000006866455,4|0,0:0|0:0,0:0:0:0:
446,364,165173,2,0,P|468:295|416:251,1,120.000004577637,10|0,0:0|3:0,0:0:0:0:
243,185,165473,6,0,B|187:148|152:218|45:206,1,180.000006866455,4|0,3:0|0:0,0:0:0:0:
44,207,165773,2,0,P|22:138|74:94,1,120.000004577637,10|0,0:0|3:0,0:0:0:0:
330,8,166073,5,4,3:0:0:0:
330,8,166223,1,0,3:0:0:0:
482,63,166373,2,0,B|475:83|455:99|455:99|453:105|453:105|407:116|379:94,1,120.000004577637,10|0,0:0|3:0,0:0:0:0:
269,79,166673,5,4,3:0:0:0:
269,79,166823,1,0,3:0:0:0:
117,134,166973,2,0,B|124:154|144:170|144:170|146:176|146:176|192:187|222:164,1,120.000004577637,10|0,0:0|3:0,0:0:0:0:
402,195,167273,6,2,P|461:315|397:385,1,215.999993408203,4|0,0:0|0:0,1:0:0:0:
392,383,167573,2,0,P|341:337|344:284,1,120.000004577637,10|0,0:0|3:0,0:0:0:0:
428,97,167873,6,0,L|481:89,3,40,0|0|0|0,3:0|3:0|3:0|3:0,0:0:0:0:
357,49,168173,2,0,L|388:5,3,40,0|0|0|0,3:0|3:0|3:0|3:0,0:0:0:0:
307,128,168473,6,0,L|371:143,3,60.0000022888184,0|0|0|0,3:0|3:0|3:0|3:0,0:0:0:0:
236,176,168773,2,0,L|275:235,3,60.0000022888184,0|0|0|0,3:0|3:0|3:0|3:0,0:0:0:0:
160,145,169073,5,0,3:0:0:0:
130,141,169148,1,0,3:0:0:0:
100,137,169223,1,0,3:0:0:0:
70,133,169298,1,0,3:0:0:0:
40,129,169373,2,0,P|22:70|80:22,1,120.000004577637,0|0,3:0|0:0,0:0:0:0:
256,8,169673,5,4,0:0:0:0:
256,192,169748,12,0,172073,0:0:0:0:
303,189,173648,6,0,L|313:160,2,23.9999992675781,0|0|0,3:0|3:0|3:0,0:0:0:0:
235,240,173873,6,0,L|212:230,2,23.9999992675781,8|0|8,0:0|0:0|0:0,0:0:0:0:
296,358,174473,5,4,0:0:0:0:
419,183,176873,6,0,B|353:175|353:175|349:172|349:172|265:208|265:208|191:193,1,224,0|0,2:0|3:0,0:0:0:0:
135,143,178073,6,0,P|124:108|165:59,1,95.9999970703126,8|0,0:0|3:0,0:0:0:0:
206,196,178523,2,0,P|217:231|176:280,1,95.9999970703126,0|0,3:0|3:0,0:0:0:0:
87,313,178973,1,0,3:0:0:0:
87,313,179273,6,0,B|224:218|277:282|367:402|482:369|500:280|447:226,1,496,4|0,0:0|0:0,0:0:0:0:
429,209,181673,6,0,P|406:176|411:151,1,47.9999985351563,0|0,3:0|3:0,0:0:0:0:
462,78,181973,2,0,P|485:111|480:136,1,47.9999985351563,2|0,0:0|0:0,0:0:0:0:
325,226,182273,1,0,3:0:0:0:
255,135,182423,2,0,L|203:125,2,47.9999985351563,2|0|2,0:0|3:0|0:0,0:0:0:0:
429,213,182873,6,0,L|431:244,3,23.9999992675781,0|0|0|0,3:0|3:0|3:0|3:0,0:0:0:0:
433,265,183173,2,0,L|438:350,1,64,0|0,3:0|3:0,0:0:0:0:
215,241,183473,6,0,L|213:210,3,23.9999992675781,0|0|0|0,3:0|3:0|3:0|3:0,0:0:0:0:
211,189,183773,2,0,L|206:104,1,64,0|0,3:0|3:0,0:0:0:0:
344,35,184073,6,0,P|431:150|295:119,1,359.999989013672,4|0,0:0|0:0,0:0:0:0:
281,110,185273,6,0,P|235:72|70:169,1,263.99999194336,4|0,0:0|0:0,0:0:0:0:
68,178,186173,2,0,L|61:222,3,23.9999992675781,0|0|0|0,3:0|3:0|3:0|3:0,0:0:0:0:
65,232,186473,6,0,L|152:216,1,80,4|0,3:0|3:0,0:0:0:0:
245,193,186773,1,0,3:0:0:0:
396,130,186923,6,0,L|309:114,1,80,0|0,3:0|3:0,0:0:0:0:
214,93,187223,1,0,3:0:0:0:
433,52,187373,6,0,P|478:98|460:176,1,120,12|0,0:0|0:0,0:0:0:0:
465,182,187673,5,8,0:0:0:0:
249,277,187823,1,8,0:0:0:0:
322,35,188123,1,8,0:0:0:0:
425,350,188423,1,8,0:0:0:0:
249,277,188873,6,0,B|306:187|246:167|125:147|236:30|308:2|377:81|346:158,1,391.99998803711,4|0,0:0|0:0,0:0:0:0:
349,146,190073,6,0,P|298:193|55:52,1,391.99998803711,8|0,0:0|3:0,0:0:0:0:
56,42,191273,6,0,B|117:5|266:81|112:197|81:287|237:303,1,391.99998803711,4|0,0:0|0:0,0:0:0:0:
372,196,192473,5,8,0:0:0:0:
422,212,192623,1,8,0:0:0:0:
406,263,192773,1,0,3:0:0:0:
356,245,192923,1,0,3:0:0:0:
365,176,193073,5,8,0:0:0:0:
443,200,193223,1,8,0:0:0:0:
417,279,193373,1,0,3:0:0:0:
339,252,193523,1,0,3:0:0:0:
115,156,193673,6,0,B|95:123|153:64|316:116|152:230|71:263|136:375|263:353|261:294|231:248,1,391.99998803711,4|0,0:0|0:0,0:0:0:0:
237,258,194873,2,0,B|138:229|120:272|76:302|-43:287|-18:122|65:105|127:167,1,391.99998803711,8|0,0:0|3:0,0:0:0:0:
115,156,196073,6,0,B|195:182|253:126|266:63|266:63|360:56|419:145|412:191,1,391.99998803711,4|0,0:0|0:0,0:0:0:0:
412,317,197273,5,8,0:0:0:0:
412,317,197423,1,0,3:0:0:0:
241,252,197573,1,0,3:0:0:0:
241,252,197648,1,0,0:0:0:0:
241,252,197723,1,0,3:0:0:0:
301,195,197873,6,0,P|316:224|322:264,1,55.9999982910157,8|0,0:0|3:0,0:0:0:0:
168,300,198173,2,0,P|153:271|147:231,1,55.9999982910157,0|0,3:0|3:0,0:0:0:0:
475,118,198473,6,0,B|423:61|349:94|349:94|354:153|425:201|425:201|400:287|328:281,1,391.99998803711,4|0,0:0|0:0,0:0:0:0:
321,288,199673,6,0,B|188:313|104:244|104:244|102:139|207:127,1,391.99998803711,8|0,0:0|3:0,0:0:0:0:
220,124,200873,6,0,B|316:155|386:68|386:68|345:8|286:0|241:3|196:49,1,391.99998803711,4|0,3:0|0:0,0:0:0:0:
104,108,202073,5,8,0:0:0:0:
104,108,202223,1,0,3:0:0:0:
121,205,202373,2,0,L|141:284,1,55.9999982910157,0|0,3:0|3:0,0:0:0:0:
62,354,202673,5,8,0:0:0:0:
62,354,202748,1,8,0:0:0:0:
62,354,202823,2,0,L|4:344,2,55.9999982910157,0|0|0,3:0|3:0|3:0,0:0:0:0:
360,345,203273,6,0,B|370:271|431:242|431:242|425:147|347:134|347:134|311:67|378:18,1,391.99998803711,4|0,0:0|0:0,0:0:0:0:
450,51,204473,5,8,0:0:0:0:
261,169,204623,2,0,L|191:153,1,55.9999982910157,0|0,3:0|3:0,0:0:0:0:
262,265,204923,5,8,0:0:0:0:
73,147,205073,2,0,L|3:163,1,55.9999982910157,0|0,3:0|3:0,0:0:0:0:
19,355,205373,5,0,3:0:0:0:
165,252,205523,1,0,3:0:0:0:
165,252,205598,1,0,3:0:0:0:
165,252,205673,6,0,B|172:218|172:218|151:178,1,55.9999982910157,12|0,0:0|3:0,0:0:0:0:
64,246,205973,5,0,3:0:0:0:
94,320,206123,2,0,B|125:346|125:346|157:345,1,55.9999982910157,8|0,0:0|3:0,0:0:0:0:
201,128,206423,5,0,3:0:0:0:
118,121,206573,2,0,B|79:133|79:133|64:167,1,55.9999982910157,12|0,0:0|3:0,0:0:0:0:
254,220,206873,5,0,3:0:0:0:
268,214,206948,1,0,3:0:0:0:
282,211,207023,1,0,3:0:0:0:
298,208,207098,1,0,3:0:0:0:
314,205,207173,1,0,3:0:0:0:
408,355,207323,5,0,3:0:0:0:
392,353,207398,1,0,3:0:0:0:
378,348,207473,2,0,L|328:334,4,27.9999991455078,0|0|0|0|8,3:0|3:0|3:0|0:0|0:0,0:0:0:0:
460,220,208073,5,4,0:0:0:0:
256,192,208148,12,0,210473,0:0:0:0:
240,114,230904,6,0,L|243:173,1,60,4|0,3:0|0:0,0:0:0:0:
242,200,233570,6,2,B|212:280|113:203|176:122,1,155.999992858887,2|0,0:0|0:0,1:0:0:0:
240,114,234115,6,0,B|309:89|327:138|346:187|428:148,1,180.000006866455,4|0,3:0|0:0,0:0:0:0:
432,140,234681,5,0,3:0:0:0:
432,140,234981,5,0,0:0:0:0:
432,140,235281,6,0,P|406:164|413:208,1,60.0000022888184,0|0,3:0|0:0,0:0:0:0:
475,269,235431,1,8,0:0:0:0:
475,269,235506,1,8,0:0:0:0:
475,269,235581,2,0,B|501:295|506:317|506:317|477:356|474:390,1,120,8|0,0:0|0:0,0:0:0:0:
446,361,235881,6,0,B|380:376|380:376|304:337,1,120.000004577637,4|2,0:0|3:0,0:0:0:0:
193,220,236181,2,0,B|214:79,1,120.000004577637,10|2,0:0|3:0,0:0:0:0:
319,164,236481,2,0,B|298:305,1,120.000004577637,0|2,3:0|3:0,0:0:0:0:
66,23,236781,2,0,B|132:8|132:8|208:47,1,120.000004577637,10|2,0:0|3:0,0:0:0:0:
409,183,237081,6,2,P|495:181|482:86,1,180.000006866455,0|0,3:0|0:0,1:0:0:0:
487,83,237381,2,0,P|426:56|339:104,1,120.000004577637,10|0,0:0|3:0,0:0:0:0:
252,132,237681,1,2,3:0:0:0:
252,132,237831,1,2,3:0:0:0:
311,229,237981,2,0,L|285:359,1,120.000004577637,10|2,0:0|3:0,0:0:0:0:
58,263,238281,6,0,B|34:216|34:216|49:150,1,120.000004577637,4|2,0:0|3:0,0:0:0:0:
454,121,238581,2,0,B|477:167|477:167|462:233,1,120.000004577637,10|2,0:0|3:0,0:0:0:0:
287,346,238881,2,0,B|164:297,1,120.000004577637,0|2,3:0|3:0,0:0:0:0:
225,38,239181,2,0,B|348:87,1,120.000004577637,10|2,0:0|3:0,0:0:0:0:
380,170,239481,6,2,P|448:93|405:13,1,180.000006866455,0|0,3:0|0:0,1:0:0:0:
404,5,239781,2,0,P|342:37|339:93,1,120.000004577637,10|0,0:0|3:0,0:0:0:0:
393,310,240081,2,0,P|455:278|458:222,1,120.000004577637,2|2,3:0|3:0,0:0:0:0:
394,5,240381,2,0,P|332:37|329:93,1,120.000004577637,10|2,0:0|3:0,0:0:0:0:
306,249,240681,6,0,B|121:224,1,180.000006866455,4|0,0:0|0:0,0:0:0:0:
99,219,240981,2,0,P|45:164|65:115,1,120.000004577637,10|0,0:0|3:0,0:0:0:0:
136,54,241281,2,0,P|190:109|170:158,1,120.000004577637,0|0,3:0|3:0,0:0:0:0:
89,327,241581,1,10,0:0:0:0:
89,327,241731,1,0,3:0:0:0:
53,129,241881,6,0,B|79:119|79:119|197:150|197:150|246:139,1,180.000006866455,4|0,3:0|0:0,0:0:0:0:
248,132,242181,2,0,B|308:101|308:101|359:115,1,120.000004577637,10|0,0:0|3:0,0:0:0:0:
455,86,242481,2,0,B|451:153|451:153|414:190,1,120.000004577637,0|0,3:0|3:0,0:0:0:0:
391,288,242781,2,0,B|334:251|334:251|320:200,1,120.000004577637,10|0,0:0|3:0,0:0:0:0:
172,49,243081,6,0,L|149:241,1,180.000006866455,4|0,0:0|0:0,0:0:0:0:
137,259,243381,2,0,P|84:265|94:200,1,120.000004577637,10|0,0:0|3:0,0:0:0:0:
326,127,243681,6,2,L|377:116,1,47.9999985351563,0|10,3:0|0:0,1:0:0:0:
489,97,244131,1,0,3:0:0:0:
270,60,244281,6,2,P|237:119|255:179,1,120.000004577637,0|0,3:0|0:0,1:0:0:0:
388,332,244581,2,0,P|421:273|403:213,1,120.000004577637,10|0,0:0|3:0,0:0:0:0:
247,167,244881,2,0,L|181:179,3,60.0000022888184,0|0|0|0,3:0|3:0|3:0|3:0,0:0:0:0:
149,174,245181,2,0,L|112:231,3,60.0000022888184,0|0|0|0,3:0|3:0|3:0|3:0,0:0:0:0:
75,239,245481,6,0,B|75:310|75:310|123:360,1,120.000004577637,4|2,0:0|3:0,0:0:0:0:
437,145,245781,2,0,B|437:74|437:74|389:24,1,120.000004577637,10|2,0:0|3:0,0:0:0:0:
303,373,246081,2,0,B|374:373|374:373|424:325,1,120.000004577637,0|2,3:0|3:0,0:0:0:0:
209,11,246381,2,0,B|138:11|138:11|88:59,1,120.000004577637,10|2,0:0|3:0,0:0:0:0:
163,236,246681,6,2,L|360:216,1,180.000006866455,0|0,3:0|0:0,1:0:0:0:
373,213,246981,2,0,B|401:161|401:161|405:123|381:90,1,120.000004577637,10|0,0:0|3:0,0:0:0:0:
100,159,247281,2,0,B|72:211|72:211|68:249|92:282,1,120.000004577637,2|2,3:0|3:0,0:0:0:0:
179,354,247581,1,10,0:0:0:0:
179,354,247731,1,2,3:0:0:0:
343,311,247881,6,0,B|413:306|413:306|472:257,1,120.000004577637,4|2,0:0|3:0,0:0:0:0:
163,236,248181,2,0,B|92:231|92:231|33:182,1,120.000004577637,10|2,0:0|3:0,0:0:0:0:
347,144,248481,2,0,B|417:139|417:139|476:90,1,120.000004577637,0|2,3:0|3:0,0:0:0:0:
199,56,248781,2,0,B|128:51|128:51|69:2,1,120.000004577637,10|2,0:0|3:0,0:0:0:0:
347,144,249081,6,2,B|361:329,1,180.000006866455,0|0,3:0|0:0,1:0:0:0:
362,347,249381,2,0,P|436:360|468:321,1,120.000004577637,10|0,0:0|3:0,0:0:0:0:
265,247,249681,2,0,P|216:304|234:351,1,120.000004577637,2|2,3:0|3:0,0:0:0:0:
410,224,249981,2,0,P|384:153|334:145,1,120.000004577637,10|2,0:0|3:0,0:0:0:0:
49,118,250281,6,0,P|97:42|184:66,1,180.000006866455,4|0,0:0|0:0,0:0:0:0:
193,71,250581,2,0,L|173:199,1,120.000004577637,10|0,0:0|3:0,0:0:0:0:
410,224,250881,6,0,P|362:148|275:172,1,180.000006866455,4|0,3:0|0:0,0:0:0:0:
266,177,251181,2,0,L|286:305,1,120.000004577637,10|0,0:0|3:0,0:0:0:0:
202,360,251481,5,4,3:0:0:0:
202,360,251631,1,0,3:0:0:0:
50,305,251781,2,0,B|57:285|77:269|77:269|79:263|79:263|125:252|153:274,1,120.000004577637,10|0,0:0|3:0,0:0:0:0:
284,295,252081,5,4,3:0:0:0:
284,295,252231,1,0,3:0:0:0:
436,240,252381,2,0,B|429:220|409:204|409:204|407:198|407:198|361:187|331:210,1,120.000004577637,10|0,0:0|3:0,0:0:0:0:
193,204,252681,6,2,P|134:84|198:14,1,215.999993408203,4|0,0:0|0:0,1:0:0:0:
203,16,252981,2,0,P|254:62|251:115,1,120.000004577637,10|0,0:0|3:0,0:0:0:0:
119,283,253281,6,0,L|79:272,7,30.0000011444092,8|0|0|0|0|0|0|0,0:0|3:0|3:0|3:0|3:0|3:0|3:0|3:0,0:0:0:0:
60,265,253881,5,8,0:0:0:0:
46,238,253956,1,0,3:0:0:0:
47,208,254031,1,0,3:0:0:0:
62,183,254106,1,0,3:0:0:0:
88,167,254181,2,0,L|151:185,3,60.0000022888184,8|0|0|0,0:0|3:0|3:0|3:0,0:0:0:0:
174,189,254481,5,8,0:0:0:0:
202,179,254556,1,0,3:0:0:0:
224,160,254631,1,0,3:0:0:0:
239,133,254706,1,0,3:0:0:0:
243,104,254781,1,8,0:0:0:0:
235,75,254856,1,0,3:0:0:0:
218,50,254931,1,0,3:0:0:0:
193,34,255006,1,0,3:0:0:0:
164,27,255081,6,0,B|93:34|93:34|62:81,1,120.000004577637,4|2,0:0|3:0,0:0:0:0:
421,100,255381,2,0,B|414:29|414:29|367:-2,1,120.000004577637,10|2,0:0|3:0,0:0:0:0:
348,357,255681,2,0,B|419:350|419:350|450:303,1,120.000004577637,0|2,3:0|3:0,0:0:0:0:
91,284,255981,2,0,B|98:355|98:355|145:386,1,120.000004577637,10|2,0:0|3:0,0:0:0:0:
266,291,256281,6,2,B|291:96,1,180.000006866455,0|0,3:0|0:0,1:0:0:0:
294,88,256581,2,0,P|366:58|421:102,1,120.000004577637,10|0,0:0|3:0,0:0:0:0:
488,124,256881,1,2,3:0:0:0:
488,124,257031,1,2,3:0:0:0:
486,241,257181,2,0,P|414:271|359:227,1,120.000004577637,10|2,0:0|3:0,0:0:0:0:
66,74,257481,6,0,B|93:34|93:34|164:27,1,120.000004577637,4|2,0:0|3:0,0:0:0:0:
138,381,257781,2,0,B|98:355|98:355|91:284,1,120.000004577637,10|2,0:0|3:0,0:0:0:0:
445,309,258081,2,0,B|419:350|419:350|348:357,1,120.000004577637,0|2,3:0|3:0,0:0:0:0:
373,2,258380,2,0,B|414:29|414:29|421:100,1,120.000004577637,10|2,0:0|3:0,0:0:0:0:
271,245,258681,6,2,B|83:229,1,180.000006866455,0|0,3:0|0:0,1:0:0:0:
57,225,258981,2,0,B|35:167|35:167|100:110,1,120.000004577637,10|0,0:0|3:0,0:0:0:0:
351,210,259281,2,0,B|373:268|373:268|308:325,1,120.000004577637,2|2,3:0|3:0,0:0:0:0:
47,225,259581,2,0,B|25:167|25:167|90:110,1,120.000004577637,10|2,0:0|3:0,0:0:0:0:
202,30,259881,6,0,B|212:134|212:134|219:143|219:143|225:225,1,180.000006866455,4|0,0:0|0:0,0:0:0:0:
226,231,260181,2,0,B|273:248|273:248|354:216,1,120.000004577637,10|0,0:0|3:0,0:0:0:0:
470,159,260481,1,0,3:0:0:0:
470,159,260631,1,0,3:0:0:0:
399,54,260781,2,0,B|352:37|352:37|271:69,1,120.000004577637,10|0,0:0|3:0,0:0:0:0:
153,175,261081,6,0,B|127:203|132:264|132:264|175:295|155:363,1,180.000006866455,4|0,3:0|0:0,0:0:0:0:
138,352,261381,2,0,B|109:358|85:373|85:373|46:368|27:349,1,120.000004577637,10|0,0:0|3:0,0:0:0:0:
236,200,261681,2,0,B|255:222|280:235|280:235|295:271|288:297,1,120.000004577637,4|0,3:0|3:0,0:0:0:0:
56,191,261981,2,0,B|65:162|64:134|64:134|88:103|114:96,1,120.000004577637,10|0,0:0|3:0,0:0:0:0:
388,101,262281,6,0,B|424:69|463:60|463:60|444:8|368:13,1,180.000006866455,4|0,0:0|0:0,0:0:0:0:
363,13,262581,2,0,P|306:53|305:121,1,120.000004577637,10|0,0:0|3:0,0:0:0:0:
308,268,262881,6,0,L|359:279,1,47.9999985351563,0|10,3:0|0:0,0:0:0:0:
479,305,263331,1,0,3:0:0:0:
271,361,263481,6,2,P|216:310|242:201,1,180.000006866455,0|0,3:0|0:0,1:0:0:0:
247,185,263781,2,0,P|249:110|210:70,1,120.000004577637,10|0,0:0|3:0,0:0:0:0:
51,19,264081,6,0,L|28:82,3,60.0000022888184,0|0|0|0,3:0|3:0|3:0|3:0,0:0:0:0:
8,107,264381,2,0,L|38:167,3,60.0000022888184,0|0|0|0,3:0|3:0|3:0|3:0,0:0:0:0:
19,208,264681,6,0,L|155:239,1,120.000004577637,4|2,0:0|3:0,0:0:0:0:
493,176,264981,2,0,L|357:145,1,120.000004577637,10|2,0:0|3:0,0:0:0:0:
100,371,265281,2,0,L|218:297,1,120.000004577637,0|2,3:0|3:0,0:0:0:0:
412,13,265581,2,0,L|294:87,1,120.000004577637,10|2,0:0|3:0,0:0:0:0:
259,375,265881,6,2,P|292:291|236:225,1,180.000006866455,0|0,3:0|0:0,1:0:0:0:
217,217,266181,2,0,P|188:161|220:111,1,120.000004577637,10|0,0:0|3:0,0:0:0:0:
310,76,266481,1,2,3:0:0:0:
310,76,266631,1,2,3:0:0:0:
406,145,266781,2,0,P|435:201|403:251,1,120.000004577637,10|2,0:0|3:0,0:0:0:0:
259,375,267081,6,0,B|188:365|188:365|156:315,1,120.000004577637,4|2,0:0|3:0,0:0:0:0:
312,297,267381,2,0,B|383:287|383:287|415:237,1,120.000004577637,10|2,0:0|3:0,0:0:0:0:
118,258,267681,2,0,B|74:200|74:200|87:142,1,120.000004577637,0|2,3:0|3:0,0:0:0:0:
374,161,267981,2,0,B|417:103|417:103|406:56,1,120.000004577637,10|2,0:0|3:0,0:0:0:0:
212,41,268281,6,2,L|227:248,1,180.000006866455,0|0,3:0|0:0,1:0:0:0:
225,249,268581,2,0,P|171:276|108:248,1,120.000004577637,10|0,0:0|3:0,0:0:0:0:
45,169,268881,1,2,3:0:0:0:
45,169,269031,1,2,3:0:0:0:
104,49,269181,2,0,P|158:22|221:50,1,120.000004577637,10|2,0:0|3:0,0:0:0:0:
387,189,269481,6,0,B|427:187|474:162|474:162|497:103|444:44,1,180.000006866455,4|0,0:0|0:0,0:0:0:0:
445,52,269781,2,0,B|411:39|377:49|377:49|357:71|349:110,1,120.000004577637,10|0,0:0|3:0,0:0:0:0:
103,306,270081,6,0,B|63:304|16:279|16:279|-7:220|46:161,1,180.000006866455,4|0,3:0|0:0,0:0:0:0:
45,169,270381,2,0,B|79:156|113:166|113:166|133:188|141:227,1,120.000004577637,10|0,0:0|3:0,0:0:0:0:
256,367,270681,5,4,3:0:0:0:
256,367,270831,1,0,3:0:0:0:
388,313,270981,2,0,B|409:266|415:242|415:242|389:195,1,120.000004577637,10|0,0:0|3:0,0:0:0:0:
221,189,271281,2,0,B|251:230|268:247|268:247|322:248,1,120.000004577637,4|0,3:0|3:0,0:0:0:0:
411,106,271581,2,0,B|359:111|336:118|336:118|308:164,1,120.000004577637,10|0,0:0|3:0,0:0:0:0:
143,357,271881,6,0,P|69:278|117:204,1,180.000006866455,4|0,0:0|0:0,0:0:0:0:
103,208,272181,2,0,P|144:157|125:96,1,120.000004577637,10|0,0:0|3:0,0:0:0:0:
60,49,272481,6,0,L|14:37,7,40,8|0|0|0|0|0|0|0,1:0|3:0|3:0|3:0|3:0|3:0|3:0|3:0,0:0:0:0:
134,107,273081,5,8,1:0:0:0:
163,103,273156,1,0,3:0:0:0:
193,99,273231,1,0,3:0:0:0:
223,96,273306,1,0,3:0:0:0:
253,92,273381,2,0,L|312:82,3,40,8|0|0|0,1:0|3:0|3:0|3:0,0:0:0:0:
348,156,273681,2,0,L|397:190,3,40,8|0|0|0,1:0|3:0|3:0|3:0,0:0:0:0:
361,274,273981,6,0,L|362:318,1,35.9999989013672,8|0,1:0|0:0,0:0:0:0:
346,334,274281,6,0,B|291:357|291:357|210:327,1,120.000004577637,4|2,0:0|3:0,0:0:0:0:
50,190,274581,2,0,B|105:167|105:167|186:197,1,120.000004577637,10|2,0:0|3:0,0:0:0:0:
490,155,274881,2,0,B|435:178|435:178|354:148,1,120.000004577637,0|2,3:0|3:0,0:0:0:0:
194,11,275181,2,0,B|249:-12|249:-12|330:18,1,120.000004577637,10|2,0:0|3:0,0:0:0:0:
378,157,275481,6,0,L|391:355,1,180.000006866455,4|0,3:0|0:0,0:0:0:0:
402,360,275781,2,0,B|469:365|469:365|512:308,1,120.000004577637,8|0,0:0|3:0,0:0:0:0:
499,226,276081,1,2,3:0:0:0:
499,226,276231,1,2,3:0:0:0:
378,157,276381,2,0,B|311:152|311:152|268:209,1,120.000004577637,8|2,0:0|3:0,0:0:0:0:
230,330,276681,5,8,0:0:0:0:
372,305,276831,1,8,0:0:0:0:
279,194,276981,1,0,3:0:0:0:
308,358,277131,5,8,0:0:0:0:
357,222,277281,1,8,0:0:0:0:
215,247,277431,1,0,3:0:0:0:
296,279,277581,5,8,0:0:0:0:
296,276,277656,1,0,3:0:0:0:
296,273,277731,1,0,3:0:0:0:
295,270,277806,1,0,3:0:0:0:
295,266,277881,6,0,L|336:257,3,30.0000011444092,12|0|0|0,0:0|3:0|3:0|3:0,0:0:0:0:
415,251,278181,2,0,L|437:215,3,30.0000011444092,8|0|0|0,0:0|3:0|3:0|3:0,0:0:0:0:
504,178,278481,1,8,0:0:0:0:
505,155,278556,1,0,3:0:0:0:
500,133,278631,1,0,3:0:0:0:
489,113,278706,1,0,3:0:0:0:
474,97,278781,1,8,0:0:0:0:
454,86,278856,1,0,3:0:0:0:
433,81,278931,1,0,3:0:0:0:
410,81,279006,1,0,3:0:0:0:
389,88,279081,6,2,B|302:92|293:158|265:226|141:172,1,280,8|0,0:0|0:0,1:0:0:0:
124,159,279681,5,0,3:0:0:0:
222,70,279831,1,8,0:0:0:0:
222,70,279906,1,0,3:0:0:0:
222,70,279981,2,0,P|276:144|270:199,1,103.999995239258,0|0,3:0|3:0,0:0:0:0:
205,348,280281,6,0,P|178:283|259:227,1,155.999992858887,4|0,3:0|0:0,0:0:0:0:
256,227,280581,2,0,L|323:242,3,51.999997619629,8|0|0|0,0:0|3:0|3:0|3:0,0:0:0:0:
331,275,280881,2,0,L|398:290,3,51.999997619629,8|0|0|0,0:0|3:0|3:0|3:0,0:0:0:0:
415,314,281181,2,0,B|458:279|458:279|450:197,1,103.999995239258,0|0,3:0|3:0,0:0:0:0:
425,126,281481,5,4,3:0:0:0:
256,192,281556,12,10,283581,0:0:0:0:
365,100,283881,5,4,3:0:0:0:
365,100,284031,1,0,3:0:0:0:
420,162,284181,2,0,B|448:211|448:211|416:292,1,120.000004577637,10|0,0:0|3:0,0:0:0:0:
310,348,284481,5,0,3:0:0:0:
310,348,284631,1,0,3:0:0:0:
247,292,284781,2,0,B|219:243|219:243|248:164,1,120.000004577637,10|0,0:0|3:0,0:0:0:0:
283,70,285081,5,0,3:0:0:0:
283,70,285231,1,0,3:0:0:0:
365,100,285381,2,0,B|434:114|434:114|497:87,1,120.000004577637,10|0,0:0|3:0,0:0:0:0:
199,24,285681,2,0,B|130:10|130:10|62:37,1,120.000004577637,0|0,3:0|3:0,0:0:0:0:
365,110,285981,2,0,B|434:124|434:124|497:97,1,120.000004577637,10|0,0:0|3:0,0:0:0:0:
195,112,286281,5,4,3:0:0:0:
195,112,286431,1,0,3:0:0:0:
142,177,286581,2,0,B|115:238|115:238|151:320,1,120.000004577637,10|0,0:0|3:0,0:0:0:0:
319,375,286881,5,0,3:0:0:0:
319,375,287031,1,0,3:0:0:0:
376,313,287181,2,0,B|403:252|403:252|366:167,1,120.000004577637,10|0,0:0|3:0,0:0:0:0:
253,187,287481,5,0,3:0:0:0:
256,192,287631,1,0,3:0:0:0:
182,232,287781,2,0,B|120:237|120:237|54:174,1,120.000004577637,10|0,0:0|3:0,0:0:0:0:
322,149,288081,2,0,B|384:144|384:144|451:205,1,120.000004577637,0|0,3:0|3:0,0:0:0:0:
182,242,288381,2,0,B|120:247|120:247|54:184,1,120.000004577637,10|0,0:0|3:0,0:0:0:0:
231,40,288681,6,0,L|241:181,1,120.000004577637,4|0,3:0|3:0,0:0:0:0:
306,312,288981,1,10,0:0:0:0:
339,316,289131,1,0,3:0:0:0:
182,232,289281,1,8,0:0:0:0:
149,236,289431,1,0,3:0:0:0:
322,149,289581,1,8,0:0:0:0:
355,153,289731,1,0,3:0:0:0:
193,59,289881,6,0,B|133:52,1,60.0000022888184,4|0,3:0|0:0,0:0:0:0:
29,50,290031,1,8,0:0:0:0:
29,50,290106,1,8,0:0:0:0:
29,50,290181,2,0,L|56:194,1,120.000004577637,8|8,0:0|0:0,0:0:0:0:
179,348,290481,2,0,L|206:212,1,120.000004577637,4|8,3:0|0:0,0:0:0:0:
366,40,290781,2,0,L|385:164,1,120.000004577637,0|0,3:0|3:0,0:0:0:0:
373,344,291081,6,0,B|437:342|437:342|468:290,1,120.000004577637,4|0,3:0|3:0,0:0:0:0:
293,180,291381,2,0,B|229:182|229:182|198:234,1,120.000004577637,10|0,0:0|3:0,0:0:0:0:
177,348,291681,1,0,3:0:0:0:
177,348,291831,1,0,3:0:0:0:
382,243,291981,1,10,0:0:0:0:
382,243,292131,1,0,3:0:0:0:
292,365,292281,5,0,3:0:0:0:
292,365,292431,1,0,3:0:0:0:
194,249,292581,2,0,B|160:184|160:184|194:125,1,120.000004577637,10|0,0:0|3:0,0:0:0:0:
348,50,292881,2,0,B|382:115|382:115|348:174,1,120.000004577637,0|0,3:0|3:0,0:0:0:0:
184,249,293181,2,0,B|150:184|150:184|184:125,1,120.000004577637,10|0,0:0|3:0,0:0:0:0:
436,235,293481,6,0,B|391:268|391:268|326:253,1,120.000004577637,4|0,3:0|3:0,0:0:0:0:
117,90,293781,2,0,B|162:57|162:57|227:72,1,120.000004577637,10|0,0:0|3:0,0:0:0:0:
319,147,294081,1,0,3:0:0:0:
319,147,294231,1,0,3:0:0:0:
121,216,294381,1,10,0:0:0:0:
121,216,294531,1,0,3:0:0:0:
258,318,294681,5,0,3:0:0:0:
258,318,294831,1,0,3:0:0:0:
355,260,294981,2,0,B|387:204|387:204|361:149,1,120.000004577637,10|0,0:0|3:0,0:0:0:0:
230,62,295281,2,0,B|197:117|197:117|223:172,1,120.000004577637,0|0,3:0|3:0,0:0:0:0:
365,260,295581,2,0,B|397:204|397:204|371:149,1,120.000004577637,10|0,0:0|3:0,0:0:0:0:
116,168,295881,6,0,B|42:151|42:151|17:111,1,120.000004577637,4|0,3:0|3:0,0:0:0:0:
132,7,296181,2,0,B|206:24|206:24|231:64,1,120.000004577637,10|0,0:0|3:0,0:0:0:0:
268,180,296481,1,0,3:0:0:0:
268,180,296631,1,0,3:0:0:0:
129,89,296781,1,10,0:0:0:0:
129,89,296931,1,0,3:0:0:0:
315,75,297081,5,0,3:0:0:0:
315,75,297231,1,0,3:0:0:0:
432,162,297381,2,0,B|465:215|465:215|431:297,1,120.000004577637,10|0,0:0|3:0,0:0:0:0:
240,375,297681,2,0,B|207:322|207:322|241:240,1,120.000004577637,0|0,3:0|3:0,0:0:0:0:
444,162,297981,2,0,B|477:215|477:215|443:297,1,120.000004577637,10|0,0:0|3:0,0:0:0:0:
170,144,298281,5,4,3:0:0:0:
256,192,298431,1,8,0:0:0:0:
341,239,298581,1,8,0:0:0:0:
341,144,298731,5,0,3:0:0:0:
256,192,298881,1,8,0:0:0:0:
170,239,299031,1,8,0:0:0:0:
337,330,299181,5,8,0:0:0:0:
337,330,299256,1,8,0:0:0:0:
337,330,299331,2,0,P|408:309|427:255,1,120.000004577637,8|12,0:0|0:0,0:0:0:0:
175,54,299631,1,8,0:0:0:0:
175,54,299706,1,8,0:0:0:0:
175,54,299781,2,0,P|104:75|85:129,1,120.000004577637,8|8,0:0|0:0,0:0:0:0:
247,303,300081,5,8,0:0:0:0:
163,131,300231,1,8,0:0:0:0:
356,144,300381,1,8,0:0:0:0:
256,192,300531,5,12,0:0:0:0:
