osu file format v14

[General]
AudioFilename: audio.mp3
AudioLeadIn: 0
PreviewTime: 148523
Countdown: 0
SampleSet: Normal
StackLeniency: 0.7
Mode: 0
LetterboxInBreaks: 0
WidescreenStoryboard: 1

[Editor]
DistanceSpacing: 1.7
BeatDivisor: 4
GridSize: 32
TimelineZoom: 2.990005

[Metadata]
Title:Hi no Eternal Chain
TitleUnicode:碑のEternal Chain
Artist:Eclipseed
ArtistUnicode:Eclipseed
Creator:AdveNt
Version:Darkness of the Void
Source:
Tags:凍てついた紅蓮の炎に裁きを itetsuita guren no honoo ni sabaki wo 星魚有香 hoshio yuka AYUTRICA Hearty Smile Factory えむらまお emura mao 【S】 SNOW japanese j-rock j rock jrock symphonic metal j-metal gazimal
BeatmapID:3467573
BeatmapSetID:1697194

[Difficulty]
HPDrainRate:6
CircleSize:4.5
OverallDifficulty:9
ApproachRate:9.6
SliderMultiplier:1.8
SliderTickRate:1

[Events]
//Background and Video events
0,0,"bg.jpg",0,0
//Break Periods
//Storyboard Layer 0 (Background)
//Storyboard Layer 1 (Fail)
//Storyboard Layer 2 (Pass)
//Storyboard Layer 3 (Foreground)
//Storyboard Layer 4 (Overlay)
//Storyboard Sound Samples

[TimingPoints]
946,528.63436123348,4,2,1,30,1,0
1210,352.941176470588,4,2,1,30,1,0
1562,344.827586206897,4,2,1,30,1,0
2424,352.941176470588,4,2,1,30,1,0
2776,379.746835443038,4,2,1,30,1,0
3155,333.333333333333,4,2,1,30,1,0
3821,324.324324324324,4,2,1,30,1,0
4469,359.281437125748,4,2,1,30,1,0
5187,365.853658536585,4,2,1,30,1,0
5918,405.405405405405,4,2,1,30,1,0
5918,-142.857142857143,4,2,1,30,0,0
6728,387.096774193548,4,2,1,30,1,0
7502,348.837209302326,4,2,1,30,1,0
8199,375,4,2,1,30,1,0
8574,352.941176470588,4,2,1,30,1,0
8926,338.983050847458,4,2,1,30,1,0
9264,327.868852459016,4,2,1,30,1,0
9919,352.941176470588,4,2,1,30,1,0
10271,324.324324324324,4,2,1,30,1,0
10919,348.837209302326,4,2,1,30,1,0
11616,333.333333333333,4,2,1,30,1,0
12282,363.636363636364,4,2,1,30,1,0
13009,352.941176470588,4,2,1,30,1,0
13714,387.096774193548,4,2,1,30,1,0
14101,444.444444444444,4,2,1,30,1,0
14545,750,4,2,1,30,1,0
14826,857.142857142857,4,2,1,30,1,0
15072,759.493670886076,4,2,1,30,1,0
15451,800,4,2,1,30,1,0
15851,1311.47540983607,4,2,1,30,1,0
18473,300,4,1,1,50,1,0
37598,-100,4,1,1,50,0,0
37673,-142.857142857143,4,1,1,50,0,0
38873,-100,4,1,1,60,0,0
54698,-100,4,1,1,5,0,0
54773,-100,4,1,1,60,0,0
56498,-100,4,1,1,5,0,0
56573,-100,4,1,1,60,0,0
59273,-83.3333333333333,4,1,1,60,0,0
77273,-500,4,1,1,60,0,0
77798,-500,4,1,1,5,0,0
77873,-83.3333333333333,4,1,1,60,0,0
78173,-142.857142857143,4,1,1,60,0,0
78398,-142.857142857143,4,1,1,5,0,0
78473,-66.6666666666667,4,1,2,80,0,1
78548,-66.6666666666667,4,1,1,80,0,1
79898,-66.6666666666667,4,1,1,5,0,1
79973,-66.6666666666667,4,1,1,80,0,1
82298,-66.6666666666667,4,1,1,5,0,1
82373,-66.6666666666667,4,1,1,80,0,1
83498,-66.6666666666667,4,1,1,5,0,1
83573,-66.6666666666667,4,1,1,80,0,1
84698,-66.6666666666667,4,1,1,5,0,1
84773,-66.6666666666667,4,1,1,80,0,1
85898,-66.6666666666667,4,1,1,5,0,1
85973,-66.6666666666667,4,1,1,80,0,1
86273,-333.333333333333,4,1,1,80,0,1
86498,-333.333333333333,4,1,1,5,0,1
86573,-66.6666666666667,4,1,1,80,0,1
87098,-66.6666666666667,4,1,1,5,0,1
87173,-66.6666666666667,4,1,1,80,0,1
89498,-66.6666666666667,4,1,1,5,0,1
89573,-66.6666666666667,4,1,1,80,0,1
91898,-66.6666666666667,4,1,1,5,0,1
91973,-66.6666666666667,4,1,1,80,0,1
93098,-66.6666666666667,4,1,1,5,0,1
93173,-66.6666666666667,4,1,1,80,0,1
93698,-66.6666666666667,4,1,1,5,0,1
93773,-66.6666666666667,4,1,1,80,0,1
95273,-55.5555555555556,4,1,1,80,0,1
95498,-66.6666666666667,4,1,1,5,0,1
95573,-66.6666666666667,4,1,1,80,0,1
95873,-55.5555555555556,4,1,1,80,0,1
96098,-66.6666666666667,4,1,1,5,0,1
96173,-66.6666666666667,4,1,1,80,0,1
97373,-200,4,1,1,80,0,1
97673,-66.6666666666667,4,1,3,80,0,1
97823,-66.6666666666667,4,1,1,80,0,1
98873,-55.5555555555556,4,1,1,80,0,1
99098,-55.5555555555556,4,1,1,5,0,1
99173,-66.6666666666667,4,1,1,80,0,1
100673,-1000,4,1,1,80,0,1
100748,-1000,4,1,1,80,0,1
101198,-1000,4,1,1,5,0,1
101273,-200,4,1,1,80,0,1
101798,-200,4,1,1,5,0,1
101873,-66.6666666666667,4,1,1,80,0,1
104873,-100,4,1,1,60,0,0
107198,-100,4,1,1,5,0,0
107273,-100,4,1,1,60,0,0
110873,-200,4,1,1,60,0,0
111773,-100,4,1,1,60,0,0
111998,-100,4,1,1,5,0,0
112073,-100,4,1,3,60,0,0
112148,-100,4,1,1,60,0,0
113198,-100,4,1,1,5,0,0
113273,-100,4,1,1,60,0,0
113648,-100,4,1,1,5,0,0
113723,-100,4,1,1,60,0,0
114098,-100,4,1,1,5,0,0
114173,-100,4,1,1,60,0,0
114248,-100,4,1,1,5,0,0
114323,-100,4,1,1,60,0,0
114398,-100,4,1,1,5,0,0
114473,-100,4,1,1,60,0,0
120473,-83.3333333333333,4,1,1,60,0,0
121673,-100,4,1,1,60,0,0
124298,-100,4,1,1,5,0,0
124373,-100,4,1,1,60,0,0
126698,-100,4,1,1,5,0,0
126773,-100,4,1,1,60,0,0
128498,-100,4,1,1,5,0,0
128573,-100,4,1,1,60,0,0
131273,-83.3333333333333,4,1,1,60,0,0
147098,-83.3333333333333,4,1,1,5,0,0
147173,-83.3333333333333,4,1,1,60,0,0
147698,-83.3333333333333,4,1,1,5,0,0
147773,-83.3333333333333,4,1,1,60,0,0
149273,-333.333333333333,4,1,1,60,0,0
149798,-333.333333333333,4,1,1,5,0,0
149873,-83.3333333333333,4,1,1,60,0,0
150173,-142.857142857143,4,1,1,60,0,0
150398,-142.857142857143,4,1,1,5,0,0
150473,-66.6666666666667,4,1,2,80,0,1
150548,-66.6666666666667,4,1,1,80,0,1
151898,-66.6666666666667,4,1,1,5,0,1
151973,-66.6666666666667,4,1,1,80,0,1
154298,-66.6666666666667,4,1,1,5,0,1
154373,-66.6666666666667,4,1,1,80,0,1
155498,-66.6666666666667,4,1,1,5,0,1
155573,-66.6666666666667,4,1,1,80,0,1
156698,-66.6666666666667,4,1,1,5,0,1
156773,-66.6666666666667,4,1,1,80,0,1
157898,-66.6666666666667,4,1,1,5,0,1
157973,-66.6666666666667,4,1,1,80,0,1
158273,-333.333333333333,4,1,1,80,0,1
158498,-333.333333333333,4,1,1,5,0,1
158573,-66.6666666666667,4,1,1,80,0,1
159098,-66.6666666666667,4,1,1,5,0,1
159173,-66.6666666666667,4,1,1,80,0,1
161498,-66.6666666666667,4,1,1,5,0,1
161573,-66.6666666666667,4,1,1,80,0,1
163898,-66.6666666666667,4,1,1,5,0,1
163973,-66.6666666666667,4,1,1,80,0,1
165098,-66.6666666666667,4,1,1,5,0,1
165173,-66.6666666666667,4,1,1,80,0,1
165698,-66.6666666666667,4,1,1,5,0,1
165773,-66.6666666666667,4,1,1,80,0,1
167273,-55.5555555555556,4,1,1,80,0,1
167498,-66.6666666666667,4,1,1,5,0,1
167573,-66.6666666666667,4,1,1,80,0,1
167873,-55.5555555555556,4,1,1,80,0,1
168473,-66.6666666666667,4,1,1,80,0,1
169373,-200,4,1,1,80,0,1
169598,-200,4,1,1,5,0,1
169673,-100,4,1,1,80,0,1
172073,-100,4,1,1,5,0,0
173573,-166.666666666667,4,1,1,40,0,0
174023,-250,4,1,1,40,0,0
174398,-250,4,1,1,5,0,0
174473,-250,4,1,1,40,0,0
176798,-250,4,1,1,5,0,0
176873,-250,4,1,1,40,0,0
178073,-166.666666666667,4,1,1,40,0,0
178973,-500.000000000003,4,1,1,40,0,0
179198,-333.333333333334,4,1,1,5,0,0
179273,-250.000000000001,4,1,1,40,0,0
181598,-250.000000000001,4,1,1,5,0,0
181673,-166.666666666667,4,1,1,40,0,0
183173,-125,4,1,1,40,0,0
184073,-166.666666666667,4,1,1,40,0,0
185198,-166.666666666667,4,1,1,5,0,0
185273,-166.666666666667,4,1,1,40,0,0
186173,-166.666666666667,4,1,1,40,0,0
188873,-142.857142857143,4,1,3,50,0,0
188948,-142.857142857143,4,1,1,50,0,0
210473,337.078651685394,4,2,1,40,1,0
210473,-100,4,2,1,40,0,0
211147,342.857142857143,4,2,1,40,1,0
211832,300,4,2,1,40,1,0
213032,319.148936170213,4,2,1,40,1,0
213032,-166.666666666667,4,2,1,40,0,0
230904,666.666666666667,4,1,1,60,1,0
230904,-1000,4,1,1,60,0,0
233404,-1000,4,1,1,5,0,0
233570,545.454545454546,4,1,1,60,1,0
233570,-76.9230769230769,4,1,1,60,0,0
233979,-76.9230769230769,4,1,1,5,0,0
234115,566.037735849057,4,1,1,60,1,0
234115,-66.6666666666667,4,1,1,60,0,0
234539,-100,4,1,1,5,0,0
234681,300,4,1,1,60,1,0
234681,-500,4,1,1,60,0,0
235206,-200,4,1,1,5,0,0
235281,-66.6666666666667,4,1,1,60,0,0
235581,-100,4,1,1,60,0,0
235806,-100,4,1,1,5,0,0
235881,-66.6666666666667,4,1,2,80,0,1
235956,-66.6666666666667,4,1,1,80,0,1
237306,-66.6666666666667,4,1,1,5,0,1
237381,-66.6666666666667,4,1,1,80,0,1
239706,-66.6666666666667,4,1,1,5,0,1
239781,-66.6666666666667,4,1,1,80,0,1
240906,-66.6666666666667,4,1,1,5,0,1
240981,-66.6666666666667,4,1,1,80,0,1
242106,-66.6666666666667,4,1,1,5,0,1
242181,-66.6666666666667,4,1,1,80,0,1
243306,-66.6666666666667,4,1,1,5,0,1
243381,-66.6666666666667,4,1,1,80,0,1
243681,-333.333333333333,4,1,1,80,0,1
243906,-333.333333333333,4,1,1,5,0,1
243981,-66.6666666666667,4,1,1,80,0,1
244506,-66.6666666666667,4,1,1,5,0,1
244581,-66.6666666666667,4,1,1,80,0,1
246906,-66.6666666666667,4,1,1,5,0,1
246981,-66.6666666666667,4,1,1,80,0,1
249306,-66.6666666666667,4,1,1,5,0,1
249381,-66.6666666666667,4,1,1,80,0,1
250506,-66.6666666666667,4,1,1,5,0,1
250581,-66.6666666666667,4,1,1,80,0,1
251106,-66.6666666666667,4,1,1,5,0,1
251181,-66.6666666666667,4,1,1,80,0,1
252681,-55.5555555555556,4,1,1,80,0,1
252906,-55.5555555555556,4,1,1,5,0,1
252981,-66.6666666666667,4,1,1,80,0,1
253131,-66.6666666666667,4,1,1,80,0,0
253281,-66.6666666666667,4,1,1,80,0,1
253356,-66.6666666666667,4,1,1,80,0,0
253881,-66.6666666666667,4,1,1,80,0,1
253956,-66.6666666666667,4,1,1,80,0,0
254181,-66.6666666666667,4,1,1,80,0,1
254256,-66.6666666666667,4,1,1,80,0,0
254481,-66.6666666666667,4,1,1,80,0,1
254556,-66.6666666666667,4,1,1,80,0,0
254781,-66.6666666666667,4,1,1,80,0,1
254856,-66.6666666666667,4,1,1,80,0,0
255081,-66.6666666666667,4,1,2,80,0,1
255156,-66.6666666666667,4,1,1,80,0,1
256506,-66.6666666666667,4,1,1,5,0,1
256581,-66.6666666666667,4,1,1,80,0,1
258906,-66.6666666666667,4,1,1,5,0,1
258981,-66.6666666666667,4,1,1,80,0,1
260106,-66.6666666666667,4,1,1,5,0,1
260181,-66.6666666666667,4,1,1,80,0,1
261306,-66.6666666666667,4,1,1,5,0,1
261381,-66.6666666666667,4,1,1,80,0,1
262506,-66.6666666666667,4,1,1,5,0,1
262581,-66.6666666666667,4,1,1,80,0,1
262881,-333.333333333333,4,1,1,80,0,1
263106,-333.333333333333,4,1,1,5,0,1
263181,-66.6666666666667,4,1,1,80,0,1
263706,-66.6666666666667,4,1,1,5,0,1
263781,-66.6666666666667,4,1,1,80,0,1
266106,-66.6666666666667,4,1,1,5,0,1
266181,-66.6666666666667,4,1,1,80,0,1
268506,-66.6666666666667,4,1,1,5,0,1
268581,-66.6666666666667,4,1,1,80,0,1
269706,-66.6666666666667,4,1,1,5,0,1
269781,-66.6666666666667,4,1,1,80,0,1
270306,-66.6666666666667,4,1,1,5,0,1
270381,-66.6666666666667,4,1,1,80,0,1
272106,-66.6666666666667,4,1,1,5,0,1
272181,-66.6666666666667,4,1,1,80,0,1
273981,-333.333333333333,4,1,1,80,0,1
274206,-333.333333333333,4,1,1,5,0,1
274281,-66.6666666666667,4,1,3,80,0,1
274431,-66.6666666666667,4,1,1,80,0,1
275706,-66.6666666666667,4,1,1,5,0,1
275781,-66.6666666666667,4,1,1,80,0,1
279081,-76.9230769230769,4,1,1,80,0,1
279606,-76.9230769230769,4,1,1,5,0,1
279681,-76.9230769230769,4,1,1,80,0,1
281481,-66.6666666666667,4,1,1,80,0,0
283581,-66.6666666666667,4,1,1,60,0,0
298281,-66.6666666666667,4,1,3,60,0,1
298356,-66.6666666666667,4,1,1,60,0,1
300081,-41.6666666666667,4,1,1,60,0,1
300531,-41.6666666666667,4,1,1,60,0,0

[Colours]
Combo1 : 192,192,192
Combo2 : 248,63,1

[HitObjects]
174,308,946,6,0,L|136:296,3,30,2|2|2|2,0:0|0:0|0:0|0:0,0:0:0:0:
94,358,1386,6,0,P|65:328|76:278,1,90,2|0,0:0|0:0,0:0:0:0:
98,78,1734,2,0,P|126:107|115:157,1,90,2|0,0:0|0:0,0:0:0:0:
85,362,2079,6,0,P|56:332|67:282,1,90,2|0,0:0|0:0,0:0:0:0:
90,82,2424,2,0,P|118:111|107:161,1,90,2|0,0:0|0:0,0:0:0:0:
171,260,2776,2,0,L|266:240,1,90,2|0,0:0|0:0,0:0:0:0:
363,313,3155,2,0,L|458:333,1,90,2|0,0:0|0:0,0:0:0:0:
512,202,3488,2,0,L|417:222,1,90,2|0,0:0|0:0,0:0:0:0:
273,236,3821,6,0,B|240:193|240:193|248:155,1,90,2|0,0:0|0:0,0:0:0:0:
294,27,4145,2,0,B|327:70|327:70|319:108,1,90,2|0,0:0|0:0,0:0:0:0:
217,152,4469,2,0,L|110:123,1,90,2|0,0:0|0:0,0:0:0:0:
296,250,4828,2,0,L|403:221,1,90,2|0,0:0|0:0,0:0:0:0:
134,334,5187,6,0,P|94:304|40:307,3,90,2|0|2|0,0:0|0:0|0:0|0:0,0:0:0:0:
396,358,5918,6,0,P|441:340|468:345,3,62.9999980773926,2|0|2|0,0:0|0:0|0:0|0:0,0:0:0:0:
266,337,6728,6,0,P|209:280|238:179,1,180,2|0,0:0|0:0,0:0:0:0:
279,140,7308,1,0,0:0:0:0:
339,87,7502,2,0,P|373:32|363:6,1,90,2|0,0:0|0:0,0:0:0:0:
214,188,7850,2,0,P|180:243|190:269,1,90,2|0,0:0|0:0,0:0:0:0:
241,352,8199,5,2,0:0:0:0:
344,321,8386,1,2,0:0:0:0:
387,214,8574,1,2,0:0:0:0:
337,118,8750,1,2,0:0:0:0:
232,69,8926,2,0,B|195:62|195:62|139:82,1,90,2|2,0:0|0:0,0:0:0:0:
7,171,9264,2,0,B|44:178|44:178|100:158,1,90,2|2,0:0|0:0,0:0:0:0:
129,84,9591,6,0,B|95:150|95:150|132:270,1,180,2|0,0:0|0:0,0:0:0:0:
86,351,10095,1,0,0:0:0:0:
3,332,10271,2,0,P|30:280|77:271,1,90,2|0,0:0|0:0,0:0:0:0:
356,293,10595,2,0,P|329:345|282:354,1,90,2|0,0:0|0:0,0:0:0:0:
179,330,10919,5,2,0:0:0:0:
149,226,11093,1,2,0:0:0:0:
207,135,11267,1,2,0:0:0:0:
175,31,11442,1,2,0:0:0:0:
51,81,11616,6,0,B|69:128|69:128|118:139,1,90,2|2,0:0|0:0,0:0:0:0:
256,220,11949,2,0,B|303:202|303:202|314:153,1,90,2|2,0:0|0:0,0:0:0:0:
175,31,12282,6,0,L|155:220,1,180,2|0,0:0|0:0,0:0:0:0:
143,317,12827,1,0,0:0:0:0:
86,249,13009,2,0,P|38:234|-3:245,1,90,2|0,0:0|0:0,0:0:0:0:
159,331,13361,2,0,P|207:346|248:335,1,90,2|0,0:0|0:0,0:0:0:0:
453,220,13714,5,2,0:0:0:0:
387,147,13907,5,2,0:0:0:0:
299,172,14101,5,2,0:0:0:0:
274,248,14323,5,2,0:0:0:0:
315,289,14545,5,2,0:0:0:0:
355,279,14826,5,2,0:0:0:0:
366,252,15072,5,2,0:0:0:0:
358,227,15451,5,2,0:0:0:0:
345,215,15851,6,0,P|334:209|329:208,2,11.25,2|2|2,0:0|0:0|0:0,0:0:0:0:
256,192,17162,12,0,18310,0:0:0:0:
249,304,18473,5,4,3:0:0:0:
249,304,18623,1,0,0:0:0:0:
178,229,18773,2,0,B|154:184|154:184|170:133,1,90
267,56,19073,5,0,0:0:0:0:
267,56,19223,1,0,0:0:0:0:
338,131,19373,2,0,B|362:176|362:176|346:227,1,90
249,304,19673,5,0,0:0:0:0:
249,304,19823,1,0,0:0:0:0:
178,229,19973,2,0,B|154:184|154:184|170:133,1,90
338,131,20273,2,0,B|362:176|362:176|346:227,1,90
178,229,20573,2,0,B|154:184|154:184|170:133,1,90
246,51,20873,5,4,3:0:0:0:
246,51,21023,1,0,0:0:0:0:
338,131,21173,2,0,B|397:152|397:152|442:136,1,90
234,161,21473,5,0,0:0:0:0:
234,161,21623,1,0,0:0:0:0:
142,241,21773,2,0,B|83:262|83:262|38:246,1,90
131,138,22073,5,0,0:0:0:0:
131,138,22223,1,0,0:0:0:0:
78,365,22373,1,0,3:0:0:0:
67,368,22448,1,0,3:0:0:0:
56,371,22523,1,0,3:0:0:0:
45,374,22598,1,0,3:0:0:0:
34,377,22673,2,0,B|18:354|18:354|26:315,2,45,8|0|0,0:0|0:0|0:0,0:0:0:0:
219,249,22973,2,0,B|244:289|244:289|234:354,1,90
32,193,23273,5,4,3:0:0:0:
32,193,23423,1,0,0:0:0:0:
131,138,23573,2,0,B|186:120|186:120|240:134,1,90
310,196,23873,5,0,0:0:0:0:
310,196,24023,1,0,0:0:0:0:
409,251,24173,2,0,B|464:269|464:269|518:255,1,90
409,0,24473,6,0,L|383:186,1,180,8|0,0:0|3:0,0:0:0:0:
384,178,24923,1,8,0:0:0:0:
328,264,25073,2,0,B|282:280|282:280|236:266,1,90,0|0,0:0|3:0,0:0:0:0:
139,203,25373,2,0,B|93:187|93:187|47:201,1,90,8|0,0:0|0:0,0:0:0:0:
14,290,25673,5,4,3:0:0:0:
43,340,25823,1,0,0:0:0:0:
99,356,25973,1,0,0:0:0:0:
150,327,26123,1,0,0:0:0:0:
387,235,26273,5,0,3:0:0:0:
325,294,26423,1,0,0:0:0:0:
237,294,26573,1,0,0:0:0:0:
175,232,26723,1,0,0:0:0:0:
23,12,26873,5,6,0:0:0:0:
2,126,27023,1,8,0:0:0:0:
2,126,27098,1,0,3:0:0:0:
2,126,27173,1,8,0:0:0:0:
90,179,27323,1,0,3:0:0:0:
194,151,27473,1,8,0:0:0:0:
300,133,27623,1,0,3:0:0:0:
378,176,27773,1,0,3:0:0:0:
388,247,27923,1,0,3:0:0:0:
340,297,28073,6,0,P|279:274|268:228,1,90,4|0,3:0|3:0,0:0:0:0:
309,37,28373,2,0,P|370:60|381:106,1,90,10|0,0:0|3:0,0:0:0:0:
447,160,28673,1,0,3:0:0:0:
229,196,28823,1,0,3:0:0:0:
447,160,28973,1,10,0:0:0:0:
229,196,29123,1,0,3:0:0:0:
340,297,29273,5,0,3:0:0:0:
340,297,29423,1,0,3:0:0:0:
446,159,29573,2,0,B|459:107|459:107|429:52,1,90,10|0,0:0|3:0,0:0:0:0:
340,297,29873,2,0,B|327:349|327:349|357:404,1,90,0|0,3:0|3:0,0:0:0:0:
446,159,30173,2,0,B|459:107|459:107|429:52,1,90,10|0,0:0|3:0,0:0:0:0:
127,53,30473,6,0,P|90:111|93:134,1,90,0|0,3:0|3:0,0:0:0:0:
211,343,30773,2,0,P|247:284|244:261,1,90,10|0,0:0|3:0,0:0:0:0:
272,172,31073,1,0,3:0:0:0:
66,225,31223,1,0,3:0:0:0:
272,172,31373,1,10,0:0:0:0:
66,225,31523,1,0,3:0:0:0:
158,116,31673,5,0,3:0:0:0:
158,116,31823,1,0,3:0:0:0:
18,45,31973,2,0,B|64:22|64:22|119:35,1,90,10|0,0:0|3:0,0:0:0:0:
355,157,32273,2,0,B|309:180|309:180|254:167,1,90,0|0,3:0|3:0,0:0:0:0:
18,45,32573,2,0,B|64:22|64:22|119:35,1,90,10|0,0:0|3:0,0:0:0:0:
267,250,32873,6,0,P|287:203|263:165,1,90,4|0,3:0|3:0,0:0:0:0:
101,30,33173,2,0,P|81:77|105:115,1,90,10|0,0:0|3:0,0:0:0:0:
113,211,33473,1,0,3:0:0:0:
248,56,33623,1,0,3:0:0:0:
113,211,33773,1,10,0:0:0:0:
248,56,33923,1,0,3:0:0:0:
360,248,34073,5,0,3:0:0:0:
360,248,34223,1,0,3:0:0:0:
261,132,34373,2,0,B|231:90|231:90|263:22,1,90,10|0,0:0|3:0,0:0:0:0:
494,101,34673,2,0,B|524:143|524:143|492:211,1,90,0|0,3:0|3:0,0:0:0:0:
360,248,34973,1,10,0:0:0:0:
374,119,35123,1,0,3:0:0:0:
342,382,35273,5,4,3:0:0:0:
342,382,35423,1,0,3:0:0:0:
261,311,35573,2,0,L|163:303,1,90,10|0,0:0|3:0,0:0:0:0:
7,211,35873,2,0,L|98:200,1,90,8|0,0:0|3:0,0:0:0:0:
276,90,36173,2,0,L|178:82,1,90,8|0,0:0|3:0,0:0:0:0:
14,21,36473,5,4,3:0:0:0:
157,148,36623,1,8,0:0:0:0:
157,148,36698,1,8,0:0:0:0:
157,148,36773,2,0,P|180:198|160:247,1,90,8|8,0:0|0:0,0:0:0:0:
73,366,37073,6,0,B|36:371|18:339|18:339|26:268|89:252|89:252|123:334|189:352,1,315,4|0,3:0|0:0,0:0:0:0:
192,351,37673,2,0,B|303:365|358:244|358:244|266:180|190:253,1,377.999988464356,4|0,3:0|0:0,0:0:0:0:
60,38,38873,5,2,3:0:0:0:
65,59,38948,1,0,3:0:0:0:
70,81,39023,1,0,3:0:0:0:
76,103,39098,1,0,3:0:0:0:
112,122,39173,5,0,3:0:0:0:
109,138,39248,1,0,3:0:0:0:
106,155,39323,1,0,3:0:0:0:
104,172,39398,1,0,3:0:0:0:
82,215,39473,5,2,3:0:0:0:
118,189,39548,1,0,3:0:0:0:
162,186,39623,1,0,3:0:0:0:
201,207,39698,1,0,3:0:0:0:
223,246,39773,1,0,3:0:0:0:
255,291,39848,1,0,3:0:0:0:
307,310,39923,1,0,3:0:0:0:
360,294,39998,1,0,3:0:0:0:
393,249,40073,6,0,B|420:210|414:172|414:172|368:131|389:59,1,180,4|10,3:0|0:0,0:0:0:0:
467,103,40523,1,0,3:0:0:0:
313,204,40673,1,0,3:0:0:0:
313,204,40823,1,0,3:0:0:0:
408,348,40973,2,0,P|468:346|492:312,1,90,10|0,0:0|3:0,0:0:0:0:
313,204,41273,5,0,3:0:0:0:
313,204,41423,1,0,3:0:0:0:
488,334,41573,2,0,P|453:360|409:355,1,90,10|0,0:0|3:0,0:0:0:0:
313,204,41873,5,0,3:0:0:0:
313,204,42023,1,0,3:0:0:0:
213,65,42173,2,0,P|178:38|134:43,1,90,10|0,0:0|3:0,0:0:0:0:
20,145,42473,5,0,3:0:0:0:
20,145,42623,1,0,3:0:0:0:
95,241,42773,2,0,P|146:230|171:188,1,90,10|0,0:0|3:0,0:0:0:0:
360,8,43073,5,0,3:0:0:0:
360,8,43223,1,0,3:0:0:0:
285,104,43373,2,0,P|234:93|209:51,1,90,10|0,0:0|3:0,0:0:0:0:
137,133,43673,5,0,3:0:0:0:
260,202,43823,1,0,3:0:0:0:
150,262,43973,2,0,L|157:374,1,90,10|0,0:0|3:0,0:0:0:0:
383,271,44273,5,0,3:0:0:0:
260,202,44423,1,0,3:0:0:0:
370,142,44573,2,0,L|363:30,1,90,10|0,0:0|3:0,0:0:0:0:
201,56,44873,6,0,B|185:117|185:117|215:160,1,90,0|0,3:0|3:0,0:0:0:0:
321,270,45173,2,0,B|336:292|336:292|320:353,1,90,10|0,0:0|3:0,0:0:0:0:
191,384,45473,5,0,3:0:0:0:
173,245,45623,1,0,3:0:0:0:
50,342,45773,2,0,L|141:325,1,90,10|0,0:0|3:0,0:0:0:0:
321,270,46073,5,0,3:0:0:0:
339,131,46223,1,0,3:0:0:0:
462,228,46373,2,0,L|371:211,1,90,10|0,0:0|3:0,0:0:0:0:
224,172,46673,5,0,3:0:0:0:
206,33,46823,1,0,3:0:0:0:
83,130,46973,2,0,L|174:113,1,90,10|0,0:0|3:0,0:0:0:0:
388,32,47273,6,0,L|371:232,1,180,4|8,0:0|0:0,0:0:0:0:
476,132,47723,1,0,3:0:0:0:
120,191,47873,6,0,L|137:391,1,180,0|8,3:0|0:0,0:0:0:0:
32,291,48323,1,0,3:0:0:0:
373,343,48473,6,0,B|469:350|469:350|394:315,1,180,0|8,3:0|0:0,0:0:0:0:
264,233,48923,2,0,B|168:226|168:226|243:261,1,180,8|8,0:0|0:0,0:0:0:0:
285,377,49373,1,8,0:0:0:0:
368,210,49523,1,0,3:0:0:0:
169,226,49673,6,0,B|163:196|120:155|120:155|123:88|165:60,1,180,4|10,3:0|0:0,0:0:0:0:
232,130,50123,1,0,3:0:0:0:
71,238,50273,1,0,3:0:0:0:
71,238,50423,1,0,3:0:0:0:
225,346,50573,2,0,L|313:326,1,90,10|0,0:0|3:0,0:0:0:0:
481,200,50873,5,0,3:0:0:0:
481,200,51023,1,0,3:0:0:0:
327,308,51173,2,0,L|239:288,1,90,10|0,0:0|3:0,0:0:0:0:
79,157,51473,5,0,3:0:0:0:
79,157,51623,1,0,3:0:0:0:
233,265,51773,2,0,L|321:245,1,90,10|0,0:0|3:0,0:0:0:0:
458,37,52073,6,0,P|398:29|368:139,1,180,4|10,3:0|0:0,0:0:0:0:
404,201,52523,1,0,3:0:0:0:
449,278,52673,2,0,P|460:336|423:374,1,90,0|0,3:0|3:0,0:0:0:0:
331,243,52973,1,10,0:0:0:0:
473,157,53123,1,0,3:0:0:0:
250,44,53273,6,0,P|228:61|255:48,1,90,0|0,3:0|3:0,0:0:0:0:
356,99,53573,1,10,0:0:0:0:
356,99,53723,1,0,3:0:0:0:
150,206,53873,6,0,P|146:233|156:205,1,90,0|0,3:0|3:0,0:0:0:0:
263,169,54173,1,10,0:0:0:0:
263,169,54323,1,0,3:0:0:0:
84,118,54473,6,0,P|23:177|33:233,1,135,4|0,3:0|0:0,0:0:0:0:
44,238,54773,2,0,P|74:291|58:339,1,90,10|0,0:0|3:0,0:0:0:0:
198,382,55073,2,0,L|308:364,1,90,0|0,3:0|3:0,0:0:0:0:
486,222,55373,1,10,0:0:0:0:
445,360,55523,1,0,3:0:0:0:
318,254,55673,6,0,B|293:193|293:193|339:120|297:48,1,180,0|10,3:0|0:0,0:0:0:0:
223,117,56123,1,0,3:0:0:0:
291,340,56273,2,0,B|310:358|338:362|338:362|391:344|406:296,1,135,0|0,3:0|0:0,0:0:0:0:
418,291,56573,2,0,P|478:291|508:325,1,90,10|0,0:0|3:0,0:0:0:0:
186,279,56873,5,4,0:0:0:0:
134,363,57023,1,0,0:0:0:0:
50,311,57173,1,8,0:0:0:0:
103,227,57323,1,0,3:0:0:0:
338,140,57473,5,4,3:0:0:0:
390,224,57623,1,0,0:0:0:0:
474,172,57773,1,8,0:0:0:0:
421,88,57923,1,0,3:0:0:0:
213,26,58073,6,0,L|196:230,1,180,0|8,3:0|0:0,0:0:0:0:
198,205,58523,1,0,3:0:0:0:
84,102,58673,1,8,0:0:0:0:
358,152,58823,1,8,0:0:0:0:
186,339,58973,1,0,3:0:0:0:
186,339,59123,1,0,3:0:0:0:
9,43,59273,5,4,3:0:0:0:
42,168,59423,1,0,3:0:0:0:
163,214,59573,1,8,0:0:0:0:
280,160,59723,1,2,0:0:0:0:
404,125,59873,1,0,3:0:0:0:
494,217,60023,1,0,3:0:0:0:
450,339,60173,2,0,P|402:355|344:317,1,107.999996704102,8|2,0:0|0:0,0:0:0:0:
171,119,60473,5,0,3:0:0:0:
59,152,60623,1,0,3:0:0:0:
194,108,60773,2,0,L|176:234,1,107.999996704102,8|2,0:0|0:0,0:0:0:0:
329,268,61073,5,0,3:0:0:0:
441,301,61223,1,0,3:0:0:0:
306,257,61373,2,0,L|322:383,1,107.999996704102,8|2,0:0|0:0,0:0:0:0:
467,313,61673,6,0,B|501:262|501:262|479:107,1,215.999993408203,4|8,3:0|0:0,0:0:0:0:
468,18,62123,1,2,0:0:0:0:
303,257,62273,2,0,B|256:240|201:262|201:262|164:315|101:322,1,215.999993408203,0|8,3:0|0:0,0:0:0:0:
92,315,62723,2,0,B|139:298|194:320|194:320|231:373|294:380,1,215.999993408203,2|0,0:0|3:0,0:0:0:0:
389,336,63173,1,8,0:0:0:0:
389,336,63323,1,2,0:0:0:0:
303,257,63473,2,0,B|294:227|278:206|278:206|294:142,1,107.999996704102,0|0,3:0|3:0,0:0:0:0:
483,22,63773,2,0,B|492:52|508:73|508:73|492:137,1,107.999996704102,8|2,0:0|0:0,0:0:0:0:
364,199,64073,6,0,B|229:175|229:175|208:212|127:232,1,215.999993408203,0|8,3:0|0:0,0:0:0:0:
68,195,64523,1,2,0:0:0:0:
105,57,64673,2,0,P|153:103|153:140,1,107.999996704102,0|0,3:0|3:0,0:0:0:0:
15,281,64973,1,8,0:0:0:0:
15,281,65123,1,2,0:0:0:0:
68,195,65273,6,0,B|114:154|176:178|176:178|195:232|261:263,1,215.999993408203,4|8,3:0|0:0,0:0:0:0:
348,191,65723,1,2,0:0:0:0:
295,285,65873,6,0,B|249:244|187:268|187:268|168:322|102:353,1,215.999993408203,0|8,3:0|0:0,0:0:0:0:
15,281,66323,1,2,0:0:0:0:
327,360,66473,6,0,L|457:337,1,107.999996704102,4|0,3:0|3:0,0:0:0:0:
492,231,66773,1,8,0:0:0:0:
433,341,66923,1,2,0:0:0:0:
310,177,67073,1,0,3:0:0:0:
369,67,67223,1,0,3:0:0:0:
404,209,67373,5,8,0:0:0:0:
404,209,67523,1,2,0:0:0:0:
492,150,67673,5,8,0:0:0:0:
325,270,67823,1,8,0:0:0:0:
492,150,67973,1,8,0:0:0:0:
325,270,68123,2,0,B|269:275|230:233|230:233|156:223|106:267,1,215.999993408203,4|8,3:0|0:0,0:0:0:0:
36,324,68573,1,8,0:0:0:0:
36,324,68723,1,0,3:0:0:0:
179,382,68873,6,0,P|219:338|207:268,1,107.999996704102,4|0,3:0|3:0,0:0:0:0:
124,62,69173,1,10,0:0:0:0:
124,62,69323,1,0,3:0:0:0:
92,200,69473,2,0,P|143:233|196:224,1,107.999996704102,0|0,3:0|3:0,0:0:0:0:
466,108,69773,2,0,P|415:75|362:84,1,107.999996704102,10|0,0:0|3:0,0:0:0:0:
188,229,70073,5,0,3:0:0:0:
159,334,70223,1,0,3:0:0:0:
194,209,70373,2,0,B|256:188|256:188|330:218,1,107.999996704102,10|0,0:0|3:0,0:0:0:0:
338,318,70673,5,0,3:0:0:0:
309,213,70823,1,0,3:0:0:0:
344,338,70973,2,0,B|406:359|406:359|480:329,1,107.999996704102,10|0,0:0|3:0,0:0:0:0:
489,86,71273,5,4,3:0:0:0:
437,18,71423,1,0,3:0:0:0:
355,45,71573,2,0,P|327:107|327:159,1,107.999996704102,10|0,0:0|3:0,0:0:0:0:
243,316,71873,5,0,3:0:0:0:
191,384,72023,1,0,3:0:0:0:
109,357,72173,2,0,P|81:295|81:243,1,107.999996704102,10|0,0:0|3:0,0:0:0:0:
92,62,72473,5,0,3:0:0:0:
221,32,72623,1,0,3:0:0:0:
71,66,72773,2,0,B|50:117|50:117|73:170,1,107.999996704102,10|0,0:0|3:0,0:0:0:0:
218,208,73073,5,0,3:0:0:0:
89,178,73223,1,0,3:0:0:0:
239,212,73373,2,0,B|260:263|260:263|237:316,1,107.999996704102,10|0,0:0|3:0,0:0:0:0:
93,354,73673,5,4,3:0:0:0:
11,326,73823,1,0,3:0:0:0:
157,184,73973,5,10,0:0:0:0:
239,212,74123,1,0,3:0:0:0:
376,359,74273,5,0,3:0:0:0:
458,331,74423,1,0,3:0:0:0:
321,184,74573,5,10,0:0:0:0:
239,212,74723,1,0,3:0:0:0:
100,251,74873,6,0,B|31:230|20:170|20:170|15:163|15:163|19:115|70:89,1,215.999993408203,4|10,3:0|0:0,0:0:0:0:
282,22,75323,1,0,3:0:0:0:
259,139,75473,2,0,B|241:236|241:236|235:241|235:241|213:369,1,215.999993408203,4|10,3:0|0:0,0:0:0:0:
259,139,75923,1,0,3:0:0:0:
364,312,76073,5,0,3:0:0:0:
415,320,76148,1,0,3:0:0:0:
460,292,76223,1,0,3:0:0:0:
472,240,76298,1,0,3:0:0:0:
447,194,76373,1,0,3:0:0:0:
417,163,76448,1,0,3:0:0:0:
407,126,76523,1,0,3:0:0:0:
415,94,76598,1,0,3:0:0:0:
431,79,76673,5,8,0:0:0:0:
446,129,76748,1,0,3:0:0:0:
423,176,76823,1,0,3:0:0:0:
374,195,76898,1,0,3:0:0:0:
325,176,76973,2,0,P|288:145|284:128,1,53.9999983520508,0|0,3:0|3:0,0:0:0:0:
336,14,77123,2,0,P|343:39|338:65,1,53.9999983520508,0|0,3:0|3:0,0:0:0:0:
233,67,77273,6,2,L|167:56,1,63,4|0,3:0|0:0,1:1:0:0:
113,13,77873,6,0,B|93:42|93:42|99:81,1,53.9999983520508,0|0,3:0|0:0,0:0:0:0:
294,306,78023,1,8,0:0:0:0:
306,297,78098,1,8,0:0:0:0:
318,291,78173,2,0,B|332:262|347:249|347:249|344:229|327:202,1,94.499997116089,8|0,0:0|0:0,0:0:0:0:
322,54,78473,5,4,0:0:0:0:
180,294,78623,1,2,3:0:0:0:
295,198,78773,5,10,0:0:0:0:
207,146,78923,1,2,3:0:0:0:
225,217,79073,5,0,3:0:0:0:
277,129,79223,1,2,3:0:0:0:
132,102,79373,5,10,0:0:0:0:
372,244,79523,1,2,3:0:0:0:
450,76,79673,6,2,B|414:109|420:156|420:156|415:163|415:163|480:194|465:274,1,202.500007724762,0|0,3:0|0:0,1:1:0:0:
467,273,79973,2,0,B|434:294|424:323|424:323|396:342|350:328,1,135.000005149842,10|0,0:0|3:0,0:0:0:0:
120,240,80273,1,2,3:0:0:0:
319,172,80423,1,2,3:0:0:0:
275,378,80573,1,10,0:0:0:0:
275,378,80723,1,2,3:0:0:0:
61,122,80873,5,4,0:0:0:0:
239,168,81023,1,2,3:0:0:0:
137,262,81173,5,10,0:0:0:0:
93,250,81323,1,2,3:0:0:0:
107,208,81473,1,0,3:0:0:0:
149,219,81623,1,2,3:0:0:0:
186,352,81773,5,10,0:0:0:0:
3,301,81923,1,2,3:0:0:0:
292,226,82073,6,2,B|326:205|356:213|356:213|368:206|368:206|413:265|488:238,1,202.500007724762,0|0,3:0|0:0,1:0:0:0:
445,159,82373,2,0,B|449:143|466:123|466:123|460:109|461:71|461:71|448:96|448:96|450:124,1,135.000005149842,10|0,0:0|3:0,0:0:0:0:
341,291,82673,2,0,B|336:306|319:326|319:326|325:340|324:378|324:378|337:353|337:353|335:325,1,135.000005149842,2|2,3:0|3:0,0:0:0:0:
445,159,82973,2,0,B|449:143|466:123|466:123|460:109|461:71|461:71|448:96|448:96|450:124,1,135.000005149842,10|2,0:0|3:0,0:0:0:0:
341,291,83273,6,0,B|324:343|278:344|278:344|279:354|279:354|205:340|199:282,1,202.500007724762,4|0,0:0|0:0,0:0:0:0:
190,268,83573,2,0,B|178:223|129:229|143:221|143:221|92:217|70:258,1,135.000005149842,10|0,0:0|3:0,0:0:0:0:
45,321,83873,1,0,3:0:0:0:
276,216,84023,1,0,3:0:0:0:
90,150,84173,1,10,0:0:0:0:
90,150,84323,1,0,3:0:0:0:
438,298,84473,6,0,B|453:257|453:257|422:139|422:139|433:90,1,202.500007724762,4|0,3:0|0:0,0:0:0:0:
435,78,84773,2,0,B|408:50|408:50|303:74,1,135.000005149842,10|0,0:0|3:0,0:0:0:0:
222,377,85073,2,0,B|259:367|259:367|291:264,1,135.000005149842,0|0,3:0|3:0,0:0:0:0:
81,59,85373,2,0,B|70:96|70:96|143:175,1,135.000005149842,10|0,0:0|3:0,0:0:0:0:
287,274,85673,6,0,B|373:241|385:299|394:341|504:311,1,202.500007724762,4|0,0:0|0:0,0:0:0:0:
495,304,85973,2,0,P|509:250|436:261,1,135.000005149842,10|0,0:0|3:0,0:0:0:0:
251,192,86273,6,0,L|271:152,1,40.4999987640381,0|0,3:0|0:0,0:0:0:0:
242,99,86573,6,0,L|271:240,1,135.000005149842,10|0,0:0|3:0,0:0:0:0:
349,139,86873,6,2,B|281:161|281:161|272:158|272:158|235:191|235:191|224:188|224:188|151:212,1,202.500007724762,0|0,3:0|0:0,1:1:0:0:
136,219,87173,6,0,B|106:183|106:183|133:151,1,67.5000025749208,10|0,0:0|0:0,0:0:0:0:
382,227,87323,2,0,B|412:263|412:263|385:295,1,67.5000025749208,0|0,3:0|0:0,0:0:0:0:
246,369,87473,5,0,3:0:0:0:
243,352,87548,1,0,3:0:0:0:
240,335,87623,1,0,3:0:0:0:
237,319,87698,1,0,3:0:0:0:
256,293,87773,5,0,3:0:0:0:
261,242,87848,1,0,3:0:0:0:
267,192,87923,1,0,3:0:0:0:
273,142,87998,1,0,3:0:0:0:
279,84,88073,5,4,0:0:0:0:
398,158,88223,1,2,3:0:0:0:
320,276,88373,1,10,0:0:0:0:
200,197,88523,1,2,3:0:0:0:
367,51,88673,5,0,3:0:0:0:
167,103,88823,1,2,3:0:0:0:
432,254,88973,1,10,0:0:0:0:
223,308,89123,1,2,3:0:0:0:
367,51,89273,6,2,B|403:82|391:131|391:131|398:137|398:137|339:170|343:242,1,202.500007724762,0|0,3:0|0:0,1:1:0:0:
354,245,89573,2,0,B|383:274|407:281|407:281|444:277|477:253,1,135.000005149842,10|0,0:0|3:0,0:0:0:0:
512,123,89873,1,0,3:0:0:0:
512,123,90023,1,0,3:0:0:0:
260,224,90173,1,10,0:0:0:0:
260,224,90323,1,0,3:0:0:0:
396,361,90473,5,4,0:0:0:0:
450,237,90623,1,2,3:0:0:0:
327,182,90773,1,10,0:0:0:0:
272,306,90923,1,2,3:0:0:0:
360,277,91073,5,0,3:0:0:0:
442,92,91223,1,2,3:0:0:0:
259,10,91373,1,10,0:0:0:0:
177,194,91523,1,2,3:0:0:0:
11,239,91673,6,2,B|26:193|75:185|75:185|78:176|78:176|132:217|196:186,1,202.500007724762,0|0,3:0|0:0,1:1:0:0:
194,179,91973,2,0,P|190:112|119:114,1,135.000005149842,10|0,0:0|3:0,0:0:0:0:
88,286,92273,1,2,3:0:0:0:
88,286,92423,1,2,3:0:0:0:
275,200,92573,1,10,0:0:0:0:
35,119,92723,1,2,3:0:0:0:
265,283,92873,6,0,B|310:310|362:302|362:302|372:310|372:310|417:272|478:269,1,202.500007724762,4|0,3:0|0:0,0:0:0:0:
482,264,93173,2,0,B|522:280|522:327|522:327|477:364|472:398,1,135.000005149842,10|0,0:0|3:0,0:0:0:0:
158,222,93473,6,0,B|72:139|152:58|237:103|174:184,1,202.500007724762,4|0,3:0|0:0,0:0:0:0:
142,243,93773,2,0,B|116:256|95:257|95:257|64:225|0:210,1,135.000005149842,10|0,0:0|3:0,0:0:0:0:
328,54,94073,5,4,3:0:0:0:
388,332,94223,1,0,3:0:0:0:
487,259,94373,2,0,B|480:239|460:223|460:223|458:217|458:217|412:206|374:233,1,135.000005149842,10|0,0:0|3:0,0:0:0:0:
106,360,94673,1,4,3:0:0:0:
388,332,94823,1,0,3:0:0:0:
249,172,94973,2,0,B|229:165|213:145|213:145|207:143|207:143|188:99|219:60,1,135.000005149842,10|0,0:0|3:0,0:0:0:0:
322,65,95273,6,0,B|351:114|334:149|334:149|322:152|322:152|284:195|240:210|240:210|239:217|239:217|211:239|227:296,1,242.999992584229,4|0,0:0|0:0,0:0:0:0:
255,334,95573,6,0,B|289:353|289:353|310:376|310:376|297:342|297:342|275:321,1,135.000005149842,10|0,0:0|3:0,0:0:0:0:
217,62,95873,6,2,B|188:111|205:146|205:146|217:149|217:149|255:192|299:207|299:207|300:214|300:214|328:236|312:293,1,242.999992584229,0|0,3:0|0:0,1:0:0:0:
255,334,96173,2,0,B|221:346|221:346|173:326,1,67.5000025749208,10|0,0:0|0:0,0:0:0:0:
167,318,96323,2,0,B|133:306|133:306|85:326,1,67.5000025749208,0|0,3:0|0:0,0:0:0:0:
39,364,96473,5,0,3:0:0:0:
221,256,96623,1,0,3:0:0:0:
18,230,96773,5,10,0:0:0:0:
318,384,96923,1,0,3:0:0:0:
461,133,97073,5,0,3:0:0:0:
412,109,97148,1,0,3:0:0:0:
360,124,97223,2,0,B|329:159|329:159|341:195,1,67.5000025749208,0|0,3:0|3:0,0:0:0:0:
435,360,97373,5,0,3:0:0:0:
435,360,97523,1,0,3:0:0:0:
463,264,97673,6,0,B|426:239|426:239|378:251,1,67.5000025749208,4|0,0:0|0:0,0:0:0:0:
336,179,97823,2,0,B|297:199|297:199|282:246,1,67.5000025749208,2|0,3:0|2:0,0:0:0:0:
248,296,97973,6,0,B|211:320|211:320|163:308,1,67.5000025749208,10|0,0:0|2:0,0:0:0:0:
121,381,98123,2,0,B|82:360|82:360|67:313,1,67.5000025749208,2|0,3:0|2:0,0:0:0:0:
81,104,98273,5,0,3:0:0:0:
128,272,98423,1,2,3:0:0:0:
266,193,98573,1,10,0:0:0:0:
219,25,98723,1,2,3:0:0:0:
242,376,98873,6,0,B|321:370|321:370|339:381|339:381|427:371|427:371|437:356|437:356|494:348,1,242.999992584229,4|0,3:0|0:0,0:0:0:0:
493,349,99173,2,0,B|514:307|514:307|481:212,1,135.000005149842,8|0,0:0|3:0,0:0:0:0:
219,25,99473,5,0,3:0:0:0:
177,51,99548,1,0,3:0:0:0:
165,99,99623,1,2,3:0:0:0:
191,141,99698,1,0,3:0:0:0:
238,153,99773,1,0,3:0:0:0:
294,187,99848,1,0,3:0:0:0:
316,250,99923,1,2,3:0:0:0:
293,312,99998,1,0,3:0:0:0:
235,345,100073,5,0,3:0:0:0:
137,183,100223,1,0,3:0:0:0:
297,86,100373,1,0,3:0:0:0:
392,246,100523,1,0,3:0:0:0:
263,225,100673,6,0,L|256:192,1,31.5,4|0,3:0|0:0,0:0:0:0:
276,119,101273,6,0,L|236:281,1,157.5,4|0,3:0|0:0,0:0:0:0:
256,368,101873,5,0,3:0:0:0:
192,169,102023,1,8,0:0:0:0:
256,192,102098,1,8,0:0:0:0:
321,212,102173,1,10,0:0:0:0:
256,16,102323,1,8,0:0:0:0:
256,368,102473,1,4,0:0:0:0:
256,192,102548,12,4,104873,0:0:0:0:
191,366,105173,5,0,3:0:0:0:
112,322,105323,2,0,P|85:264|164:177,1,180
273,176,105773,2,0,P|337:179|400:78,1,180,0|8,3:0|0:0,0:0:0:0:
331,44,106223,6,0,L|319:239,1,180,0|0,3:0|3:0,0:0:0:0:
411,363,106673,1,0,3:0:0:0:
432,356,106748,1,0,3:0:0:0:
453,349,106823,1,0,3:0:0:0:
475,342,106898,1,0,0:0:0:0:
496,335,106973,2,0,P|455:287|409:296,1,90,12|0,0:0|0:0,0:0:0:0:
318,333,107273,6,0,P|229:302|247:208,1,180,4|0,3:0|0:0,0:0:0:0:
357,22,107723,2,0,P|398:106|318:160,1,180,0|0,3:0|3:0,0:0:0:0:
186,121,108173,2,0,B|129:93|102:139|85:183|4:144,1,180,0|8,3:0|0:0,0:0:0:0:
26,72,108623,6,0,P|102:116|120:223,1,180,0|0,3:0|3:0,0:0:0:0:
109,354,109073,1,8,0:0:0:0:
0,258,109223,1,0,3:0:0:0:
0,258,109298,1,0,0:0:0:0:
0,258,109373,2,0,P|6:215|36:180,1,90,0|0,3:0|3:0,0:0:0:0:
256,43,109673,5,4,3:0:0:0:
256,43,109823,1,0,3:0:0:0:
314,312,109973,1,8,0:0:0:0:
400,286,110123,1,0,3:0:0:0:
198,126,110273,1,8,0:0:0:0:
112,152,110423,1,0,3:0:0:0:
245,373,110573,5,8,0:0:0:0:
245,373,110723,1,0,3:0:0:0:
260,23,110873,6,0,P|316:32|313:114,1,135,8|0,0:0|3:0,0:0:0:0:
253,198,111473,1,0,3:0:0:0:
230,193,111548,1,0,3:0:0:0:
208,189,111623,1,0,3:0:0:0:
186,185,111698,1,0,3:0:0:0:
164,180,111773,2,0,P|125:244|157:300,1,135,8|0,0:0|0:0,0:0:0:0:
245,373,112073,5,4,0:0:0:0:
245,373,113123,6,0,P|273:346|295:337,1,45,8|0,0:0|0:0,0:0:0:0:
352,311,113273,1,0,3:0:0:0:
352,311,113423,1,0,3:0:0:0:
454,258,113573,6,0,P|426:231|404:222,1,45,8|0,0:0|0:0,0:0:0:0:
347,196,113723,1,0,3:0:0:0:
347,196,113873,1,0,3:0:0:0:
238,261,114023,6,0,B|218:248|218:248|257:237,1,45,8|0,0:0|0:0,0:0:0:0:
440,359,114173,2,0,B|438:382|438:382|409:354,1,45,8|0,0:0|0:0,0:0:0:0:
438,143,114323,2,0,B|459:132|459:132|449:171,1,45,8|0,0:0|0:0,0:0:0:0:
385,255,114473,5,4,3:0:0:0:
385,255,114623,1,0,3:0:0:0:
268,186,114773,2,0,P|239:140|270:91,1,90,10|0,0:0|3:0,0:0:0:0:
25,351,115073,5,0,3:0:0:0:
25,351,115223,1,0,3:0:0:0:
142,282,115373,2,0,P|171:236|140:187,1,90,10|0,0:0|3:0,0:0:0:0:
76,68,115673,5,0,3:0:0:0:
27,193,115823,1,0,3:0:0:0:
161,205,115973,2,0,P|209:192|257:162,1,90,10|0,0:0|3:0,0:0:0:0:
449,233,116273,5,0,3:0:0:0:
498,358,116423,1,0,3:0:0:0:
364,370,116573,2,0,P|316:357|268:327,1,90,10|0,0:0|3:0,0:0:0:0:
292,96,116873,6,0,B|322:121|322:121|328:184,1,90,4|0,3:0|3:0,0:0:0:0:
206,384,117173,2,0,B|176:359|176:359|170:296,1,90,10|0,0:0|3:0,0:0:0:0:
128,179,117473,5,0,3:0:0:0:
267,229,117623,1,0,3:0:0:0:
106,172,117773,2,0,B|68:210|68:210|82:264,1,90,10|0,0:0|3:0,0:0:0:0:
206,384,118073,5,0,3:0:0:0:
206,384,118223,1,0,3:0:0:0:
295,313,118373,2,0,B|347:292|347:292|393:302,1,90,10|0,0:0|3:0,0:0:0:0:
503,275,118673,5,0,3:0:0:0:
467,384,118823,1,0,3:0:0:0:
380,299,118973,2,0,B|357:242|357:242|375:191,1,90,10|0,0:0|3:0,0:0:0:0:
432,36,119273,6,0,P|366:42|371:140,1,180,4|10,3:0|0:0,0:0:0:0:
457,121,119723,1,0,3:0:0:0:
110,155,119873,6,0,P|176:161|171:259,1,180,0|10,3:0|0:0,0:0:0:0:
85,240,120323,1,0,3:0:0:0:
330,338,120473,6,0,B|328:364|293:378|232:345|257:281|257:281|291:252|278:195,1,215.999993408203,0|8,3:0|0:0,0:0:0:0:
182,46,120923,2,0,B|184:20|219:6|280:39|255:103|255:103|221:132|234:189,1,215.999993408203,8|8,0:0|0:0,0:0:0:0:
353,262,121373,5,8,0:0:0:0:
158,120,121523,1,0,3:0:0:0:
316,132,121673,6,0,B|318:156|318:156|208:232|208:232|209:269,1,180,4|10,3:0|0:0,0:0:0:0:
279,368,122123,1,0,3:0:0:0:
109,308,122273,1,0,3:0:0:0:
109,308,122423,1,0,3:0:0:0:
299,376,122573,2,0,B|351:343|351:343|346:284,1,90,10|0,0:0|3:0,0:0:0:0:
316,132,122873,1,0,3:0:0:0:
316,132,123023,1,0,3:0:0:0:
126,200,123173,2,0,B|74:167|74:167|79:108,1,90,10|0,0:0|3:0,0:0:0:0:
211,35,123473,5,0,3:0:0:0:
220,142,123623,1,0,3:0:0:0:
229,249,123773,2,0,B|301:271|301:271|345:242,1,90,10|0,0:0|3:0,0:0:0:0:
503,170,124073,6,0,B|436:156|436:156|366:200,1,135,4|0,3:0|0:0,0:0:0:0:
357,191,124373,2,0,L|384:296,1,90,10|0,0:0|3:0,0:0:0:0:
480,365,124673,5,0,3:0:0:0:
480,365,124823,1,0,3:0:0:0:
371,292,124973,2,0,B|347:281|347:281|269:301,1,90,10|0,0:0|3:0,0:0:0:0:
60,362,125273,6,0,B|38:370|12:350|12:350|38:343|55:352,1,90,0|0,3:0|3:0,0:0:0:0:
148,292,125573,1,10,0:0:0:0:
148,292,125723,1,0,3:0:0:0:
276,234,125873,6,0,B|297:242|323:222|323:222|297:215|280:224,1,90,0|0,3:0|3:0,0:0:0:0:
188,164,126173,1,10,0:0:0:0:
188,164,126323,1,0,3:0:0:0:
24,76,126473,6,0,B|37:30|65:20|65:20|109:22|126:45,1,135,4|0,3:0|0:0,0:0:0:0:
135,52,126773,2,0,P|177:78|228:65,1,90,10|0,0:0|3:0,0:0:0:0:
457,154,127073,2,0,B|502:93|443:47|443:47|393:72|398:117,1,180,0|10,3:0|0:0,0:0:0:0:
373,169,127523,1,0,3:0:0:0:
174,347,127673,6,0,P|118:376|29:296,1,180,4|10,3:0|0:0,0:0:0:0:
32,314,128123,1,0,3:0:0:0:
238,146,128273,2,0,B|268:164|276:198|276:198|246:224|240:286,1,135,0|0,3:0|0:0,0:0:0:0:
249,277,128573,2,0,P|284:325|334:304,1,90,10|0,0:0|3:0,0:0:0:0:
400,147,128873,5,4,0:0:0:0:
497,180,129023,1,0,0:0:0:0:
464,278,129173,1,8,0:0:0:0:
366,244,129323,1,0,3:0:0:0:
107,47,129473,5,4,3:0:0:0:
10,80,129623,1,0,0:0:0:0:
43,178,129773,1,8,0:0:0:0:
141,144,129923,1,0,3:0:0:0:
318,42,130073,6,0,B|332:104|293:121|246:143|273:215,1,180,0|8,3:0|0:0,0:0:0:0:
269,205,130523,1,0,3:0:0:0:
447,171,130673,1,8,0:0:0:0:
194,87,130823,1,8,0:0:0:0:
249,334,130973,1,0,3:0:0:0:
249,334,131123,1,0,3:0:0:0:
493,47,131273,5,4,3:0:0:0:
367,16,131423,1,0,3:0:0:0:
276,108,131573,1,8,0:0:0:0:
295,236,131723,1,2,0:0:0:0:
179,294,131873,1,0,3:0:0:0:
61,238,132023,1,0,3:0:0:0:
76,109,132173,2,0,B|120:101|120:101|177:143,1,107.999996704102,8|2,0:0|0:0,0:0:0:0:
340,316,132473,5,0,3:0:0:0:
454,265,132623,1,0,3:0:0:0:
324,326,132773,2,0,B|285:287|285:287|296:227,1,107.999996704102,8|2,0:0|0:0,0:0:0:0:
386,123,133073,5,0,3:0:0:0:
272,72,133223,1,0,3:0:0:0:
402,133,133373,2,0,B|441:94|441:94|430:34,1,107.999996704102,8|2,0:0|0:0,0:0:0:0:
253,64,133673,6,0,B|202:114|202:114|224:273,1,215.999993408203,4|8,3:0|0:0,0:0:0:0:
244,363,134123,1,2,0:0:0:0:
507,229,134273,2,0,B|467:234|467:234|462:237|462:237|358:167|358:167|352:159|352:159|313:157,1,215.999993408203,0|8,3:0|0:0,0:0:0:0:
304,164,134723,2,0,B|344:169|344:169|349:172|349:172|453:102|453:102|459:94|459:94|498:92,1,215.999993408203,2|0,0:0|3:0,0:0:0:0:
327,44,135173,1,8,0:0:0:0:
327,44,135323,1,2,0:0:0:0:
236,237,135473,2,0,B|207:260|207:260|162:262|116:222,1,107.999996704102,0|0,3:0|3:0,0:0:0:0:
14,70,135773,2,0,B|43:47|43:47|88:45|134:85,1,107.999996704102,8|2,0:0|0:0,0:0:0:0:
172,149,136073,6,0,B|178:184|178:184|148:253|148:253|155:263|155:263|170:377,1,215.999993408203,4|8,3:0|0:0,0:0:0:0:
167,355,136523,1,2,0:0:0:0:
32,268,136673,2,0,B|11:226|11:226|35:189|89:161,1,107.999996704102,0|0,3:0|3:0,0:0:0:0:
250,281,136973,1,8,0:0:0:0:
250,281,137123,1,2,0:0:0:0:
374,296,137273,6,0,B|443:259|393:202|393:202|276:174,1,215.999993408203,4|8,3:0|0:0,0:0:0:0:
135,138,137723,1,2,0:0:0:0:
273,170,137873,6,0,B|204:133|254:76|254:76|371:48,1,215.999993408203,0|8,3:0|0:0,0:0:0:0:
512,12,138323,1,2,0:0:0:0:
366,49,138473,6,0,L|236:27,1,107.999996704102,4|0,3:0|3:0,0:0:0:0:
212,145,138773,1,8,0:0:0:0:
259,30,138923,1,2,0:0:0:0:
391,193,139073,1,0,3:0:0:0:
344,308,139223,1,0,3:0:0:0:
302,177,139373,5,8,0:0:0:0:
302,177,139523,1,2,0:0:0:0:
203,269,139673,5,8,0:0:0:0:
397,97,139823,1,8,0:0:0:0:
203,269,139973,1,8,0:0:0:0:
397,97,140123,2,0,B|409:55|378:30|378:30|376:20|376:20|302:-19|242:42,1,215.999993408203,4|8,3:0|0:0,0:0:0:0:
100,100,140573,1,8,0:0:0:0:
100,100,140723,1,0,3:0:0:0:
161,180,140873,6,0,L|140:299,1,107.999996704102,4|0,3:0|3:0,0:0:0:0:
234,250,141173,1,10,0:0:0:0:
78,174,141323,1,0,3:0:0:0:
248,260,141473,6,0,L|269:379,1,107.999996704102,0|0,3:0|3:0,0:0:0:0:
175,330,141773,1,10,0:0:0:0:
331,254,141923,1,0,3:0:0:0:
162,338,142073,6,0,B|101:349|101:349|39:319,1,107.999996704102,0|0,3:0|3:0,0:0:0:0:
114,235,142373,1,10,0:0:0:0:
114,235,142523,1,0,3:0:0:0:
346,259,142673,6,0,B|407:270|407:270|469:240,1,107.999996704102,0|0,3:0|3:0,0:0:0:0:
397,156,142973,1,10,0:0:0:0:
397,156,143123,1,0,3:0:0:0:
326,11,143273,6,0,B|303:34|303:34|298:55|312:127,1,107.999996704102,4|0,3:0|3:0,0:0:0:0:
451,249,143573,1,10,0:0:0:0:
484,157,143723,1,0,3:0:0:0:
308,109,143873,6,0,B|330:132|330:132|336:153|322:225,1,107.999996704102,0|0,3:0|3:0,0:0:0:0:
183,347,144173,1,10,0:0:0:0:
150,255,144323,1,0,3:0:0:0:
325,207,144473,6,0,B|302:230|302:230|297:251|311:323,1,107.999996704102,0|0,3:0|3:0,0:0:0:0:
433,347,144773,2,0,B|455:323|455:323|461:303|447:231,1,107.999996704102,10|0,0:0|3:0,0:0:0:0:
181,91,145073,6,0,B|203:114|203:114|209:135|195:207,1,107.999996704102,0|0,3:0|3:0,0:0:0:0:
73,231,145373,2,0,B|50:207|50:207|45:187|59:115,1,107.999996704102,10|0,0:0|3:0,0:0:0:0:
325,25,145673,5,4,3:0:0:0:
343,109,145823,1,0,3:0:0:0:
181,91,145973,5,10,0:0:0:0:
163,175,146123,1,0,3:0:0:0:
415,211,146273,5,0,3:0:0:0:
433,295,146423,1,0,3:0:0:0:
271,277,146573,5,10,0:0:0:0:
253,361,146723,1,0,3:0:0:0:
85,249,146873,6,0,B|61:213|21:201|21:201|29:155|75:106,1,161.999995056153,4|0,3:0|0:0,0:0:0:0:
66,120,147173,2,0,P|124:133|160:182,1,107.999996704102,10|0,0:0|3:0,0:0:0:0:
415,211,147473,6,0,B|438:175|478:163|478:163|470:117|424:68,1,161.999995056153,4|0,3:0|0:0,0:0:0:0:
434,82,147773,2,0,P|375:95|339:144,1,107.999996704102,10|0,0:0|3:0,0:0:0:0:
202,359,148073,5,0,3:0:0:0:
264,376,148148,1,0,3:0:0:0:
311,350,148223,1,0,3:0:0:0:
329,310,148298,1,0,3:0:0:0:
325,277,148373,1,0,3:0:0:0:
314,252,148448,1,0,3:0:0:0:
298,237,148523,1,0,3:0:0:0:
284,227,148598,1,0,3:0:0:0:
273,224,148673,1,8,0:0:0:0:
257,208,148748,1,0,3:0:0:0:
244,178,148823,1,0,3:0:0:0:
250,135,148898,1,0,3:0:0:0:
290,99,148973,1,0,3:0:0:0:
354,108,149048,1,0,3:0:0:0:
397,169,149123,1,0,3:0:0:0:
380,248,149198,1,0,3:0:0:0:
314,316,149273,6,2,B|294:298|268:296|268:296|246:314|231:317,1,94.4999971160889,4|0,3:0|0:0,1:0:0:0:
165,364,149873,6,0,B|145:335|145:335|157:292,1,53.9999983520508,0|0,3:0|0:0,0:0:0:0:
321,177,150023,1,8,0:0:0:0:
339,181,150098,1,8,0:0:0:0:
359,186,150173,2,0,B|366:152|385:137|385:137|384:113|358:91,1,94.499997116089,8|0,0:0|0:0,0:0:0:0:
248,2,150473,5,4,0:0:0:0:
140,58,150623,1,2,3:0:0:0:
197,164,150773,1,10,0:0:0:0:
304,107,150923,1,2,3:0:0:0:
77,162,151073,5,0,3:0:0:0:
155,315,151223,1,2,3:0:0:0:
306,234,151373,1,10,0:0:0:0:
225,82,151523,1,2,3:0:0:0:
334,332,151673,6,2,B|375:345|418:301|418:301|418:294|418:294|439:242|401:199,1,202.500007724762,0|0,3:0|0:0,1:0:0:0:
388,186,151973,2,0,B|355:159|353:126|353:126|381:104|383:62,1,135.000005149842,10|0,0:0|3:0,0:0:0:0:
305,65,152273,1,2,3:0:0:0:
305,65,152423,1,2,3:0:0:0:
466,142,152573,1,10,0:0:0:0:
306,234,152723,1,2,3:0:0:0:
62,66,152873,5,4,0:0:0:0:
92,183,153023,1,2,3:0:0:0:
209,153,153173,1,10,0:0:0:0:
178,35,153323,1,2,3:0:0:0:
135,111,153473,5,0,3:0:0:0:
186,309,153623,1,2,3:0:0:0:
384,258,153773,1,10,0:0:0:0:
332,58,153923,1,2,3:0:0:0:
55,170,154073,6,2,B|95:180|126:226|126:226|120:234|120:234|123:282|68:324,1,202.500007724762,0|0,3:0|0:0,1:0:0:0:
44,328,154373,2,0,B|-12:313|-12:313|-29:269|8:238,1,135.000005149842,10|0,0:0|3:0,0:0:0:0:
436,204,154673,2,0,B|492:189|492:189|509:145|472:114,1,135.000005149842,2|2,3:0|3:0,0:0:0:0:
259,1,154973,1,10,0:0:0:0:
259,1,155123,1,2,3:0:0:0:
299,90,155273,6,0,L|249:310,1,202.500007724762,4|0,0:0|0:0,0:0:0:0:
250,305,155573,2,0,B|214:324|214:324|89:272,1,135.000005149842,10|0,0:0|3:0,0:0:0:0:
168,147,155873,1,0,3:0:0:0:
168,147,156023,1,0,3:0:0:0:
346,282,156173,1,10,0:0:0:0:
145,380,156323,1,0,3:0:0:0:
346,282,156473,6,0,B|383:251|378:190|378:190|335:159|355:91,1,202.500007724762,4|0,3:0|0:0,0:0:0:0:
371,70,156773,2,0,B|399:62|415:40|415:40|464:41|491:68,1,135.000005149842,10|0,0:0|3:0,0:0:0:0:
247,215,157073,2,0,B|226:194|199:191|199:191|175:148|185:112,1,135.000005149842,0|0,3:0|3:0,0:0:0:0:
456,252,157373,2,0,B|448:280|459:305|459:305|434:347|397:356,1,135.000005149842,10|0,0:0|3:0,0:0:0:0:
247,215,157673,6,0,B|161:182|149:240|140:282|30:252,1,202.500007724762,4|0,0:0|0:0,0:0:0:0:
39,245,157973,2,0,P|25:191|98:202,1,135.000005149842,10|0,0:0|3:0,0:0:0:0:
293,320,158273,6,2,B|289:343|289:343|275:357,1,40.4999987640381,0|0,3:0|0:0,1:0:0:0:
251,358,158573,6,0,B|198:330|198:330|201:322|201:322|178:292|199:226,1,135.000005149842,10|0,0:0|3:0,0:0:0:0:
264,71,158873,6,2,B|271:119|229:160|229:160|227:165|227:165|174:149|126:186,1,202.500007724762,0|0,3:0|0:0,1:0:0:0:
116,191,159173,2,0,B|89:232|89:232|97:271,1,67.5000025749208,10|0,0:0|0:0,0:0:0:0:
251,358,159323,2,0,B|278:316|278:316|269:278,1,67.5000025749208,0|0,3:0|0:0,0:0:0:0:
103,25,159473,5,0,3:0:0:0:
92,56,159548,1,0,3:0:0:0:
102,95,159623,1,0,3:0:0:0:
138,125,159698,1,0,3:0:0:0:
189,140,159773,1,0,3:0:0:0:
238,175,159848,1,0,3:0:0:0:
249,241,159923,1,0,3:0:0:0:
210,304,159998,1,0,3:0:0:0:
135,309,160073,5,4,0:0:0:0:
204,38,160223,1,2,3:0:0:0:
217,188,160373,5,10,0:0:0:0:
118,162,160523,1,2,3:0:0:0:
181,125,160673,5,0,3:0:0:0:
156,224,160823,1,2,3:0:0:0:
6,132,160973,5,10,0:0:0:0:
331,219,161123,1,2,3:0:0:0:
97,368,161273,6,2,B|43:361|28:311|28:311|19:307|19:307|18:250|74:215,1,202.500007724762,0|0,3:0|0:0,1:0:0:0:
82,208,161573,2,0,B|120:183|121:146|121:146|125:143|125:143|119:106|77:83,1,135.000005149842,10|0,0:0|3:0,0:0:0:0:
24,59,161873,1,2,3:0:0:0:
24,59,162023,1,2,3:0:0:0:
184,275,162173,1,10,0:0:0:0:
184,275,162323,1,2,3:0:0:0:
349,62,162473,5,4,0:0:0:0:
394,223,162623,1,2,3:0:0:0:
245,177,162773,1,10,0:0:0:0:
284,337,162923,1,2,3:0:0:0:
246,87,163073,5,0,3:0:0:0:
444,147,163223,1,2,3:0:0:0:
184,275,163373,1,10,0:0:0:0:
396,342,163523,1,2,3:0:0:0:
237,6,163673,6,2,B|196:-7|164:8|164:8|162:19|162:19|104:73|155:147,1,202.500007724762,0|0,3:0|0:0,1:0:0:0:
155,146,163973,2,0,B|171:183|174:205|174:205|138:243|122:284,1,135.000005149842,10|0,0:0|3:0,0:0:0:0:
95,375,164273,1,2,3:0:0:0:
95,375,164423,1,2,3:0:0:0:
247,321,164573,1,10,0:0:0:0:
80,204,164723,1,2,3:0:0:0:
247,321,164873,6,0,B|292:348|344:340|344:340|354:348|354:348|399:310|460:307,1,202.500007724762,4|0,0:0|0:0,0:0:0:0:
453,306,165173,2,0,B|493:290|493:243|493:243|448:206|443:172,1,135.000005149842,10|0,0:0|3:0,0:0:0:0:
260,128,165473,6,0,B|215:155|163:147|163:147|153:155|153:155|108:117|47:114,1,202.500007724762,4|0,3:0|0:0,0:0:0:0:
54,113,165773,2,0,B|14:97|14:50|14:50|59:13|64:-21,1,135.000005149842,10|0,0:0|3:0,0:0:0:0:
328,54,166073,5,4,3:0:0:0:
388,332,166223,1,0,3:0:0:0:
477,265,166373,2,0,B|470:245|450:229|450:229|448:223|448:223|402:212|364:239,1,135.000005149842,10|0,0:0|3:0,0:0:0:0:
106,360,166673,5,4,3:0:0:0:
388,332,166823,1,0,3:0:0:0:
249,172,166974,2,0,B|229:165|213:145|213:145|207:143|207:143|188:99|215:64,1,135.000005149842,10|0,0:0|3:0,0:0:0:0:
322,65,167273,6,2,B|351:114|334:149|334:149|322:152|322:152|284:195|240:210|240:210|239:217|239:217|211:239|227:296,1,242.999992584229,4|0,0:0|0:0,1:0:0:0:
235,324,167573,2,0,B|250:355|294:369|294:369|265:348|265:348|247:311,1,135.000005149842,10|0,0:0|3:0,0:0:0:0:
216,64,167873,5,0,3:0:0:0:
202,93,167948,1,0,3:0:0:0:
203,133,168023,1,0,3:0:0:0:
230,173,168098,1,0,3:0:0:0:
276,190,168173,1,0,3:0:0:0:
320,226,168248,1,0,3:0:0:0:
332,289,168323,1,0,3:0:0:0:
300,345,168398,1,0,3:0:0:0:
231,366,168473,6,0,L|148:351,1,67.5000025749208,0|0,3:0|3:0,0:0:0:0:
393,243,168623,2,0,L|475:224,1,67.5000025749208,0|0,3:0|3:0,0:0:0:0:
141,185,168773,1,0,3:0:0:0:
141,185,168848,1,0,3:0:0:0:
141,185,168923,2,0,L|36:169,1,67.5000025749208,0|0,3:0|3:0,0:0:0:0:
345,58,169073,1,0,3:0:0:0:
345,58,169148,1,0,3:0:0:0:
345,58,169223,2,0,L|454:42,1,67.5000025749208,0|0,3:0|3:0,0:0:0:0:
263,179,169373,6,0,L|262:263,1,67.5,0|0,3:0|0:0,0:0:0:0:
261,322,169673,5,4,0:0:0:0:
256,192,169748,12,0,172073,0:0:0:0:
303,189,173648,6,0,L|314:152,2,26.9999991760254,0|0|0,3:0|3:0|3:0,0:0:0:0:
235,240,173873,6,0,L|209:232,1,26.9999991760254,8|0,0:0|0:0,0:0:0:0:
249,253,174023,6,0,L|272:348,1,90,8|0,0:0|0:0,0:0:0:0:
280,362,174473,6,0,B|327:321|364:313|364:313|360:302|360:302|379:226|312:159|312:159|317:156|317:156|306:57|414:17|500:114|430:180,1,558,4|0,0:0|2:0,0:0:0:0:
418,191,176873,6,0,B|352:183|352:183|348:180|348:180|264:216|264:216|222:194|168:193,1,252,0|0,2:0|3:0,0:0:0:0:
102,180,178073,6,0,B|72:166|46:178|46:178|69:200|105:184,1,107.999996704102,8|0,0:0|3:0,0:0:0:0:
418,191,178523,2,0,B|448:205|474:193|474:193|451:171|415:187,1,107.999996704102,0|0,3:0|3:0,0:0:0:0:
273,259,178973,2,0,L|273:285,1,27,0|0,3:0|0:0,0:0:0:0:
270,303,179273,6,0,B|204:342|154:322|154:322|163:315|163:315|153:183|267:153|267:153|275:155|275:155|290:107|259:87|260:81|260:81|190:82|140:134,1,558,4|0,0:0|0:0,0:0:0:0:
131,140,181673,5,0,3:0:0:0:
260,234,181823,1,0,3:0:0:0:
101,368,181973,6,0,P|83:324|87:312,1,53.9999983520508,2|0,0:0|0:0,0:0:0:0:
172,238,182273,1,0,3:0:0:0:
331,284,182423,6,0,P|349:240|345:228,1,53.9999983520508,2|0,0:0|3:0,0:0:0:0:
260,154,182723,1,2,0:0:0:0:
366,362,182873,5,0,3:0:0:0:
392,356,182948,1,0,3:0:0:0:
419,351,183023,1,0,3:0:0:0:
445,346,183098,1,0,3:0:0:0:
472,341,183173,2,0,B|495:301|495:301|482:258,1,72,0|0,3:0|3:0,0:0:0:0:
260,234,183473,5,0,3:0:0:0:
233,228,183548,1,0,3:0:0:0:
206,223,183623,1,0,3:0:0:0:
180,218,183698,1,0,3:0:0:0:
154,213,183773,2,0,B|131:173|131:173|144:130,1,72,0|0,3:0|3:0,0:0:0:0:
347,15,184073,6,0,B|293:79|300:156|300:156|307:155|307:155|358:190|358:190|365:189|365:189|380:297|308:357,1,404.999987640381,4|0,0:0|0:0,0:0:0:0:
295,349,185273,6,0,B|243:335|232:287|232:287|186:251|120:274|120:274|117:343|195:359,1,323.999990112305,4|0,0:0|0:0,0:0:0:0:
184,341,186248,1,0,3:0:0:0:
187,328,186323,1,0,3:0:0:0:
190,315,186398,1,0,3:0:0:0:
193,302,186473,5,4,3:0:0:0:
239,145,186623,1,0,3:0:0:0:
239,145,186773,1,0,3:0:0:0:
117,279,186923,6,0,L|52:263,1,53.9999983520508,0|0,3:0|3:0,0:0:0:0:
239,145,187223,1,0,3:0:0:0:
335,357,187373,2,0,L|401:346,1,53.9999983520508,12|0,0:0|0:0,0:0:0:0:
239,145,187673,5,8,0:0:0:0:
202,373,187823,1,8,0:0:0:0:
467,126,188123,5,8,0:0:0:0:
94,29,188423,5,8,0:0:0:0:
392,351,188873,6,0,B|438:379|467:336|467:336|448:285,1,125.999996154785,4|0,0:0|0:0,0:0:0:0:
346,238,189323,2,0,B|300:210|271:253|271:253|290:304,1,125.999996154785,0|0,3:0|0:0,0:0:0:0:
433,218,189773,2,0,L|442:148,1,62.9999980773926,0|0,3:0|0:0,0:0:0:0:
464,48,190073,6,0,P|453:102|374:99,1,125.999996154785,8|0,0:0|3:0,0:0:0:0:
305,68,190523,2,0,P|284:58|224:65,1,62.9999980773926,0|0,3:0|0:0,0:0:0:0:
81,149,190823,2,0,P|102:139|162:146,1,62.9999980773926,0|0,3:0|0:0,0:0:0:0:
260,201,191123,1,0,0:0:0:0:
182,357,191273,6,0,P|119:327|129:255,1,125.999996154785,4|0,0:0|0:0,0:0:0:0:
271,124,191723,2,0,P|334:154|324:226,1,125.999996154785,0|0,3:0|0:0,0:0:0:0:
276,288,192173,2,0,L|209:267,1,62.9999980773926,0|0,3:0|0:0,0:0:0:0:
89,109,192473,5,8,0:0:0:0:
12,134,192623,1,8,0:0:0:0:
37,211,192773,1,0,3:0:0:0:
37,211,192923,1,0,3:0:0:0:
365,38,193073,5,8,0:0:0:0:
463,69,193223,1,8,0:0:0:0:
430,167,193373,1,0,3:0:0:0:
430,167,193523,1,0,3:0:0:0:
144,28,193673,6,0,B|93:29|74:79|74:79|98:128,1,125.999996154785,4|0,0:0|0:0,0:0:0:0:
185,204,194123,2,0,B|236:203|255:153|255:153|231:104,1,125.999996154785,0|0,3:0|0:0,0:0:0:0:
74,201,194573,2,0,L|88:277,1,62.9999980773926,0|0,3:0|0:0,0:0:0:0:
161,352,194873,6,0,B|193:313|233:313|233:313|277:344,1,125.999996154785,8|0,0:0|3:0,0:0:0:0:
372,364,195323,2,0,P|424:350|435:328,1,62.9999980773926,0|0,3:0|0:0,0:0:0:0:
338,227,195623,2,0,P|324:279|337:299,1,62.9999980773926,0|0,3:0|0:0,0:0:0:0:
479,274,195923,1,0,0:0:0:0:
479,274,196073,6,0,B|455:219|512:201|485:135,1,125.999996154785,4|0,0:0|0:0,0:0:0:0:
448,9,196523,2,0,P|402:10|396:83,1,125.999996154785,0|0,3:0|0:0,0:0:0:0:
481,83,196973,1,0,3:0:0:0:
486,88,197273,5,8,0:0:0:0:
486,88,197423,1,0,3:0:0:0:
346,254,197573,1,0,3:0:0:0:
346,254,197648,1,0,0:0:0:0:
346,254,197723,1,0,3:0:0:0:
302,170,197873,5,8,0:0:0:0:
423,207,198023,1,0,3:0:0:0:
386,328,198173,1,0,3:0:0:0:
265,291,198323,1,0,3:0:0:0:
32,158,198473,6,0,B|40:202|88:207|88:207|135:180,1,125.999996154785,4|0,0:0|0:0,0:0:0:0:
203,79,198923,2,0,B|195:35|147:30|147:30|100:57,1,125.999996154785,0|0,3:0|0:0,0:0:0:0:
219,170,199373,2,0,L|304:162,1,62.9999980773926,0|0,3:0|0:0,0:0:0:0:
456,90,199673,5,8,0:0:0:0:
386,35,199823,2,0,P|347:39|321:60,1,62.9999980773926,0|0,3:0|0:0,0:0:0:0:
366,178,200123,2,0,P|382:142|376:109,1,62.9999980773926,0|0,3:0|0:0,0:0:0:0:
247,86,200423,2,0,P|269:117|301:129,1,62.9999980773926,0|0,3:0|0:0,0:0:0:0:
456,90,200723,1,0,0:0:0:0:
286,221,200873,6,0,B|255:263|255:263|256:301|283:354,1,125.999996154785,4|0,3:0|0:0,0:0:0:0:
356,371,201323,2,0,L|486:351,1,125.999996154785
480,351,201773,1,0,0:0:0:0:
123,174,202073,5,8,0:0:0:0:
172,375,202223,1,0,3:0:0:0:
197,284,202373,1,0,3:0:0:0:
104,307,202523,1,0,3:0:0:0:
349,337,202673,5,8,0:0:0:0:
349,337,202748,1,8,0:0:0:0:
349,337,202823,1,0,3:0:0:0:
226,205,202973,1,0,3:0:0:0:
172,375,203123,1,0,3:0:0:0:
440,237,203273,6,0,B|481:195|481:195|491:159|458:111,1,125.999996154785,4|0,0:0|0:0,0:0:0:0:
390,73,203723,2,0,P|389:27|422:4,1,62.9999980773926,0|0,3:0|0:0,0:0:0:0:
488,13,204023,1,0,3:0:0:0:
399,163,204173,2,0,L|323:150,1,62.9999980773926,0|0,3:0|0:0,0:0:0:0:
258,41,204473,5,8,0:0:0:0:
181,141,204623,2,0,L|200:213,1,62.9999980773926,0|0,3:0|3:0,0:0:0:0:
338,224,204923,5,8,0:0:0:0:
415,324,205073,2,0,L|396:396,1,62.9999980773926,0|0,3:0|3:0,0:0:0:0:
305,309,205373,5,0,3:0:0:0:
447,231,205523,1,0,3:0:0:0:
447,231,205598,1,0,3:0:0:0:
447,231,205673,6,0,B|455:187|455:187|433:157,1,62.9999980773926,12|0,0:0|3:0,0:0:0:0:
96,263,205973,5,0,3:0:0:0:
126,337,206123,2,0,B|160:366|160:366|197:362,1,62.9999980773926,8|0,0:0|3:0,0:0:0:0:
274,17,206423,5,0,3:0:0:0:
194,7,206573,2,0,B|152:22|152:22|137:56,1,62.9999980773926,12|0,0:0|3:0,0:0:0:0:
226,205,206873,5,0,3:0:0:0:
239,197,206948,1,0,3:0:0:0:
253,191,207023,1,0,3:0:0:0:
268,184,207098,1,0,3:0:0:0:
282,178,207173,1,0,3:0:0:0:
116,146,207323,5,0,3:0:0:0:
161,160,207398,1,0,3:0:0:0:
206,173,207473,1,0,3:0:0:0:
251,187,207548,1,0,3:0:0:0:
296,200,207623,1,0,3:0:0:0:
341,214,207698,1,0,3:0:0:0:
388,227,207773,1,8,0:0:0:0:
256,16,208073,5,4,0:0:0:0:
256,192,208148,12,0,210473,0:0:0:0:
400,148,213032,6,0,P|348:110|301:126,1,107.999996704102,2|0,3:0|0:0,0:0:0:0:
243,154,213510,1,0,0:0:0:0:
185,211,213670,2,0,L|206:333,1,107.999996704102,2|0,0:0|0:0,0:0:0:0:
203,317,214150,1,0,0:0:0:0:
134,369,214309,6,0,P|89:343|89:322,1,53.9999983520508,2|0,0:0|0:0,0:0:0:0:
265,236,214628,2,0,P|310:262|310:283,1,53.9999983520508
90,346,214947,6,0,P|76:295|91:280,1,53.9999983520508,2|0,0:0|0:0,0:0:0:0:
308,258,215266,2,0,P|321:308|306:323,1,53.9999983520508
203,317,215585,6,0,L|193:242,1,53.9999983520508,2|0,0:0|0:0,0:0:0:0:
192,236,215824,1,0,0:0:0:0:
189,209,215904,2,0,L|179:134,1,53.9999983520508
55,39,216223,6,0,P|47:95|97:121,1,107.999996704102,2|0,0:0|0:0,0:0:0:0:
181,155,216702,1,0,0:0:0:0:
277,107,216861,6,0,P|296:74|292:52,1,53.9999983520508,2|0,0:0|0:0,0:0:0:0:
211,17,217180,2,0,P|192:50|196:72,1,53.9999983520508
409,216,217500,6,0,P|390:183|394:161,1,53.9999983520508,2|0,0:0|0:0,0:0:0:0:
475,126,217819,2,0,P|494:159|490:181,1,53.9999983520508
399,328,218138,6,0,P|345:310|287:332,1,107.999996704102,2|0,0:0|0:0,0:0:0:0:
191,301,218617,1,0,0:0:0:0:
191,301,218776,2,0,P|162:320|81:298,1,107.999996704102,2|0,0:0|0:0,0:0:0:0:
34,248,219255,1,0,0:0:0:0:
108,161,219414,6,0,P|136:180|148:207,1,53.9999983520508,2|0,0:0|0:0,0:0:0:0:
404,223,219734,2,0,P|376:204|364:177,1,53.9999983520508
173,65,220053,6,0,P|179:98|169:126,1,53.9999983520508,2|0,0:0|0:0,0:0:0:0:
338,318,220372,2,0,P|332:285|342:257,1,53.9999983520508
263,145,220691,5,2,0:0:0:0:
195,237,220851,2,0,L|154:225,2,26.9999991760254
252,323,221170,1,0,0:0:0:0:
163,377,221329,2,0,L|42:348,1,107.999996704102,2|0,0:0|0:0,0:0:0:0:
11,265,221808,1,0,0:0:0:0:
57,167,221968,6,0,P|96:157|117:157,1,53.9999983520508,2|0,0:0|0:0,0:0:0:0:
161,233,222287,2,0,P|122:243|101:243,1,53.9999983520508
345,356,222606,6,0,P|384:366|405:366,1,53.9999983520508,2|0,0:0|0:0,0:0:0:0:
449,290,222925,2,0,P|410:280|389:280,1,53.9999983520508
291,283,223244,6,0,P|271:236|293:180,1,107.999996704102,2|0,0:0|0:0,0:0:0:0:
346,126,223723,1,0,0:0:0:0:
424,90,223883,2,0,P|454:65|441:1,1,107.999996704102,2|0,0:0|0:0,0:0:0:0:
442,2,224361,1,0,0:0:0:0:
201,92,224521,6,0,P|177:126|180:146,1,53.9999983520508,2|0,0:0|0:0,0:0:0:0:
311,292,224840,2,0,P|335:258|332:238,1,53.9999983520508
146,160,225159,6,0,P|153:201|169:213,1,53.9999983520508,2|0,0:0|0:0,0:0:0:0:
365,223,225478,2,0,P|358:182|342:170,1,53.9999983520508
254,111,225797,6,0,L|256:168,1,53.9999983520508,2|0,0:0|0:0,0:0:0:0:
255,192,226037,1,0,0:0:0:0:
256,219,226117,2,0,L|258:297,1,53.9999983520508
157,353,226436,6,0,P|106:323|125:270,1,107.999996704102,2|0,0:0|0:0,0:0:0:0:
173,227,226914,1,0,0:0:0:0:
273,240,227074,6,0,P|290:268|288:297,1,53.9999983520508,2|0,0:0|0:0,0:0:0:0:
239,144,227393,2,0,P|222:116|224:87,1,53.9999983520508
208,209,227712,6,0,P|180:226|151:224,1,53.9999983520508,2|0,0:0|0:0,0:0:0:0:
304,175,228031,2,0,P|332:158|361:160,1,53.9999983520508
461,203,228351,6,0,P|505:179|489:115,1,107.999996704102,2|0,0:0|0:0,0:0:0:0:
463,62,228829,1,0,0:0:0:0:
360,232,228989,6,0,L|372:348,1,107.999996704102,2|0,0:0|0:0,0:0:0:0:
371,339,229468,1,0,0:0:0:0:
254,267,229627,6,0,L|196:254,1,53.9999983520508,2|0,0:0|0:0,0:0:0:0:
126,183,229946,2,0,L|184:170,1,53.9999983520508
357,144,230266,6,0,L|415:131,1,53.9999983520508,2|0,0:0|0:0,0:0:0:0:
485,60,230585,2,0,L|427:47,1,53.9999983520508
247,35,230904,6,0,L|253:103,1,67.5,4|0,3:0|0:0,0:0:0:0:
253,122,233570,6,2,B|223:202|107:122|201:24,1,175.499991966248,2|0,0:0|0:0,1:0:0:0:
246,24,234115,6,0,B|315:-1|333:48|352:97|451:57,1,202.500007724762,4|0,3:0|0:0,0:0:0:0:
432,63,234681,6,2,P|426:91|441:126,1,63,0|0,3:0|0:0,1:0:0:0:
479,182,235281,6,0,P|505:158|487:95,1,67.5000025749208,0|0,3:0|0:0,0:0:0:0:
259,9,235431,1,8,0:0:0:0:
254,34,235506,1,8,0:0:0:0:
250,60,235581,2,0,B|224:86|202:91|202:91|160:52|117:70,1,135,8|0,0:0|0:0,0:0:0:0:
56,123,235881,5,4,0:0:0:0:
361,289,236031,1,2,3:0:0:0:
75,201,236181,5,10,0:0:0:0:
350,243,236331,1,2,3:0:0:0:
112,255,236481,5,0,3:0:0:0:
330,211,236631,1,2,3:0:0:0:
154,285,236781,5,10,0:0:0:0:
306,193,236931,1,2,3:0:0:0:
57,107,237081,6,2,B|14:84|25:40|25:40|23:35|23:35|76:-19|136:23,1,202.500007724762,0|0,3:0|0:0,1:0:0:0:
141,34,237381,2,0,B|168:61|170:92|170:92|150:131|169:177,1,135.000005149842,10|0,0:0|3:0,0:0:0:0:
227,271,237681,1,2,3:0:0:0:
227,271,237831,1,2,3:0:0:0:
245,133,237981,1,10,0:0:0:0:
67,206,238131,1,2,3:0:0:0:
263,365,238281,5,4,0:0:0:0:
429,60,238431,1,2,3:0:0:0:
341,346,238581,5,10,0:0:0:0:
383,71,238731,1,2,3:0:0:0:
395,309,238881,5,0,3:0:0:0:
351,91,239031,1,2,3:0:0:0:
425,267,239181,5,10,0:0:0:0:
333,115,239331,1,2,3:0:0:0:
220,226,239481,6,2,B|186:205|156:213|156:213|144:206|144:206|99:265|24:238,1,202.500007724762,0|0,3:0|0:0,1:0:0:0:
67,159,239781,2,0,B|63:143|46:123|46:123|52:109|51:71|51:71|64:96|64:96|62:124,1,135.000005149842,10|0,0:0|3:0,0:0:0:0:
171,291,240081,2,0,B|176:306|193:326|193:326|187:340|188:378|188:378|175:353|175:353|177:325,1,135.000005149842,2|2,3:0|3:0,0:0:0:0:
67,159,240381,2,0,B|63:143|46:123|46:123|52:109|51:71|51:71|64:96|64:96|62:124,1,135.000005149842,10|2,0:0|3:0,0:0:0:0:
171,291,240681,6,0,B|188:343|234:344|234:344|233:354|233:354|307:340|313:282,1,202.500007724762,4|0,0:0|0:0,0:0:0:0:
322,268,240981,2,0,B|334:223|383:229|369:221|369:221|420:217|442:258,1,135.000005149842,10|0,0:0|3:0,0:0:0:0:
467,321,241281,1,0,3:0:0:0:
236,216,241431,1,0,3:0:0:0:
422,150,241581,1,10,0:0:0:0:
422,150,241731,1,0,3:0:0:0:
74,298,241881,6,0,B|47:256|46:216|46:216|81:166|79:90,1,202.500007724762,4|0,3:0|0:0,0:0:0:0:
77,78,242181,2,0,B|109:65|131:51|131:51|176:62|197:102,1,135.000005149842,10|0,0:0|3:0,0:0:0:0:
254,372,242481,2,0,B|226:350|203:338|203:338|190:294|214:256,1,135.000005149842,0|0,3:0|3:0,0:0:0:0:
432,78,242781,2,0,B|427:112|428:138|428:138|396:171|351:169,1,135.000005149842,10|0,0:0|3:0,0:0:0:0:
209,266,243081,6,0,B|123:233|111:291|102:333|-8:303,1,202.500007724762,4|0,0:0|0:0,0:0:0:0:
9,295,243381,2,0,P|-5:241|68:252,1,135.000005149842,10|0,0:0|3:0,0:0:0:0:
261,192,243681,6,2,L|241:152,1,40.4999987640381,0|0,3:0|0:0,1:0:0:0:
270,99,243981,6,0,L|241:240,1,135.000005149842,10|0,0:0|3:0,0:0:0:0:
163,139,244281,6,2,B|231:161|231:161|240:158|240:158|277:191|277:191|288:188|288:188|361:212,1,202.500007724762,0|0,3:0|0:0,1:0:0:0:
376,219,244581,6,0,B|406:183|406:183|379:151,1,67.5000025749208,10|0,0:0|0:0,0:0:0:0:
130,227,244731,2,0,B|100:263|100:263|127:295,1,67.5000025749208,0|0,3:0|0:0,0:0:0:0:
266,369,244881,5,0,3:0:0:0:
269,352,244956,1,0,3:0:0:0:
272,335,245031,1,0,3:0:0:0:
275,319,245106,1,0,3:0:0:0:
256,293,245181,5,0,3:0:0:0:
251,242,245256,1,0,3:0:0:0:
245,192,245331,1,0,3:0:0:0:
239,142,245406,1,0,3:0:0:0:
233,84,245481,5,4,0:0:0:0:
106,326,245631,1,2,3:0:0:0:
163,131,245781,5,10,0:0:0:0:
244,384,245931,1,2,3:0:0:0:
148,215,246081,5,0,3:0:0:0:
390,342,246231,1,2,3:0:0:0:
195,284,246381,5,10,0:0:0:0:
456,203,246531,1,2,3:0:0:0:
253,9,246681,6,2,B|217:40|229:89|229:89|222:95|222:95|281:128|277:200,1,202.500007724762,0|0,3:0|0:0,1:0:0:0:
266,203,246981,2,0,B|237:232|213:239|213:239|176:235|143:211,1,135.000005149842,10|0,0:0|3:0,0:0:0:0:
78,136,247281,1,2,3:0:0:0:
78,136,247431,1,2,3:0:0:0:
363,245,247581,1,10,0:0:0:0:
363,245,247731,1,2,3:0:0:0:
205,378,247881,5,4,0:0:0:0:
78,136,248031,1,2,3:0:0:0:
135,330,248181,5,10,0:0:0:0:
216,78,248331,1,2,3:0:0:0:
120,247,248481,5,0,3:0:0:0:
362,120,248631,1,2,3:0:0:0:
167,177,248781,5,10,0:0:0:0:
428,258,248931,1,2,3:0:0:0:
278,338,249081,6,2,B|249:298|200:306|200:306|194:298|194:298|156:354|85:344,1,202.500007724762,0|0,3:0|0:0,1:0:0:0:
85,337,249381,2,0,P|68:272|136:252,1,135.000005149842,10|0,0:0|3:0,0:0:0:0:
289,214,249681,1,2,3:0:0:0:
289,214,249831,1,2,3:0:0:0:
119,246,249981,1,10,0:0:0:0:
365,355,250131,1,2,3:0:0:0:
247,115,250281,6,0,B|202:88|150:96|150:96|140:88|140:88|108:147|34:129,1,202.500007724762,4|0,0:0|0:0,0:0:0:0:
50,125,250581,2,0,B|10:109|10:62|10:62|55:25|60:-9,1,135.000005149842,10|0,0:0|3:0,0:0:0:0:
289,214,250881,6,0,B|334:241|386:233|386:233|396:241|396:241|428:182|502:200,1,202.500007724762,4|0,3:0|0:0,0:0:0:0:
486,204,251181,2,0,B|526:220|526:267|526:267|481:304|476:338,1,135.000005149842,10|0,0:0|3:0,0:0:0:0:
124,332,251481,5,4,3:0:0:0:
184,54,251631,1,0,3:0:0:0:
26,119,251781,2,0,B|33:139|53:155|53:155|55:161|55:161|101:172|139:145,1,135.000005149842,10|0,0:0|3:0,0:0:0:0:
436,110,252081,5,4,3:0:0:0:
184,54,252231,1,0,3:0:0:0:
308,286,252381,2,0,B|317:305|314:330|314:330|317:336|317:336|299:380|255:385,1,135.000005149842,10|0,0:0|3:0,0:0:0:0:
26,119,252681,6,2,B|75:90|110:107|110:107|113:119|113:119|156:157|171:201|171:201|178:202|178:202|200:230|257:214,1,242.999992584229,4|0,0:0|0:0,1:0:0:0:
226,219,252981,2,0,B|267:222|289:212|289:212|293:208|293:208|328:182|322:132,1,135.000005149842,10|0,0:0|3:0,0:0:0:0:
238,19,253281,5,8,0:0:0:0:
230,21,253356,1,0,3:0:0:0:
222,22,253431,1,0,3:0:0:0:
213,23,253506,1,0,3:0:0:0:
205,24,253581,1,0,3:0:0:0:
197,25,253656,1,0,3:0:0:0:
188,26,253731,1,0,3:0:0:0:
180,27,253806,1,0,3:0:0:0:
172,28,253881,5,8,0:0:0:0:
134,61,253956,1,0,3:0:0:0:
118,108,254031,1,0,3:0:0:0:
130,157,254106,1,0,3:0:0:0:
165,192,254181,1,8,0:0:0:0:
202,225,254256,1,0,3:0:0:0:
212,274,254331,1,0,3:0:0:0:
192,319,254406,1,0,3:0:0:0:
149,344,254481,5,8,0:0:0:0:
120,285,254556,1,0,3:0:0:0:
141,222,254631,1,0,3:0:0:0:
199,192,254706,1,0,3:0:0:0:
262,211,254781,1,8,0:0:0:0:
315,251,254856,1,0,3:0:0:0:
382,253,254931,1,0,3:0:0:0:
437,216,255006,1,0,3:0:0:0:
460,153,255081,5,4,0:0:0:0:
158,28,255231,1,2,3:0:0:0:
259,137,255381,5,10,0:0:0:0:
358,48,255531,1,2,3:0:0:0:
264,43,255681,5,0,3:0:0:0:
353,142,255831,1,2,3:0:0:0:
459,27,255981,5,10,0:0:0:0:
158,153,256131,1,2,3:0:0:0:
393,363,256281,6,2,B|467:351|472:296|472:296|464:291|464:291|431:240|379:246,1,202.500007724762,0|0,3:0|0:0,1:0:0:0:
371,240,256581,2,0,B|349:229|343:210|343:210|337:209|337:209|319:164|362:124,1,135.000005149842,10|0,0:0|3:0,0:0:0:0:
476,23,256881,1,2,3:0:0:0:
258,112,257031,1,2,3:0:0:0:
455,176,257181,1,10,0:0:0:0:
455,176,257331,1,2,3:0:0:0:
215,38,257481,5,4,0:0:0:0:
90,340,257631,1,2,3:0:0:0:
200,238,257781,5,10,0:0:0:0:
111,139,257931,1,2,3:0:0:0:
106,233,258081,5,0,3:0:0:0:
205,144,258231,1,2,3:0:0:0:
3,128,258381,5,10,0:0:0:0:
304,252,258531,1,2,3:0:0:0:
97,371,258681,6,2,B|145:362|168:315|168:315|162:307|162:307|165:259|117:223,1,202.500007724762,0|0,3:0|0:0,1:0:0:0:
96,207,258981,2,0,B|45:224|45:224|23:266|60:297,1,135.000005149842,10|0,0:0|3:0,0:0:0:0:
436,137,259281,2,0,B|487:154|487:154|509:196|472:227,1,135.000005149842,2|2,3:0|3:0,0:0:0:0:
285,348,259581,1,10,0:0:0:0:
285,348,259731,1,2,3:0:0:0:
240,251,259881,6,0,B|250:147|250:147|257:138|257:138|266:48,1,202.500007724762,4|0,0:0|0:0,0:0:0:0:
254,28,260181,2,0,B|212:13|212:13|117:55,1,135.000005149842,10|0,0:0|3:0,0:0:0:0:
11,160,260481,1,0,3:0:0:0:
11,160,260631,1,0,3:0:0:0:
213,96,260781,1,10,0:0:0:0:
16,14,260931,1,0,3:0:0:0:
277,199,261081,6,0,B|308:162|369:167|369:167|400:210|468:190,1,202.500007724762,4|0,3:0|0:0,0:0:0:0:
489,174,261381,2,0,B|497:146|519:130|519:130|518:81|491:54,1,135.000005149842,10|0,0:0|3:0,0:0:0:0:
332,279,261681,2,0,B|352:299|355:326|355:326|398:350|434:340,1,135.000005149842,4|0,3:0|3:0,0:0:0:0:
299,80,261981,2,0,B|270:87|245:76|245:76|203:101|194:138,1,135.000005149842,10|0,0:0|3:0,0:0:0:0:
13,344,262281,6,0,B|68:385|121:340|121:340|140:295|91:260,1,202.500007724762,4|0,0:0|0:0,0:0:0:0:
83,252,262581,2,0,B|60:222|59:196|59:196|77:159|117:153,1,135.000005149842,10|0,0:0|3:0,0:0:0:0:
384,313,262881,6,0,B|385:336|385:336|373:358,1,40.4999987640381,0|0,3:0|0:0,0:0:0:0:
351,373,263181,6,0,B|329:350|293:324|293:324|286:293|302:249,1,135.000005149842,10|0,0:0|3:0,0:0:0:0:
509,178,263481,6,2,B|480:139|421:139|421:139|416:137|416:137|390:186|330:194,1,202.500007724762,0|0,3:0|0:0,1:0:0:0:
315,192,263781,2,0,B|288:151|288:151|296:112,1,67.5000025749208,10|0,0:0|0:0,0:0:0:0:
407,10,263931,2,0,B|434:52|434:52|425:90,1,67.5000025749208,0|0,3:0|0:0,0:0:0:0:
181,231,264081,5,0,3:0:0:0:
164,228,264156,1,0,3:0:0:0:
147,225,264231,1,0,3:0:0:0:
131,222,264306,1,0,3:0:0:0:
114,220,264381,5,0,3:0:0:0:
164,212,264456,1,0,3:0:0:0:
214,205,264531,1,0,3:0:0:0:
264,198,264606,1,0,3:0:0:0:
314,191,264681,5,4,0:0:0:0:
199,132,264831,1,2,3:0:0:0:
352,182,264981,5,10,0:0:0:0:
161,140,265131,1,2,3:0:0:0:
403,155,265281,5,0,3:0:0:0:
110,168,265431,1,2,3:0:0:0:
458,96,265581,5,10,0:0:0:0:
38,228,265731,1,2,3:0:0:0:
241,362,265881,6,2,B|305:350|304:291|304:291|312:290|312:290|259:241|256:165,1,202.500007724762,0|0,3:0|0:0,1:0:0:0:
251,189,266181,2,0,B|237:150|252:120|252:120|250:114|250:114|271:79|305:81,1,135.000005149842,10|0,0:0|3:0,0:0:0:0:
427,227,266481,1,2,3:0:0:0:
427,227,266631,1,2,3:0:0:0:
180,40,266781,1,10,0:0:0:0:
180,40,266931,1,2,3:0:0:0:
197,191,267081,5,4,0:0:0:0:
313,132,267231,1,2,3:0:0:0:
159,182,267381,5,10,0:0:0:0:
350,140,267531,1,2,3:0:0:0:
108,155,267681,5,0,3:0:0:0:
401,168,267831,1,2,3:0:0:0:
45,95,267981,5,10,0:0:0:0:
464,228,268131,1,2,3:0:0:0:
167,357,268281,6,2,B|93:306|148:237|148:237|148:230|148:230|192:236|209:263,1,202.500007724762,0|0,3:0|0:0,1:0:0:0:
221,260,268581,2,0,B|261:266|279:233|279:233|285:231|285:231|299:189|273:152,1,135.000005149842,10|0,0:0|3:0,0:0:0:0:
204,18,268881,1,2,3:0:0:0:
204,18,269031,1,2,3:0:0:0:
284,172,269181,1,10,0:0:0:0:
361,47,269331,1,2,3:0:0:0:
125,189,269481,6,0,B|85:187|38:164|38:164|39:158|39:158|15:103|68:44,1,202.500007724762,4|0,0:0|0:0,0:0:0:0:
73,43,269781,2,0,B|107:30|141:40|141:40|161:62|173:107,1,135.000005149842,10|0,0:0|3:0,0:0:0:0:
419,265,270081,6,0,B|459:263|506:240|506:240|505:234|505:234|529:179|476:120,1,202.500007724762,4|0,3:0|0:0,0:0:0:0:
471,119,270381,2,0,B|437:106|403:116|403:116|383:138|371:183,1,135.000005149842,10|0,0:0|3:0,0:0:0:0:
290,367,270681,5,4,3:0:0:0:
205,46,270831,1,0,3:0:0:0:
121,133,270981,2,0,B|168:154|202:157|202:157|247:131,1,135.000005149842,10|0,0:0|3:0,0:0:0:0:
450,6,271281,5,4,3:0:0:0:
205,46,271431,1,0,3:0:0:0:
371,174,271581,2,0,B|392:221|395:255|395:255|369:300,1,135.000005149842,10|0,0:0|3:0,0:0:0:0:
253,370,271881,6,0,B|210:340|190:283|190:283|211:237|251:185,1,202.500007724762,4|0,0:0|0:0,0:0:0:0:
254,183,272181,2,0,B|284:157|301:131|301:131|297:92|276:50,1,135.000005149842,10|0,0:0|3:0,0:0:0:0:
35,30,272481,5,8,1:0:0:0:
35,38,272556,1,0,3:0:0:0:
36,46,272631,1,0,3:0:0:0:
36,55,272706,1,0,3:0:0:0:
37,63,272781,1,0,3:0:0:0:
38,72,272856,1,0,3:0:0:0:
38,80,272931,1,0,3:0:0:0:
39,88,273006,1,0,3:0:0:0:
40,97,273081,5,8,1:0:0:0:
71,85,273156,1,0,3:0:0:0:
104,87,273231,1,0,3:0:0:0:
133,103,273306,1,0,3:0:0:0:
151,130,273381,1,8,1:0:0:0:
172,172,273456,1,0,3:0:0:0:
220,195,273531,1,0,3:0:0:0:
277,175,273606,1,0,3:0:0:0:
297,120,273681,5,8,1:0:0:0:
234,145,273756,1,0,3:0:0:0:
172,172,273831,1,0,3:0:0:0:
108,194,273906,1,0,3:0:0:0:
45,221,273981,6,0,L|66:261,1,40.4999987640381,8|0,1:0|0:0,0:0:0:0:
34,326,274281,6,0,B|77:336|77:336|118:307,1,67.5000025749208,4|0,0:0|2:0,0:0:0:0:
167,364,274431,2,0,B|207:346|207:346|225:300,1,67.5000025749208,2|0,3:0|2:0,0:0:0:0:
292,231,274581,6,0,B|335:220|335:220|376:249,1,67.5000025749208,10|0,0:0|2:0,0:0:0:0:
425,193,274731,2,0,B|465:210|465:210|483:256,1,67.5000025749208,2|0,3:0|2:0,0:0:0:0:
418,351,274881,5,0,3:0:0:0:
154,243,275031,1,2,3:0:0:0:
281,365,275181,5,10,0:0:0:0:
403,82,275331,1,2,3:0:0:0:
138,14,275481,6,0,L|151:231,1,202.500007724762,4|0,3:0|0:0,0:0:0:0:
154,243,275781,2,0,B|191:262|191:262|296:215,1,135.000005149842,8|0,0:0|3:0,0:0:0:0:
301,45,276081,1,2,3:0:0:0:
41,112,276231,1,2,3:0:0:0:
108,371,276381,1,8,0:0:0:0:
367,301,276531,1,2,3:0:0:0:
249,149,276681,6,0,B|211:141|211:141|166:166,1,67.5000025749208,8|0,0:0|2:0,0:0:0:0:
107,174,276831,2,0,B|119:210|119:210|163:237,1,67.5000025749208,8|0,0:0|2:0,0:0:0:0:
200,285,276981,2,0,B|225:256|225:256|226:204,1,67.5000025749208,0|0,3:0|2:0,0:0:0:0:
179,59,277131,6,0,B|146:80|146:80|132:129,1,67.5000025749208,8|0,0:0|2:0,0:0:0:0:
65,286,277281,2,0,B|99:303|99:303|149:291,1,67.5000025749208,8|0,0:0|2:0,0:0:0:0:
320,266,277431,2,0,B|317:227|317:227|282:190,1,67.5000025749208,0|0,3:0|2:0,0:0:0:0:
188,203,277581,5,8,0:0:0:0:
182,195,277656,1,0,3:0:0:0:
191,198,277731,1,0,3:0:0:0:
182,201,277806,1,0,3:0:0:0:
188,192,277881,5,12,0:0:0:0:
219,152,277956,1,0,3:0:0:0:
264,131,278031,1,0,3:0:0:0:
315,133,278106,1,0,3:0:0:0:
359,157,278181,1,8,0:0:0:0:
419,183,278256,1,0,3:0:0:0:
478,155,278331,1,0,3:0:0:0:
497,93,278406,1,0,3:0:0:0:
466,33,278481,5,8,0:0:0:0:
417,28,278556,1,0,3:0:0:0:
372,59,278631,1,0,3:0:0:0:
344,113,278706,1,0,3:0:0:0:
328,178,278781,1,8,0:0:0:0:
305,248,278856,1,0,3:0:0:0:
248,305,278931,1,0,3:0:0:0:
161,321,279006,1,0,3:0:0:0:
81,284,279081,6,2,B|173:169|306:285|248:302|320:401|486:307,1,409.499981254578,8|0,0:0|0:0,1:0:0:0:
468,306,279681,2,0,P|485:247|448:190,1,116.999994644165,0|8,3:0|0:0,0:0:0:0:
428,174,279906,1,0,3:0:0:0:
392,153,279981,2,0,P|365:94|412:37,1,116.999994644165,0|0,3:0|3:0,0:0:0:0:
482,104,280281,6,0,B|488:164|432:176|368:188|363:261,1,175.499991966248,4|0,3:0|0:0,0:0:0:0:
331,293,280581,1,8,0:0:0:0:
319,319,280656,1,0,3:0:0:0:
324,347,280731,1,0,3:0:0:0:
345,367,280806,1,0,3:0:0:0:
373,372,280881,5,8,0:0:0:0:
358,332,280956,1,0,3:0:0:0:
324,305,281031,1,0,3:0:0:0:
281,301,281106,1,0,3:0:0:0:
242,321,281181,1,0,3:0:0:0:
185,330,281256,1,0,3:0:0:0:
136,301,281331,1,0,3:0:0:0:
114,248,281406,1,0,3:0:0:0:
131,193,281481,5,4,3:0:0:0:
256,192,281556,12,10,283581,0:0:0:0:
354,83,283881,5,4,3:0:0:0:
311,239,284031,1,0,3:0:0:0:
472,222,284181,2,0,B|500:271|500:271|467:356,1,135.000005149842,10|0,0:0|3:0,0:0:0:0:
234,382,284481,5,0,3:0:0:0:
311,239,284631,1,0,3:0:0:0:
151,209,284781,2,0,B|123:160|123:160|156:75,1,135.000005149842,10|0,0:0|3:0,0:0:0:0:
270,59,285081,5,0,3:0:0:0:
270,59,285231,1,0,3:0:0:0:
374,95,285381,2,0,B|443:109|443:109|512:82,1,135.000005149842,10|0,0:0|3:0,0:0:0:0:
165,20,285681,2,0,B|96:6|96:6|27:33,1,135.000005149842,0|0,3:0|3:0,0:0:0:0:
374,95,285981,2,0,B|443:109|443:109|512:82,1,135.000005149842,10|0,0:0|3:0,0:0:0:0:
186,100,286281,5,4,3:0:0:0:
174,261,286431,1,0,3:0:0:0:
23,202,286581,2,0,B|163:174,1,135.000005149842,10|0,0:0|3:0,0:0:0:0:
349,187,286881,5,0,3:0:0:0:
361,348,287031,1,0,3:0:0:0:
512,289,287181,2,0,B|372:261,1,135.000005149842,10|0,0:0|3:0,0:0:0:0:
256,192,287481,5,0,3:0:0:0:
256,192,287631,1,0,3:0:0:0:
151,270,287781,2,0,B|89:275|89:275|20:212,1,135.000005149842,10|0,0:0|3:0,0:0:0:0:
361,114,288081,2,0,B|423:109|423:109|492:172,1,135.000005149842,0|0,3:0|3:0,0:0:0:0:
151,270,288381,2,0,B|89:275|89:275|20:212,1,135.000005149842,10|0,0:0|3:0,0:0:0:0:
244,57,288681,6,0,L|259:237,1,135.000005149842,4|0,3:0|3:0,0:0:0:0:
398,335,288981,1,10,0:0:0:0:
305,323,289131,1,0,3:0:0:0:
74,196,289281,5,8,0:0:0:0:
167,184,289431,1,0,3:0:0:0:
423,79,289581,5,8,0:0:0:0:
330,67,289731,1,0,3:0:0:0:
146,50,289881,6,0,B|181:31|181:31|216:42,1,67.5000025749208,4|0,3:0|0:0,0:0:0:0:
264,136,290031,1,8,0:0:0:0:
264,136,290106,1,8,0:0:0:0:
264,136,290181,2,0,L|235:287,1,135.000005149842,8|8,0:0|0:0,0:0:0:0:
88,359,290481,2,0,P|18:327|41:270,1,135.000005149842,4|8,3:0|0:0,0:0:0:0:
380,174,290781,2,0,P|450:206|427:263,1,135.000005149842,0|0,3:0|3:0,0:0:0:0:
175,128,291081,6,0,B|180:58|180:58|242:30,1,135.000005149842,4|0,3:0|3:0,0:0:0:0:
351,268,291381,2,0,B|346:338|346:338|284:366,1,135.000005149842,10|0,0:0|3:0,0:0:0:0:
119,218,291681,1,0,3:0:0:0:
165,344,291831,1,0,3:0:0:0:
380,174,291981,1,10,0:0:0:0:
334,48,292131,1,0,3:0:0:0:
244,149,292281,5,0,3:0:0:0:
244,149,292431,1,0,3:0:0:0:
119,218,292581,2,0,B|60:222|60:222|1:161,1,135.000005149842,10|0,0:0|3:0,0:0:0:0:
244,149,292881,2,0,B|276:198|276:198|253:279,1,135.000005149842,0|0,3:0|3:0,0:0:0:0:
120,86,293181,2,0,B|146:32|146:32|228:12,1,135.000005149842,10|0,0:0|3:0,0:0:0:0:
451,101,293481,6,0,B|492:158|492:158|477:223,1,135.000005149842,4|0,3:0|3:0,0:0:0:0:
177,366,293781,2,0,B|136:309|136:309|151:244,1,135.000005149842,10|0,0:0|3:0,0:0:0:0:
326,22,294081,1,0,3:0:0:0:
356,153,294231,1,0,3:0:0:0:
150,245,294381,1,10,0:0:0:0:
120,114,294531,1,0,3:0:0:0:
252,157,294681,5,0,3:0:0:0:
252,157,294831,1,0,3:0:0:0:
364,156,294981,2,0,B|434:179|434:179|460:252,1,135.000005149842,10|0,0:0|3:0,0:0:0:0:
252,157,295281,2,0,B|236:84|236:84|287:25,1,135.000005149842,0|0,3:0|3:0,0:0:0:0:
311,252,295581,2,0,B|256:301|256:301|179:287,1,135.000005149842,10|0,0:0|3:0,0:0:0:0:
81,74,295881,6,0,B|21:100|21:100|16:170,1,135.000005149842,4|0,3:0|3:0,0:0:0:0:
247,348,296181,2,0,B|306:321|306:321|311:251,1,135.000005149842,10|0,0:0|3:0,0:0:0:0:
196,107,296481,1,0,3:0:0:0:
150,234,296631,1,0,3:0:0:0:
414,143,296781,1,10,0:0:0:0:
368,16,296931,1,0,3:0:0:0:
303,132,297081,5,0,3:0:0:0:
303,132,297231,1,0,3:0:0:0:
213,282,297381,2,0,B|148:317|148:317|74:281,1,135.000005149842,10|0,0:0|3:0,0:0:0:0:
303,132,297681,2,0,B|366:170|366:170|371:252,1,135.000005149842,0|0,3:0|3:0,0:0:0:0:
125,122,297981,2,0,B|126:48|126:48|194:2,1,135.000005149842,10|0,0:0|3:0,0:0:0:0:
332,15,298281,5,4,3:0:0:0:
255,191,298431,1,8,0:0:0:0:
179,368,298581,1,8,0:0:0:0:
178,15,298731,5,0,3:0:0:0:
255,191,298881,1,8,0:0:0:0:
331,368,299031,1,8,0:0:0:0:
0,193,299181,5,8,0:0:0:0:
12,241,299256,1,8,0:0:0:0:
47,277,299331,1,8,0:0:0:0:
96,290,299406,1,8,0:0:0:0:
144,278,299481,2,0,P|170:253|206:244,1,67.5000025749208,12|0,0:0|0:0,0:0:0:0:
512,193,299631,5,8,0:0:0:0:
499,242,299706,1,8,0:0:0:0:
464,278,299781,1,8,0:0:0:0:
415,291,299856,1,8,0:0:0:0:
367,279,299931,2,0,P|342:253|306:244,1,67.5000025749208,8|0,0:0|0:0,0:0:0:0:
112,129,300081,6,0,B|111:84|111:84|133:54|188:63,1,107.999996704102,8|0,0:0|2:0,0:0:0:0:
382,119,300231,2,0,B|420:140|420:140|435:175|400:218,1,107.999996704102,8|0,0:0|2:0,0:0:0:0:
271,356,300381,2,0,B|233:378|233:378|195:374|175:322,1,107.999996704102,8|0,0:0|2:0,0:0:0:0:
256,192,300531,5,12,0:0:0:0:
