osu file format v14

[General]
AudioFilename: audio.mp3
AudioLeadIn: 0
PreviewTime: 346
Countdown: 0
SampleSet: Normal
StackLeniency: 0.7
Mode: 1
LetterboxInBreaks: 0
WidescreenStoryboard: 1

[Editor]
DistanceSpacing: 1
BeatDivisor: 8
GridSize: 32
TimelineZoom: 1.1

[Metadata]
Title:Time
TitleUnicode:Time
Artist:Ecco2k
ArtistUnicode:Ecco2k
Creator:Horiiizon
Version:Oni
Source:
Tags:e ecco 2k drain gang draingang cloud rap trap experimental hip hop alternative english
BeatmapID:3503258
BeatmapSetID:1714502

[Difficulty]
HPDrainRate:5.5
CircleSize:5
OverallDifficulty:5.5
ApproachRate:5
SliderMultiplier:2.8
SliderTickRate:1

[Events]
//Background and Video events
0,0,"e.png",0,-8
//Break Periods
//Storyboard Layer 0 (Background)
//Storyboard Layer 1 (Fail)
//Storyboard Layer 2 (Pass)
//Storyboard Layer 3 (Foreground)
//Storyboard Layer 4 (Overlay)
//Storyboard Sound Samples

[TimingPoints]
12708,740.740740740741,4,1,0,80,1,0
60022,-181.818181818182,4,1,0,60,0,0
60671,-178.029709597938,4,1,0,60,0,0
60856,-176.801831666976,4,1,0,60,0,0
61412,-173.217762442232,4,1,0,60,0,0
61597,-172.055147115754,4,1,0,60,0,0
61782,-170.907742291634,4,1,0,60,0,0
61967,-169.775827996713,4,1,0,60,0,0
62152,-168.658808290592,4,1,0,60,0,0
62338,-167.556391103426,4,1,0,60,0,0
62893,-164.333676242938,4,1,0,60,0,0
63078,-163.286899981875,4,1,0,60,0,0
63633,-160.225084198282,4,1,0,60,0,0
63819,-159.2298371238,4,1,0,60,0,0
64374,-156.316678833315,4,1,0,60,0,0
64560,-155.369250560883,4,1,0,60,0,0
64930,-153.508435288519,4,1,0,60,0,0
65115,-152.594410161567,4,1,0,60,0,0
65300,-151.691435349869,4,1,0,60,0,0
65856,-149.045512537709,4,1,0,60,0,0
66041,-148.183931823537,4,1,0,60,0,0
66597,-145.657724738945,4,1,0,60,0,0
66782,-144.83475802457,4,1,0,60,0,0
67338,-142.420522227571,4,1,0,60,0,0
67523,-141.633630622324,4,1,0,60,0,0
67893,-140.085648365411,4,1,0,60,0,0
68078,-139.324277255312,4,1,0,60,0,0
68264,-138.57113757204,4,1,0,60,0,0
68819,-136.359607557049,4,1,0,60,0,0
69004,-135.638095858155,4,1,0,60,0,0
69559,-133.518478957488,4,1,0,60,0,0
69745,-132.826643962166,4,1,0,60,0,0
70300,-130.793497993628,4,1,0,60,0,0
70485,-130.129374624251,4,1,0,60,0,0
70671,-129.472129182112,4,1,0,60,0,0
70856,-128.82148948559,4,1,0,60,0,0
71041,-128.177356444565,4,1,0,60,0,0
71226,-127.539632940936,4,1,0,60,0,0
71596,-126.282876168274,4,1,0,60,0,0
71689,-125.972666450834,4,1,0,60,0,0
71782,-125.663819124525,4,1,0,60,0,0
71920,-100,4,1,0,80,0,0

[HitObjects]
214,320,12522,5,8,0:0:0:0:
206,253,12708,1,0,0:0:0:0:
215,326,13263,1,0,0:0:0:0:
221,314,13448,1,8,0:0:0:0:
194,241,13819,1,0,0:0:0:0:
194,241,14004,1,0,0:0:0:0:
183,242,14189,1,8,0:0:0:0:
191,178,14559,1,8,0:0:0:0:
177,302,14745,1,0,0:0:0:0:
224,254,14837,1,0,0:0:0:0:
177,302,14930,1,8,0:0:0:0:
204,248,15300,1,8,0:0:0:0:
205,244,15485,1,8,0:0:0:0:
190,236,15578,1,0,0:0:0:0:
204,248,15670,1,0,0:0:0:0:
196,244,16226,1,0,0:0:0:0:
196,245,16411,1,8,0:0:0:0:
196,244,16782,1,0,0:0:0:0:
211,255,16874,1,0,0:0:0:0:
191,225,16967,1,8,0:0:0:0:
209,229,17152,1,0,0:0:0:0:
209,249,17337,1,8,0:0:0:0:
209,250,17522,1,8,0:0:0:0:
209,250,17708,1,0,0:0:0:0:
215,267,17893,1,8,0:0:0:0:
203,238,18263,1,8,0:0:0:0:
203,239,18448,1,8,0:0:0:0:
193,250,18541,1,8,0:0:0:0:
192,255,18633,1,0,0:0:0:0:
236,281,19189,1,0,0:0:0:0:
220,242,19374,1,8,0:0:0:0:
216,258,19745,1,0,0:0:0:0:
216,258,19930,1,8,0:0:0:0:
213,232,20115,1,8,0:0:0:0:
217,276,20485,1,8,0:0:0:0:
227,169,20670,1,0,0:0:0:0:
215,201,20763,1,0,0:0:0:0:
198,227,20856,1,8,0:0:0:0:
195,242,21226,1,0,0:0:0:0:
195,242,21411,1,0,0:0:0:0:
233,229,21504,1,0,0:0:0:0:
195,242,21596,1,0,0:0:0:0:
208,266,22152,1,0,0:0:0:0:
208,266,22337,1,8,0:0:0:0:
212,267,22708,1,0,0:0:0:0:
206,232,22893,1,0,0:0:0:0:
206,232,23078,1,8,0:0:0:0:
206,248,23263,1,0,0:0:0:0:
190,221,23448,1,8,0:0:0:0:
226,235,23633,1,0,0:0:0:0:
226,235,23726,1,0,0:0:0:0:
227,235,23819,1,8,0:0:0:0:
209,226,24189,1,8,0:0:0:0:
209,226,24374,1,8,0:0:0:0:
211,195,24467,1,0,0:0:0:0:
209,226,24559,1,0,0:0:0:0:
222,198,25115,1,0,0:0:0:0:
222,198,25300,1,8,0:0:0:0:
210,165,25670,1,0,0:0:0:0:
209,189,25856,1,0,0:0:0:0:
183,209,26041,1,8,0:0:0:0:
183,209,26226,1,0,0:0:0:0:
210,230,26411,1,8,0:0:0:0:
183,209,26596,1,0,0:0:0:0:
188,213,26782,1,8,0:0:0:0:
217,232,27152,1,8,0:0:0:0:
218,222,27337,1,8,0:0:0:0:
221,203,27430,1,0,0:0:0:0:
211,209,27522,1,0,0:0:0:0:
202,209,28078,1,0,0:0:0:0:
171,207,28263,1,0,0:0:0:0:
198,142,28633,1,0,0:0:0:0:
210,207,28819,1,0,0:0:0:0:
210,207,29004,1,8,0:0:0:0:
187,187,29189,1,0,0:0:0:0:
190,207,29374,1,8,0:0:0:0:
190,208,29559,1,8,0:0:0:0:
190,208,29745,1,0,0:0:0:0:
206,233,30115,1,8,0:0:0:0:
197,223,30300,1,8,0:0:0:0:
207,226,30393,1,8,0:0:0:0:
197,223,30485,1,0,0:0:0:0:
206,195,31041,1,0,0:0:0:0:
219,216,31226,1,8,0:0:0:0:
214,167,31596,1,0,0:0:0:0:
199,243,31782,1,8,0:0:0:0:
195,182,31967,1,0,0:0:0:0:
199,243,32152,1,0,0:0:0:0:
199,243,32337,1,8,0:0:0:0:
223,225,32522,1,8,0:0:0:0:
223,225,32708,1,0,0:0:0:0:
200,196,33078,1,0,0:0:0:0:
198,216,33263,1,0,0:0:0:0:
206,201,33356,1,0,0:0:0:0:
199,217,33448,1,0,0:0:0:0:
206,214,34004,1,0,0:0:0:0:
208,215,34189,1,8,0:0:0:0:
209,231,34559,1,0,0:0:0:0:
199,211,34745,1,0,0:0:0:0:
203,183,34930,1,8,0:0:0:0:
209,208,35115,1,8,0:0:0:0:
208,216,35300,1,0,0:0:0:0:
206,199,35485,1,8,0:0:0:0:
196,225,35578,1,0,0:0:0:0:
206,205,35670,1,0,0:0:0:0:
209,208,36041,1,8,0:0:0:0:
174,219,36226,1,0,0:0:0:0:
173,232,36411,1,8,0:0:0:0:
173,232,36504,1,8,0:0:0:0:
229,185,36596,1,8,0:0:0:0:
178,254,36782,1,0,0:0:0:0:
229,189,36967,1,0,0:0:0:0:
200,195,37152,1,8,0:0:0:0:
205,188,37522,1,0,0:0:0:0:
201,228,37708,1,0,0:0:0:0:
187,190,37800,1,0,0:0:0:0:
202,227,37893,1,8,0:0:0:0:
205,207,38078,1,0,0:0:0:0:
197,202,38263,1,8,0:0:0:0:
198,204,38448,1,8,0:0:0:0:
198,204,38633,1,0,0:0:0:0:
201,222,39004,1,8,0:0:0:0:
201,225,39189,1,8,0:0:0:0:
179,171,39374,1,0,0:0:0:0:
183,259,39559,1,8,0:0:0:0:
183,259,39652,1,8,0:0:0:0:
183,259,39745,1,0,0:0:0:0:
210,239,39930,1,0,0:0:0:0:
171,230,40115,1,8,0:0:0:0:
171,224,40485,1,0,0:0:0:0:
182,193,40670,1,8,0:0:0:0:
188,211,40856,1,0,0:0:0:0:
188,211,40948,1,0,0:0:0:0:
188,212,41041,1,0,0:0:0:0:
171,196,41226,1,8,0:0:0:0:
171,196,41411,1,8,0:0:0:0:
175,196,41596,1,0,0:0:0:0:
203,177,41967,1,8,0:0:0:0:
258,179,42152,1,0,0:0:0:0:
215,197,42337,1,8,0:0:0:0:
173,232,42430,1,8,0:0:0:0:
229,185,42522,1,8,0:0:0:0:
178,254,42708,1,0,0:0:0:0:
196,179,42893,1,8,0:0:0:0:
196,179,43078,1,0,0:0:0:0:
205,188,43448,1,0,0:0:0:0:
201,228,43634,1,0,0:0:0:0:
187,190,43726,1,0,0:0:0:0:
202,227,43819,1,8,0:0:0:0:
205,207,44004,1,0,0:0:0:0:
228,266,44189,1,8,0:0:0:0:
228,266,44374,1,0,0:0:0:0:
228,266,44559,1,8,0:0:0:0:
183,259,44930,1,0,0:0:0:0:
183,259,45115,1,8,0:0:0:0:
179,171,45300,1,0,0:0:0:0:
183,259,45485,1,8,0:0:0:0:
183,259,45578,1,8,0:0:0:0:
183,259,45671,1,0,0:0:0:0:
184,142,45856,1,8,0:0:0:0:
173,205,46041,1,0,0:0:0:0:
171,224,46411,1,0,0:0:0:0:
165,195,46596,1,0,0:0:0:0:
167,201,46782,1,8,0:0:0:0:
168,201,46874,1,8,0:0:0:0:
177,164,46967,1,8,0:0:0:0:
172,201,47152,1,0,0:0:0:0:
173,192,47337,1,0,0:0:0:0:
184,207,47522,1,8,0:0:0:0:
184,207,47708,1,0,0:0:0:0:
183,209,47800,1,0,0:0:0:0:
176,187,47893,1,8,0:0:0:0:
214,320,48078,5,8,0:0:0:0:
206,253,48264,1,0,0:0:0:0:
196,220,48448,1,8,0:0:0:0:
198,237,48541,1,8,0:0:0:0:
181,240,48633,1,0,0:0:0:0:
170,238,48819,1,0,0:0:0:0:
221,314,49004,1,8,0:0:0:0:
194,241,49375,1,0,0:0:0:0:
194,241,49560,1,0,0:0:0:0:
183,242,49745,1,8,0:0:0:0:
191,178,50115,1,8,0:0:0:0:
177,302,50301,1,0,0:0:0:0:
224,254,50393,1,0,0:0:0:0:
177,302,50486,1,8,0:0:0:0:
204,248,50856,1,8,0:0:0:0:
163,187,51041,1,0,0:0:0:0:
190,236,51134,1,0,0:0:0:0:
204,248,51226,1,0,0:0:0:0:
184,241,51411,1,8,0:0:0:0:
190,262,51504,1,8,0:0:0:0:
177,259,51596,1,0,0:0:0:0:
196,244,51782,1,0,0:0:0:0:
196,245,51967,1,8,0:0:0:0:
196,244,52338,1,0,0:0:0:0:
211,255,52430,1,0,0:0:0:0:
191,225,52523,1,8,0:0:0:0:
209,229,52708,1,0,0:0:0:0:
209,249,52893,1,8,0:0:0:0:
209,250,53078,1,8,0:0:0:0:
209,250,53264,1,0,0:0:0:0:
215,267,53449,1,8,0:0:0:0:
203,238,53819,1,8,0:0:0:0:
203,239,54004,1,8,0:0:0:0:
193,250,54097,1,8,0:0:0:0:
192,255,54189,1,0,0:0:0:0:
220,223,54374,1,8,0:0:0:0:
190,236,54467,1,8,0:0:0:0:
190,239,54559,1,0,0:0:0:0:
236,281,54745,1,0,0:0:0:0:
220,242,54930,1,8,0:0:0:0:
216,258,55301,1,0,0:0:0:0:
216,258,55486,1,8,0:0:0:0:
213,232,55671,1,8,0:0:0:0:
217,276,56041,1,8,0:0:0:0:
227,169,56226,1,0,0:0:0:0:
215,201,56319,1,0,0:0:0:0:
198,227,56412,1,8,0:0:0:0:
195,242,56782,1,0,0:0:0:0:
195,242,56967,1,0,0:0:0:0:
233,229,57060,1,0,0:0:0:0:
195,242,57152,1,0,0:0:0:0:
185,195,57337,1,8,0:0:0:0:
191,212,57430,1,8,0:0:0:0:
176,187,57522,1,8,0:0:0:0:
208,266,57708,1,0,0:0:0:0:
208,266,57893,1,8,0:0:0:0:
212,267,58264,1,0,0:0:0:0:
206,232,58449,1,0,0:0:0:0:
206,232,58634,1,8,0:0:0:0:
206,248,58819,1,0,0:0:0:0:
190,221,59004,1,8,0:0:0:0:
226,235,59189,1,0,0:0:0:0:
226,235,59282,1,0,0:0:0:0:
227,235,59375,1,8,0:0:0:0:
242,203,60115,5,0,0:0:0:0:
222,198,60671,1,0,0:0:0:0:
222,198,60856,1,8,0:0:0:0:
209,189,61412,1,0,0:0:0:0:
183,209,61597,1,8,0:0:0:0:
209,235,61782,1,8,0:0:0:0:
209,235,61967,1,0,0:0:0:0:
183,209,62152,1,0,0:0:0:0:
188,213,62338,1,8,0:0:0:0:
218,222,62893,1,8,0:0:0:0:
189,238,63078,1,8,0:0:0:0:
199,214,63633,1,8,0:0:0:0:
171,207,63819,1,0,0:0:0:0:
186,210,64374,1,8,0:0:0:0:
210,207,64560,1,8,0:0:0:0:
186,210,64930,1,0,0:0:0:0:
186,210,65115,1,0,0:0:0:0:
179,191,65300,1,8,0:0:0:0:
197,223,65856,1,8,0:0:0:0:
197,223,66041,1,0,0:0:0:0:
206,195,66597,1,0,0:0:0:0:
219,216,66782,1,8,0:0:0:0:
199,243,67338,1,8,0:0:0:0:
195,182,67523,1,0,0:0:0:0:
199,243,67893,1,8,0:0:0:0:
223,225,68078,1,8,0:0:0:0:
223,225,68264,1,0,0:0:0:0:
198,216,68819,1,0,0:0:0:0:
197,244,69004,1,8,0:0:0:0:
156,218,69559,1,8,0:0:0:0:
183,222,69745,1,0,0:0:0:0:
174,197,70300,1,8,0:0:0:0:
183,222,70485,1,0,0:0:0:0:
209,208,70671,1,8,0:0:0:0:
208,216,70856,1,0,0:0:0:0:
187,199,71041,1,0,0:0:0:0:
187,199,71226,1,8,0:0:0:0:
196,228,71596,1,8,0:0:0:0:
197,229,71689,1,8,0:0:0:0:
191,253,71782,1,8,0:0:0:0:
182,191,71967,1,0,0:0:0:0:
191,241,72522,1,0,0:0:0:0:
194,234,72708,1,8,0:0:0:0:
205,188,73078,1,0,0:0:0:0:
201,228,73264,1,0,0:0:0:0:
187,190,73356,1,0,0:0:0:0:
202,227,73449,1,8,0:0:0:0:
205,207,73634,1,0,0:0:0:0:
197,202,73819,1,8,0:0:0:0:
198,204,74004,1,8,0:0:0:0:
198,204,74189,1,0,0:0:0:0:
201,222,74560,1,8,0:0:0:0:
201,225,74745,1,8,0:0:0:0:
179,171,74930,1,0,0:0:0:0:
183,259,75115,1,8,0:0:0:0:
183,259,75208,1,8,0:0:0:0:
183,259,75301,1,0,0:0:0:0:
210,239,75486,1,0,0:0:0:0:
208,218,75670,1,0,0:0:0:0:
171,224,76041,1,0,0:0:0:0:
191,193,76226,1,0,0:0:0:0:
210,239,76411,1,8,0:0:0:0:
199,168,76504,1,8,0:0:0:0:
188,212,76597,1,0,0:0:0:0:
171,196,76782,1,8,0:0:0:0:
171,196,76967,1,8,0:0:0:0:
175,196,77152,1,0,0:0:0:0:
203,177,77523,1,8,0:0:0:0:
258,179,77708,1,0,0:0:0:0:
209,248,77893,1,0,0:0:0:0:
134,175,77985,1,0,0:0:0:0:
229,185,78078,1,8,0:0:0:0:
178,254,78264,1,0,0:0:0:0:
196,179,78449,1,8,0:0:0:0:
196,179,78634,1,0,0:0:0:0:
205,188,79004,1,0,0:0:0:0:
201,228,79190,1,0,0:0:0:0:
187,190,79282,1,0,0:0:0:0:
202,227,79375,1,8,0:0:0:0:
205,207,79560,1,0,0:0:0:0:
228,266,79745,1,8,0:0:0:0:
228,266,79930,1,0,0:0:0:0:
228,266,80115,1,8,0:0:0:0:
169,182,80485,1,0,0:0:0:0:
169,182,80670,1,8,0:0:0:0:
179,171,80856,1,0,0:0:0:0:
183,259,81041,1,8,0:0:0:0:
183,259,81134,1,8,0:0:0:0:
136,182,81226,1,8,0:0:0:0:
169,182,81411,1,0,0:0:0:0:
173,205,81597,1,0,0:0:0:0:
171,224,81967,1,0,0:0:0:0:
165,195,82152,1,0,0:0:0:0:
167,201,82338,1,8,0:0:0:0:
168,201,82430,1,8,0:0:0:0:
177,164,82523,1,8,0:0:0:0:
172,201,82708,1,0,0:0:0:0:
173,192,82893,1,0,0:0:0:0:
184,207,83078,1,8,0:0:0:0:
184,207,83264,1,0,0:0:0:0:
183,209,83356,1,0,0:0:0:0:
176,187,83449,1,8,0:0:0:0:
214,320,83633,5,8,0:0:0:0:
206,253,83819,1,0,0:0:0:0:
215,326,84374,1,0,0:0:0:0:
221,314,84559,1,8,0:0:0:0:
194,241,84930,1,0,0:0:0:0:
194,241,85115,1,0,0:0:0:0:
183,242,85300,1,8,0:0:0:0:
191,178,85670,1,8,0:0:0:0:
177,302,85856,1,0,0:0:0:0:
224,254,85948,1,0,0:0:0:0:
177,302,86041,1,8,0:0:0:0:
204,248,86411,1,8,0:0:0:0:
205,244,86596,1,8,0:0:0:0:
190,236,86689,1,0,0:0:0:0:
204,248,86781,1,0,0:0:0:0:
196,244,87337,1,0,0:0:0:0:
196,245,87522,1,8,0:0:0:0:
196,244,87893,1,0,0:0:0:0:
211,255,87985,1,0,0:0:0:0:
191,225,88078,1,8,0:0:0:0:
209,229,88263,1,0,0:0:0:0:
209,249,88448,1,8,0:0:0:0:
209,250,88633,1,8,0:0:0:0:
209,250,88819,1,0,0:0:0:0:
215,267,89004,1,8,0:0:0:0:
203,238,89374,1,8,0:0:0:0:
212,199,89559,1,0,0:0:0:0:
225,196,89652,1,0,0:0:0:0:
188,195,89745,1,8,0:0:0:0:
214,223,89930,1,8,0:0:0:0:
176,275,90115,1,8,0:0:0:0:
236,281,90300,1,0,0:0:0:0:
220,242,90485,1,8,0:0:0:0:
216,258,90856,1,0,0:0:0:0:
216,258,91041,1,8,0:0:0:0:
213,232,91226,1,8,0:0:0:0:
217,276,91596,1,8,0:0:0:0:
227,169,91781,1,0,0:0:0:0:
215,201,91874,1,0,0:0:0:0:
198,227,91967,1,8,0:0:0:0:
195,242,92337,1,0,0:0:0:0:
195,242,92522,1,0,0:0:0:0:
233,229,92615,1,0,0:0:0:0:
195,242,92707,1,0,0:0:0:0:
208,266,93263,1,0,0:0:0:0:
208,266,93448,1,8,0:0:0:0:
212,267,93819,1,0,0:0:0:0:
206,232,94004,1,0,0:0:0:0:
206,232,94189,1,8,0:0:0:0:
206,248,94374,1,0,0:0:0:0:
190,221,94559,1,8,0:0:0:0:
226,235,94744,1,0,0:0:0:0:
226,235,94837,1,0,0:0:0:0:
227,235,94930,1,8,0:0:0:0:
209,226,95300,1,8,0:0:0:0:
119,179,95485,1,0,0:0:0:0:
174,213,95670,1,8,0:0:0:0:
173,232,95763,1,8,0:0:0:0:
229,185,95855,1,8,0:0:0:0:
229,189,96226,1,0,0:0:0:0:
200,195,96411,1,8,0:0:0:0:
205,188,96781,1,0,0:0:0:0:
201,228,96967,1,0,0:0:0:0:
187,190,97059,1,0,0:0:0:0:
202,227,97152,1,8,0:0:0:0:
197,202,97522,1,8,0:0:0:0:
201,202,97708,1,0,0:0:0:0:
201,202,97893,1,8,0:0:0:0:
201,222,98263,1,8,0:0:0:0:
201,225,98448,1,8,0:0:0:0:
179,171,98633,1,0,0:0:0:0:
183,259,98818,1,8,0:0:0:0:
183,259,98911,1,8,0:0:0:0:
183,259,99004,1,0,0:0:0:0:
210,239,99189,1,0,0:0:0:0:
171,230,99374,1,8,0:0:0:0:
171,224,99744,1,0,0:0:0:0:
182,193,99929,1,8,0:0:0:0:
188,211,100115,1,0,0:0:0:0:
188,211,100207,1,0,0:0:0:0:
188,212,100300,1,0,0:0:0:0:
171,196,100485,1,8,0:0:0:0:
171,196,100670,1,8,0:0:0:0:
175,196,100855,1,0,0:0:0:0:
203,177,101226,1,8,0:0:0:0:
258,179,101411,1,0,0:0:0:0:
215,197,101596,1,8,0:0:0:0:
173,232,101689,1,8,0:0:0:0:
229,185,101781,1,8,0:0:0:0:
196,179,102152,1,8,0:0:0:0:
196,179,102337,1,0,0:0:0:0:
205,188,102707,1,0,0:0:0:0:
201,228,102893,1,0,0:0:0:0:
187,190,102985,1,0,0:0:0:0:
202,227,103078,1,8,0:0:0:0:
228,266,103448,1,8,0:0:0:0:
228,266,103633,1,0,0:0:0:0:
228,266,103818,1,8,0:0:0:0:
201,222,104189,1,8,0:0:0:0:
201,225,104374,1,8,0:0:0:0:
179,171,104559,1,0,0:0:0:0:
183,259,104744,1,8,0:0:0:0:
183,259,104837,1,8,0:0:0:0:
183,259,104930,1,0,0:0:0:0:
184,142,105115,1,8,0:0:0:0:
173,205,105300,1,0,0:0:0:0:
32,352,105670,2,0,L|512:352,1,420
184,237,107152,1,8,0:0:0:0:
196,195,107337,1,0,0:0:0:0:
214,204,107522,1,0,0:0:0:0:
211,205,107615,1,0,0:0:0:0:
212,207,107708,1,0,0:0:0:0:
177,204,107893,1,8,0:0:0:0:
194,217,108078,1,0,0:0:0:0:
202,207,108263,1,8,0:0:0:0:
207,206,108633,1,8,0:0:0:0:
197,221,108819,1,0,0:0:0:0:
196,250,108911,1,0,0:0:0:0:
188,233,109004,1,8,0:0:0:0:
191,240,109374,1,8,0:0:0:0:
191,240,109559,1,0,0:0:0:0:
202,233,109745,1,8,0:0:0:0:
204,208,110115,1,8,0:0:0:0:
204,208,110300,1,8,0:0:0:0:
204,208,110485,1,0,0:0:0:0:
189,219,110670,1,8,0:0:0:0:
181,220,110763,1,8,0:0:0:0:
190,195,110856,1,0,0:0:0:0:
203,216,111041,1,0,0:0:0:0:
203,216,111226,1,8,0:0:0:0:
186,250,111596,1,0,0:0:0:0:
188,207,111782,1,0,0:0:0:0:
190,207,111967,1,8,0:0:0:0:
201,242,112152,1,0,0:0:0:0:
193,244,112337,1,8,0:0:0:0:
197,285,112522,1,0,0:0:0:0:
196,252,112708,1,8,0:0:0:0:
201,242,113078,1,8,0:0:0:0:
196,252,113263,1,0,0:0:0:0:
194,260,113448,1,8,0:0:0:0:
193,261,113541,1,8,0:0:0:0:
198,266,113633,1,8,0:0:0:0:
201,242,113819,1,0,0:0:0:0:
201,242,114004,1,0,0:0:0:0:
201,270,114189,1,8,0:0:0:0:
197,256,114559,1,0,0:0:0:0:
197,256,114652,1,0,0:0:0:0:
201,270,114745,1,0,0:0:0:0:
201,270,114930,1,8,0:0:0:0:
196,269,115300,1,8,0:0:0:0:
197,263,115485,1,8,0:0:0:0:
196,271,115670,1,0,0:0:0:0:
183,267,116041,1,0,0:0:0:0:
177,269,116226,1,0,0:0:0:0:
184,268,116411,1,0,0:0:0:0:
181,234,116596,1,8,0:0:0:0:
181,234,116689,1,8,0:0:0:0:
184,210,116782,1,0,0:0:0:0:
189,234,116967,1,8,0:0:0:0:
181,234,117152,1,0,0:0:0:0:
192,256,117522,1,0,0:0:0:0:
192,256,117708,1,0,0:0:0:0:
191,228,117893,1,8,0:0:0:0:
185,237,118263,1,8,0:0:0:0:
185,237,118448,1,8,0:0:0:0:
187,231,118633,1,0,0:0:0:0:
188,233,119004,1,8,0:0:0:0:
188,233,119189,1,8,0:0:0:0:
