osu file format v14

[General]
AudioFilename: audio.mp3
AudioLeadIn: 0
PreviewTime: 346
Countdown: 0
SampleSet: Normal
StackLeniency: 0.7
Mode: 1
LetterboxInBreaks: 0
WidescreenStoryboard: 1

[Editor]
DistanceSpacing: 1
BeatDivisor: 2
GridSize: 32
TimelineZoom: 0.3999999

[Metadata]
Title:Time
TitleUnicode:Time
Artist:Ecco2k
ArtistUnicode:Ecco2k
Creator:Horiiizon
Version:Kantan
Source:
Tags:e ecco 2k drain gang draingang cloud rap trap experimental hip hop alternative english
BeatmapID:3503256
BeatmapSetID:1714502

[Difficulty]
HPDrainRate:8
CircleSize:5
OverallDifficulty:3
ApproachRate:5
SliderMultiplier:2.8
SliderTickRate:1

[Events]
//Background and Video events
0,0,"e.png",0,-8
//Break Periods
//Storyboard Layer 0 (Background)
//Storyboard Layer 1 (Fail)
//Storyboard Layer 2 (Pass)
//Storyboard Layer 3 (Foreground)
//Storyboard Layer 4 (Overlay)
//Storyboard Sound Samples

[TimingPoints]
12708,740.740740740741,4,1,0,80,1,0
60069,-100,4,1,0,60,0,0
71920,-100,4,1,0,80,0,0

[HitObjects]
192,224,12708,5,0,0:0:0:0:
192,224,13448,1,8,0:0:0:0:
192,192,13819,1,0,0:0:0:0:
192,192,14189,1,8,0:0:0:0:
192,192,14930,1,8,0:0:0:0:
192,160,15300,1,8,0:0:0:0:
192,192,15670,1,0,0:0:0:0:
192,192,16411,1,0,0:0:0:0:
160,192,16782,1,0,0:0:0:0:
160,192,17152,1,8,0:0:0:0:
192,224,18633,1,0,0:0:0:0:
192,224,19373,1,8,0:0:0:0:
192,192,19744,1,0,0:0:0:0:
192,192,20114,1,8,0:0:0:0:
192,192,20855,1,8,0:0:0:0:
192,256,21226,1,0,0:0:0:0:
192,192,21595,1,0,0:0:0:0:
192,192,22336,1,0,0:0:0:0:
160,192,22707,5,0,0:0:0:0:
160,192,23077,1,8,0:0:0:0:
192,192,24559,1,0,0:0:0:0:
192,192,25300,1,8,0:0:0:0:
192,192,25670,1,0,0:0:0:0:
192,192,26041,1,8,0:0:0:0:
192,192,26411,1,8,0:0:0:0:
192,192,26782,1,0,0:0:0:0:
192,160,27522,1,0,0:0:0:0:
192,192,28263,1,0,0:0:0:0:
192,192,28633,1,0,0:0:0:0:
192,192,29004,1,8,0:0:0:0:
192,192,30485,1,0,0:0:0:0:
192,160,31226,1,0,0:0:0:0:
192,160,31596,1,0,0:0:0:0:
192,160,31967,1,8,0:0:0:0:
192,160,32337,1,8,0:0:0:0:
192,160,32708,1,0,0:0:0:0:
160,192,33448,1,0,0:0:0:0:
224,160,34189,1,0,0:0:0:0:
224,160,34559,1,0,0:0:0:0:
192,160,34930,1,8,0:0:0:0:
192,224,36411,1,0,0:0:0:0:
192,160,37152,1,0,0:0:0:0:
192,192,37522,1,0,0:0:0:0:
192,192,37893,1,8,0:0:0:0:
192,160,38263,1,0,0:0:0:0:
192,192,38633,1,8,0:0:0:0:
192,192,39374,1,0,0:0:0:0:
192,192,40115,1,0,0:0:0:0:
192,192,40485,1,0,0:0:0:0:
192,160,40856,1,0,0:0:0:0:
192,224,42337,1,0,0:0:0:0:
224,192,43078,1,8,0:0:0:0:
192,224,43448,1,8,0:0:0:0:
192,224,43819,1,0,0:0:0:0:
192,192,44189,1,8,0:0:0:0:
160,192,44559,1,0,0:0:0:0:
160,192,45300,1,0,0:0:0:0:
160,192,46041,1,0,0:0:0:0:
192,192,46411,1,0,0:0:0:0:
192,192,46782,1,0,0:0:0:0:
192,224,48263,1,0,0:0:0:0:
192,224,49003,1,8,0:0:0:0:
192,192,49374,1,0,0:0:0:0:
192,192,49744,1,8,0:0:0:0:
192,192,50485,1,8,0:0:0:0:
192,160,50855,1,8,0:0:0:0:
192,192,51225,1,0,0:0:0:0:
192,192,51966,1,0,0:0:0:0:
160,192,52337,1,0,0:0:0:0:
160,192,52707,1,8,0:0:0:0:
192,224,54188,5,0,0:0:0:0:
192,224,54930,1,8,0:0:0:0:
192,192,55299,1,0,0:0:0:0:
192,192,55669,1,8,0:0:0:0:
192,192,56410,1,8,0:0:0:0:
192,256,56781,1,0,0:0:0:0:
192,192,57152,1,0,0:0:0:0:
192,192,57893,1,0,0:0:0:0:
160,192,58263,5,0,0:0:0:0:
160,192,58633,1,8,0:0:0:0:
192,160,60115,1,0,0:0:0:0:
192,160,60856,1,0,0:0:0:0:
192,160,61596,1,8,0:0:0:0:
192,160,61967,1,8,0:0:0:0:
192,160,62337,1,0,0:0:0:0:
192,160,63078,1,0,0:0:0:0:
192,160,63819,1,8,0:0:0:0:
192,160,64559,1,0,0:0:0:0:
192,128,66041,1,0,0:0:0:0:
192,160,66782,1,8,0:0:0:0:
192,160,67522,1,0,0:0:0:0:
192,160,67893,1,0,0:0:0:0:
192,160,68263,1,8,0:0:0:0:
192,160,69004,1,8,0:0:0:0:
192,160,69745,1,0,0:0:0:0:
192,160,70485,1,8,0:0:0:0:
192,224,71967,1,0,0:0:0:0:
192,160,72708,1,8,0:0:0:0:
192,192,73449,1,8,0:0:0:0:
192,160,73819,1,0,0:0:0:0:
192,192,74189,1,8,0:0:0:0:
192,192,74930,1,0,0:0:0:0:
192,160,75670,1,0,0:0:0:0:
192,192,76041,1,0,0:0:0:0:
192,160,76412,1,0,0:0:0:0:
192,224,77893,5,0,0:0:0:0:
224,192,78634,1,8,0:0:0:0:
192,160,79374,1,8,0:0:0:0:
192,192,79745,1,8,0:0:0:0:
160,192,80115,1,0,0:0:0:0:
160,192,80856,1,0,0:0:0:0:
160,192,81597,1,0,0:0:0:0:
192,192,81967,1,0,0:0:0:0:
192,192,82338,1,0,0:0:0:0:
192,224,83819,1,0,0:0:0:0:
192,224,84559,1,8,0:0:0:0:
192,192,84930,1,0,0:0:0:0:
192,192,85300,1,8,0:0:0:0:
192,192,86041,1,8,0:0:0:0:
192,160,86411,1,8,0:0:0:0:
192,192,86781,1,0,0:0:0:0:
192,192,87522,1,0,0:0:0:0:
160,192,87893,1,0,0:0:0:0:
160,192,88263,1,8,0:0:0:0:
192,224,89744,5,0,0:0:0:0:
192,224,90484,1,8,0:0:0:0:
192,192,90855,1,0,0:0:0:0:
192,192,91225,1,8,0:0:0:0:
192,192,91966,1,8,0:0:0:0:
192,256,92337,1,0,0:0:0:0:
192,192,92708,1,0,0:0:0:0:
192,192,93447,1,0,0:0:0:0:
160,192,93818,5,0,0:0:0:0:
160,192,94188,1,8,0:0:0:0:
192,224,95670,1,0,0:0:0:0:
160,192,96041,1,0,0:0:0:0:
192,224,96410,1,8,0:0:0:0:
192,192,96781,1,0,0:0:0:0:
192,192,97151,1,8,0:0:0:0:
192,192,97892,1,8,0:0:0:0:
192,160,98262,1,8,0:0:0:0:
192,192,98632,1,0,0:0:0:0:
192,192,99373,1,0,0:0:0:0:
160,192,99744,1,0,0:0:0:0:
160,192,100114,1,8,0:0:0:0:
192,192,101596,1,8,0:0:0:0:
192,192,101967,1,0,0:0:0:0:
192,224,102337,1,8,0:0:0:0:
192,192,102708,1,0,0:0:0:0:
192,192,103078,1,8,0:0:0:0:
192,192,103819,1,8,0:0:0:0:
192,256,104189,1,0,0:0:0:0:
192,192,104559,5,0,0:0:0:0:
256,192,105670,12,0,106782,0:0:0:0:
192,224,107522,5,0,0:0:0:0:
160,160,108263,1,8,0:0:0:0:
192,192,108633,1,0,0:0:0:0:
192,192,109004,1,8,0:0:0:0:
160,128,109745,1,0,0:0:0:0:
192,160,110485,1,0,0:0:0:0:
192,160,110856,1,0,0:0:0:0:
192,160,111226,1,8,0:0:0:0:
224,224,111967,1,0,0:0:0:0:
224,256,113448,1,0,0:0:0:0:
192,96,114189,1,8,0:0:0:0:
224,160,114559,1,0,0:0:0:0:
192,128,114930,1,8,0:0:0:0:
192,160,115670,1,0,0:0:0:0:
192,160,116411,1,0,0:0:0:0:
192,160,116782,1,8,0:0:0:0:
192,160,117152,1,0,0:0:0:0:
192,192,117893,1,8,0:0:0:0:
192,160,118633,1,0,0:0:0:0:
