osu file format v14

[General]
AudioFilename: audio.mp3
AudioLeadIn: 0
PreviewTime: 346
Countdown: 0
SampleSet: Normal
StackLeniency: 0.7
Mode: 1
LetterboxInBreaks: 0
WidescreenStoryboard: 1

[Editor]
DistanceSpacing: 1
BeatDivisor: 2
GridSize: 32
TimelineZoom: 0.9

[Metadata]
Title:Time
TitleUnicode:Time
Artist:Ecco2k
ArtistUnicode:Ecco2k
Creator:Horiiizon
Version:Futsuu
Source:
Tags:e ecco 2k drain gang draingang cloud rap trap experimental hip hop alternative english
BeatmapID:3503255
BeatmapSetID:1714502

[Difficulty]
HPDrainRate:7
CircleSize:5
OverallDifficulty:4
ApproachRate:5
SliderMultiplier:2.8
SliderTickRate:1

[Events]
//Background and Video events
0,0,"e.png",0,-8
//Break Periods
//Storyboard Layer 0 (Background)
//Storyboard Layer 1 (Fail)
//Storyboard Layer 2 (Pass)
//Storyboard Layer 3 (Foreground)
//Storyboard Layer 4 (Overlay)
//Storyboard Sound Samples

[TimingPoints]
12708,740.740740740741,4,1,0,80,1,0
60069,-125,4,1,0,60,0,0
71920,-100,4,1,0,80,0,0

[HitObjects]
192,160,12522,5,8,0:0:0:0:
192,224,12708,1,0,0:0:0:0:
192,192,13263,1,0,0:0:0:0:
192,224,13448,1,8,0:0:0:0:
192,192,13819,1,0,0:0:0:0:
192,192,14004,1,0,0:0:0:0:
192,192,14189,1,8,0:0:0:0:
192,192,14745,1,8,0:0:0:0:
192,192,14930,1,0,0:0:0:0:
192,160,15300,1,8,0:0:0:0:
192,192,15485,1,8,0:0:0:0:
192,192,15670,1,0,0:0:0:0:
192,192,16226,1,0,0:0:0:0:
192,192,16411,1,0,0:0:0:0:
192,192,16782,1,0,0:0:0:0:
192,192,16967,1,0,0:0:0:0:
192,192,17152,1,8,0:0:0:0:
192,192,17337,1,8,0:0:0:0:
192,192,17522,1,0,0:0:0:0:
224,224,17893,1,8,0:0:0:0:
192,192,18633,1,0,0:0:0:0:
192,224,19189,1,0,0:0:0:0:
192,192,19374,1,8,0:0:0:0:
192,224,19745,1,0,0:0:0:0:
192,160,19930,1,8,0:0:0:0:
160,160,20115,1,0,0:0:0:0:
192,224,20670,1,0,0:0:0:0:
192,224,20856,1,8,0:0:0:0:
192,192,21226,1,0,0:0:0:0:
192,192,21411,1,0,0:0:0:0:
192,192,21596,1,0,0:0:0:0:
192,224,22152,1,0,0:0:0:0:
192,224,22337,1,0,0:0:0:0:
192,192,22708,1,0,0:0:0:0:
192,224,22893,1,0,0:0:0:0:
192,192,23078,1,8,0:0:0:0:
192,224,23263,1,0,0:0:0:0:
192,224,23448,1,8,0:0:0:0:
192,224,23819,1,0,0:0:0:0:
192,192,24559,1,0,0:0:0:0:
192,192,25115,1,8,0:0:0:0:
192,192,25300,1,0,0:0:0:0:
192,160,25670,1,0,0:0:0:0:
192,160,25856,1,0,0:0:0:0:
224,160,26041,1,8,0:0:0:0:
192,192,26226,1,8,0:0:0:0:
192,160,26411,1,0,0:0:0:0:
192,192,26782,1,8,0:0:0:0:
192,160,27152,1,8,0:0:0:0:
192,160,27337,1,8,0:0:0:0:
192,160,27522,1,0,0:0:0:0:
160,192,28078,1,0,0:0:0:0:
160,192,28263,1,0,0:0:0:0:
192,192,28633,1,0,0:0:0:0:
192,192,28819,1,0,0:0:0:0:
192,192,29004,1,8,0:0:0:0:
192,192,29374,1,8,0:0:0:0:
192,192,29559,1,8,0:0:0:0:
192,192,29745,1,0,0:0:0:0:
192,192,30485,1,0,0:0:0:0:
192,224,31041,1,8,0:0:0:0:
192,224,31226,1,0,0:0:0:0:
224,192,31596,1,0,0:0:0:0:
192,160,31782,1,8,0:0:0:0:
192,160,31967,1,0,0:0:0:0:
192,160,32337,1,8,0:0:0:0:
192,160,32522,1,8,0:0:0:0:
192,160,32708,1,0,0:0:0:0:
192,192,33078,1,0,0:0:0:0:
192,192,33263,1,0,0:0:0:0:
192,192,33448,1,0,0:0:0:0:
192,192,34004,1,0,0:0:0:0:
192,192,34189,1,0,0:0:0:0:
192,192,34559,1,0,0:0:0:0:
192,192,34745,1,0,0:0:0:0:
192,192,34930,1,8,0:0:0:0:
192,160,35300,1,0,0:0:0:0:
192,192,35485,1,8,0:0:0:0:
192,192,35670,1,0,0:0:0:0:
192,224,36411,1,8,0:0:0:0:
192,192,36596,1,8,0:0:0:0:
192,192,36782,1,0,0:0:0:0:
192,192,37152,1,8,0:0:0:0:
192,192,37522,1,0,0:0:0:0:
192,192,37708,1,0,0:0:0:0:
192,192,37893,1,8,0:0:0:0:
192,160,38263,1,8,0:0:0:0:
192,192,38448,1,0,0:0:0:0:
192,192,38633,1,8,0:0:0:0:
192,192,39374,1,8,0:0:0:0:
160,192,39559,1,8,0:0:0:0:
160,192,39745,1,0,0:0:0:0:
192,192,39930,1,0,0:0:0:0:
192,192,40115,1,8,0:0:0:0:
192,192,40485,1,8,0:0:0:0:
192,192,40670,1,8,0:0:0:0:
192,192,40856,1,0,0:0:0:0:
192,192,41226,1,8,0:0:0:0:
192,192,41411,1,0,0:0:0:0:
192,160,41596,1,8,0:0:0:0:
192,224,42337,1,8,0:0:0:0:
192,192,42522,1,8,0:0:0:0:
192,192,42708,1,0,0:0:0:0:
192,192,43078,1,8,0:0:0:0:
192,192,43448,1,0,0:0:0:0:
192,192,43634,1,0,0:0:0:0:
192,192,43819,1,8,0:0:0:0:
192,160,44189,1,8,0:0:0:0:
192,192,44374,1,0,0:0:0:0:
192,192,44559,1,8,0:0:0:0:
160,192,44930,1,0,0:0:0:0:
192,192,45300,1,0,0:0:0:0:
192,160,45485,1,0,0:0:0:0:
192,192,45670,1,8,0:0:0:0:
192,192,45856,1,0,0:0:0:0:
192,192,46041,1,8,0:0:0:0:
192,160,46411,1,0,0:0:0:0:
192,160,46596,1,0,0:0:0:0:
192,192,46782,1,8,0:0:0:0:
192,192,46967,1,8,0:0:0:0:
192,192,47152,1,0,0:0:0:0:
192,160,47522,1,8,0:0:0:0:
192,224,48264,1,0,0:0:0:0:
192,192,48819,1,0,0:0:0:0:
192,224,49004,1,8,0:0:0:0:
192,192,49375,1,0,0:0:0:0:
192,192,49560,1,0,0:0:0:0:
192,192,49745,1,8,0:0:0:0:
192,192,50301,1,8,0:0:0:0:
192,192,50486,1,0,0:0:0:0:
192,160,50856,1,8,0:0:0:0:
192,192,51041,1,8,0:0:0:0:
192,192,51226,1,0,0:0:0:0:
192,192,51782,1,0,0:0:0:0:
192,192,51967,1,0,0:0:0:0:
192,192,52338,1,0,0:0:0:0:
192,192,52523,1,0,0:0:0:0:
192,192,52708,1,8,0:0:0:0:
192,192,52893,1,8,0:0:0:0:
192,192,53078,1,0,0:0:0:0:
224,224,53449,1,8,0:0:0:0:
192,192,54189,1,0,0:0:0:0:
192,224,54745,1,0,0:0:0:0:
192,192,54930,1,8,0:0:0:0:
192,224,55301,1,0,0:0:0:0:
192,160,55486,1,8,0:0:0:0:
160,160,55671,1,0,0:0:0:0:
192,224,56226,1,0,0:0:0:0:
192,224,56412,1,8,0:0:0:0:
192,192,56782,1,0,0:0:0:0:
192,192,56967,1,0,0:0:0:0:
192,192,57152,1,0,0:0:0:0:
192,224,57708,1,0,0:0:0:0:
192,224,57893,1,0,0:0:0:0:
192,192,58264,1,0,0:0:0:0:
192,224,58449,1,0,0:0:0:0:
192,192,58634,1,8,0:0:0:0:
192,224,58819,1,0,0:0:0:0:
192,224,59004,1,8,0:0:0:0:
192,224,59375,1,0,0:0:0:0:
192,192,60115,1,0,0:0:0:0:
192,192,60670,1,0,0:0:0:0:
192,224,60856,1,8,0:0:0:0:
192,192,61411,1,8,0:0:0:0:
192,192,61596,1,0,0:0:0:0:
224,160,61967,1,0,0:0:0:0:
224,192,62152,1,0,0:0:0:0:
224,160,62337,1,8,0:0:0:0:
224,160,62893,1,0,0:0:0:0:
224,160,63078,1,8,0:0:0:0:
224,160,63633,1,8,0:0:0:0:
224,160,63819,1,0,0:0:0:0:
224,160,64374,1,8,0:0:0:0:
224,160,64559,1,8,0:0:0:0:
192,192,64930,1,0,0:0:0:0:
192,192,65115,1,0,0:0:0:0:
192,192,65300,1,8,0:0:0:0:
192,192,66041,1,0,0:0:0:0:
192,224,66596,1,0,0:0:0:0:
192,192,66782,1,8,0:0:0:0:
192,192,67337,1,8,0:0:0:0:
192,192,67522,1,0,0:0:0:0:
192,224,67893,1,8,0:0:0:0:
192,224,68078,1,8,0:0:0:0:
192,224,68263,1,0,0:0:0:0:
192,192,68819,1,0,0:0:0:0:
192,192,69004,1,8,0:0:0:0:
192,192,69559,1,8,0:0:0:0:
192,192,69745,1,0,0:0:0:0:
192,160,70300,1,0,0:0:0:0:
192,192,70485,1,0,0:0:0:0:
192,192,70856,1,8,0:0:0:0:
192,192,71041,1,8,0:0:0:0:
160,224,71226,1,0,0:0:0:0:
224,192,71967,1,0,0:0:0:0:
192,192,72522,1,0,0:0:0:0:
192,192,72708,1,8,0:0:0:0:
192,192,73078,1,0,0:0:0:0:
192,192,73264,1,0,0:0:0:0:
192,192,73449,1,8,0:0:0:0:
192,160,73819,1,8,0:0:0:0:
192,192,74004,1,0,0:0:0:0:
192,192,74189,1,8,0:0:0:0:
192,192,74930,1,0,0:0:0:0:
192,192,75486,1,0,0:0:0:0:
192,160,75670,1,0,0:0:0:0:
192,224,76041,1,0,0:0:0:0:
192,224,76226,1,0,0:0:0:0:
160,160,76411,1,8,0:0:0:0:
192,192,76782,1,8,0:0:0:0:
192,192,76967,1,0,0:0:0:0:
192,160,77152,1,8,0:0:0:0:
192,192,77708,1,8,0:0:0:0:
192,192,77893,1,0,0:0:0:0:
192,192,78448,1,0,0:0:0:0:
192,192,78634,1,8,0:0:0:0:
192,192,79004,1,0,0:0:0:0:
192,192,79190,1,0,0:0:0:0:
192,192,79375,1,8,0:0:0:0:
192,160,79745,1,8,0:0:0:0:
192,192,79930,1,0,0:0:0:0:
192,192,80115,1,8,0:0:0:0:
192,128,80485,1,0,0:0:0:0:
192,192,80670,1,8,0:0:0:0:
192,192,80856,1,0,0:0:0:0:
192,192,81412,1,0,0:0:0:0:
192,160,81596,1,0,0:0:0:0:
192,160,81967,1,0,0:0:0:0:
192,160,82152,1,0,0:0:0:0:
192,192,82338,1,8,0:0:0:0:
192,192,82708,1,8,0:0:0:0:
192,160,82893,1,0,0:0:0:0:
192,160,83078,1,8,0:0:0:0:
192,224,83819,1,0,0:0:0:0:
192,192,84374,1,0,0:0:0:0:
192,224,84559,1,8,0:0:0:0:
192,192,84930,1,0,0:0:0:0:
192,192,85115,1,0,0:0:0:0:
192,192,85300,1,8,0:0:0:0:
192,192,85856,1,8,0:0:0:0:
192,192,86041,1,0,0:0:0:0:
192,160,86411,1,8,0:0:0:0:
192,192,86596,1,8,0:0:0:0:
192,192,86781,1,0,0:0:0:0:
192,192,87337,1,0,0:0:0:0:
192,192,87522,1,0,0:0:0:0:
192,192,87893,1,0,0:0:0:0:
192,192,88078,1,0,0:0:0:0:
192,192,88263,1,8,0:0:0:0:
192,192,88448,1,8,0:0:0:0:
192,192,88633,1,0,0:0:0:0:
224,224,89004,1,8,0:0:0:0:
192,192,89744,1,0,0:0:0:0:
192,224,90300,1,0,0:0:0:0:
192,192,90485,1,8,0:0:0:0:
192,224,90856,1,0,0:0:0:0:
192,160,91041,1,8,0:0:0:0:
160,160,91226,1,0,0:0:0:0:
192,224,91781,1,0,0:0:0:0:
192,224,91967,1,8,0:0:0:0:
192,192,92337,1,0,0:0:0:0:
192,192,92522,1,0,0:0:0:0:
192,192,92707,1,0,0:0:0:0:
192,224,93263,1,0,0:0:0:0:
192,224,93448,1,0,0:0:0:0:
192,192,93819,1,0,0:0:0:0:
192,224,94004,1,0,0:0:0:0:
192,192,94189,1,8,0:0:0:0:
192,224,94374,1,0,0:0:0:0:
192,224,94559,1,8,0:0:0:0:
192,224,94930,1,0,0:0:0:0:
192,224,95670,1,8,0:0:0:0:
192,192,95855,1,8,0:0:0:0:
192,192,96041,1,0,0:0:0:0:
192,192,96226,1,0,0:0:0:0:
192,192,96411,1,8,0:0:0:0:
192,192,96781,1,0,0:0:0:0:
192,192,96967,1,0,0:0:0:0:
192,192,97152,1,8,0:0:0:0:
192,192,97707,1,0,0:0:0:0:
192,192,97892,1,8,0:0:0:0:
192,192,98633,1,0,0:0:0:0:
192,160,98819,1,0,0:0:0:0:
192,160,99004,1,8,0:0:0:0:
192,160,99189,1,8,0:0:0:0:
192,160,99374,1,0,0:0:0:0:
192,160,99745,1,0,0:0:0:0:
224,160,99930,1,0,0:0:0:0:
192,192,100115,1,0,0:0:0:0:
192,192,100670,1,0,0:0:0:0:
192,160,100855,1,8,0:0:0:0:
192,224,101596,1,8,0:0:0:0:
192,192,101781,1,8,0:0:0:0:
192,192,101967,1,0,0:0:0:0:
192,192,102337,1,8,0:0:0:0:
192,192,102707,1,0,0:0:0:0:
192,192,102893,1,0,0:0:0:0:
192,192,103078,1,8,0:0:0:0:
192,192,103818,1,8,0:0:0:0:
160,192,104189,1,0,0:0:0:0:
192,192,104559,1,0,0:0:0:0:
192,160,104744,1,0,0:0:0:0:
192,192,104929,1,8,0:0:0:0:
160,224,105115,1,8,0:0:0:0:
160,224,105300,1,0,0:0:0:0:
32,352,105670,2,0,L|512:352,1,420
160,224,107522,1,8,0:0:0:0:
192,160,107708,1,8,0:0:0:0:
192,192,107893,1,0,0:0:0:0:
192,192,108263,1,8,0:0:0:0:
192,192,108633,1,0,0:0:0:0:
192,192,108819,1,0,0:0:0:0:
192,192,109004,1,8,0:0:0:0:
192,192,109374,1,8,0:0:0:0:
192,192,109559,1,0,0:0:0:0:
192,192,109745,1,8,0:0:0:0:
192,192,110115,1,8,0:0:0:0:
192,192,110300,1,8,0:0:0:0:
192,192,110485,1,0,0:0:0:0:
224,160,111041,1,0,0:0:0:0:
160,192,111226,1,0,0:0:0:0:
192,160,111596,1,0,0:0:0:0:
192,160,111782,1,0,0:0:0:0:
192,160,111967,1,8,0:0:0:0:
192,224,112337,1,8,0:0:0:0:
192,224,112522,1,0,0:0:0:0:
192,224,112708,1,8,0:0:0:0:
192,224,113078,1,8,0:0:0:0:
192,224,113263,1,8,0:0:0:0:
192,192,113448,1,0,0:0:0:0:
192,256,113819,1,8,0:0:0:0:
160,192,114559,1,0,0:0:0:0:
160,192,114745,1,0,0:0:0:0:
160,192,114930,1,8,0:0:0:0:
160,224,115300,1,8,0:0:0:0:
160,224,115485,1,8,0:0:0:0:
160,224,115670,1,0,0:0:0:0:
160,128,116041,1,0,0:0:0:0:
192,224,116226,1,0,0:0:0:0:
192,224,116411,1,8,0:0:0:0:
192,160,116596,1,8,0:0:0:0:
192,160,116782,1,0,0:0:0:0:
160,160,117152,1,8,0:0:0:0:
160,128,117522,1,0,0:0:0:0:
160,160,117708,1,0,0:0:0:0:
160,160,117893,1,8,0:0:0:0:
160,160,118263,1,8,0:0:0:0:
160,160,118448,1,8,0:0:0:0:
160,160,118633,1,0,0:0:0:0:
160,160,119004,1,8,0:0:0:0:
160,160,119189,1,8,0:0:0:0:
