osu file format v14

[General]
AudioFilename: audio.mp3
AudioLeadIn: 0
PreviewTime: 64038
Countdown: 0
SampleSet: Normal
StackLeniency: 0.7
Mode: 1
LetterboxInBreaks: 0
WidescreenStoryboard: 1

[Editor]
Bookmarks: 65030,67014,68005,68997,69989,70981,71972,72964,73956,74948,75939,76931,77923,78914,79906,80898,81890,82881,83873,84865,85857
DistanceSpacing: 1
BeatDivisor: 4
GridSize: 8
TimelineZoom: 1

[Metadata]
Title:Amygdala
TitleUnicode:Amygdala
Artist:Ecco2k & bladee
ArtistUnicode:Ecco2k & bladee
Creator:Boaz
Version:Futsuu
Source:
Tags:drain gang dg draingang mechatok english pop electropop electro bubblegum bass year0001 liku horiiizon
BeatmapID:3558803
BeatmapSetID:1714679

[Difficulty]
HPDrainRate:7
CircleSize:5
OverallDifficulty:4
ApproachRate:5
SliderMultiplier:1.4
SliderTickRate:1

[Events]
//Background and Video events
0,0,"amygdala.png",0,-100
//Break Periods
//Storyboard Layer 0 (Background)
//Storyboard Layer 1 (Fail)
//Storyboard Layer 2 (Pass)
//Storyboard Layer 3 (Foreground)
//Storyboard Layer 4 (Overlay)
//Storyboard Sound Samples

[TimingPoints]
72,495.867768595041,4,1,0,65,1,0
72,-100,4,1,0,65,0,0
29824,-100,4,1,0,65,0,0
30567,-100,4,1,0,65,0,0
30815,-100,4,1,0,65,0,0
30939,-100,4,1,0,65,0,0
31063,-100,4,1,0,65,0,0
31187,-100,4,1,0,65,0,0
31311,-100,4,1,0,65,0,0
31435,-100,4,1,0,65,0,0
31559,-100,4,1,0,65,0,0
31807,-100,4,1,0,65,0,0
46683,-100,4,1,0,65,0,0
46807,-100,4,1,0,65,0,0
46931,-100,4,1,0,65,0,0
47055,-100,4,1,0,65,0,0
47179,-100,4,1,0,65,0,0
47303,-100,4,1,0,65,0,0
47427,-100,4,1,0,65,0,0
47675,-100,4,1,0,65,0,0
62551,-100,4,1,0,65,0,0
62675,-100,4,1,0,65,0,0
62799,-100,4,1,0,65,0,0
62923,-100,4,1,0,65,0,0
63047,-100,4,1,0,65,0,0
63171,-100,4,1,0,65,0,0
63295,-100,4,1,0,65,0,0
63543,-100,4,1,0,65,0,0
64286,-100,4,1,0,65,0,0
65030,-100,4,1,0,65,0,0
65278,-100,4,1,0,65,0,0
67014,-100,4,1,0,65,0,0
67262,-100,4,1,0,65,0,0
68005,-100,4,1,0,65,0,0
68253,-100,4,1,0,65,0,0
68997,-100,4,1,0,65,0,0
69245,-100,4,1,0,65,0,0
69989,-100,4,1,0,65,0,0
70237,-100,4,1,0,65,0,0
70981,-100,4,1,0,65,0,0
71229,-100,4,1,0,65,0,0
71972,-100,4,1,0,65,0,0
72220,-100,4,1,0,65,0,0
72964,-100,4,1,0,65,0,0
73212,-100,4,1,0,65,0,0
73956,-100,4,1,0,65,0,0
74204,-100,4,1,0,65,0,0
74948,-100,4,1,0,65,0,0
75195,-100,4,1,0,65,0,0
75939,-100,4,1,0,65,0,0
76187,-100,4,1,0,65,0,0
76931,-100,4,1,0,65,0,0
77179,-100,4,1,0,65,0,0
77923,-100,4,1,0,65,0,0
78171,-100,4,1,0,65,0,0
78914,-100,4,1,0,65,0,0
79162,-100,4,1,0,65,0,0
79906,-100,4,1,0,65,0,0
80154,-100,4,1,0,65,0,0
80898,-100,4,1,0,65,0,0
81146,-100,4,1,0,65,0,0
81890,-100,4,1,0,65,0,0
82138,-100,4,1,0,65,0,0
82881,-100,4,1,0,65,0,0
83129,-100,4,1,0,65,0,0
83873,-100,4,1,0,65,0,0
84121,-100,4,1,0,65,0,0
84865,-100,4,1,0,65,0,0
85113,-100,4,1,0,65,0,0
85857,-100,4,1,0,65,0,0
86105,-100,4,1,0,65,0,0
86352,-100,4,1,0,65,0,0
86600,-100,4,1,0,65,0,0
86848,-100,4,1,0,65,0,0
87096,-100,4,1,0,65,0,0
87344,-100,4,1,0,65,0,0
94286,-100,4,1,0,65,0,0
94410,-100,4,1,0,65,0,0
94534,-100,4,1,0,65,0,0
94658,-100,4,1,0,65,0,0
94782,-100,4,1,0,65,0,0
94906,-100,4,1,0,65,0,0
95030,-100,4,1,0,65,0,0
102220,-100,4,1,0,65,0,0
102344,-100,4,1,0,65,0,0
102468,-100,4,1,0,65,0,0
102592,-100,4,1,0,65,0,0
102716,-100,4,1,0,65,0,0
102840,-100,4,1,0,65,0,0
102964,-100,4,1,0,65,0,0
103088,-100,4,1,0,65,0,0
103212,-100,4,1,0,65,0,0
110154,-100,4,1,0,65,0,0
110278,-100,4,1,0,65,0,0
110402,-100,4,1,0,65,0,0
110526,-100,4,1,0,65,0,0
110650,-100,4,1,0,65,0,0
110774,-100,4,1,0,65,0,0
110898,-100,4,1,0,65,0,0
118088,-100,4,1,0,65,0,0
118212,-100,4,1,0,65,0,0
118336,-100,4,1,0,65,0,0
118460,-100,4,1,0,65,0,0
118584,-100,4,1,0,65,0,0
118708,-100,4,1,0,65,0,0
118832,-100,4,1,0,65,0,0
126022,-100,4,1,0,65,0,0
126270,-100,4,1,0,65,0,0
126518,-100,4,1,0,65,0,0
126766,-100,4,1,0,65,0,0
127014,-100,4,1,0,65,0,0

[HitObjects]
282,232,72,5,0,0:0:0:0:
289,232,443,1,0,0:0:0:0:
289,232,815,1,0,0:0:0:0:
290,232,2055,1,8,0:0:0:0:
290,232,2427,1,0,0:0:0:0:
290,232,2799,1,0,0:0:0:0:
290,232,3791,1,8,0:0:0:0:
290,232,4038,1,0,0:0:0:0:
290,232,4410,1,0,0:0:0:0:
290,232,4782,1,8,0:0:0:0:
279,191,6022,1,0,0:0:0:0:
279,191,6394,1,0,0:0:0:0:
279,191,6766,1,0,0:0:0:0:
279,191,7262,1,0,0:0:0:0:
279,191,7510,1,8,0:0:0:0:
279,191,7757,1,8,0:0:0:0:
279,191,8005,1,0,0:0:0:0:
279,191,8377,1,0,0:0:0:0:
279,191,8749,1,8,0:0:0:0:
173,171,9989,1,8,0:0:0:0:
173,171,10361,1,0,0:0:0:0:
173,171,10733,1,0,0:0:0:0:
173,171,11724,1,8,0:0:0:0:
173,171,11972,1,0,0:0:0:0:
173,171,12344,1,0,0:0:0:0:
173,171,12716,1,0,0:0:0:0:
174,171,13956,1,8,0:0:0:0:
174,171,14328,1,0,0:0:0:0:
174,171,14700,1,0,0:0:0:0:
174,171,15195,1,0,0:0:0:0:
174,171,15443,1,8,0:0:0:0:
174,171,15691,1,8,0:0:0:0:
174,171,15939,1,0,0:0:0:0:
190,167,16311,1,0,0:0:0:0:
190,167,16683,1,0,0:0:0:0:
190,167,17923,1,8,0:0:0:0:
190,167,18295,1,0,0:0:0:0:
190,167,18667,1,0,0:0:0:0:
190,167,19658,1,8,0:0:0:0:
190,167,19906,1,0,0:0:0:0:
190,167,20278,1,0,0:0:0:0:
190,167,20650,1,8,0:0:0:0:
190,167,21890,1,8,0:0:0:0:
190,167,22262,1,0,0:0:0:0:
190,167,22633,1,0,0:0:0:0:
190,167,23129,1,0,0:0:0:0:
190,167,23377,1,8,0:0:0:0:
190,167,23625,1,8,0:0:0:0:
190,167,23873,1,0,0:0:0:0:
190,167,24245,1,0,0:0:0:0:
190,167,24617,1,8,0:0:0:0:
190,167,25857,1,0,0:0:0:0:
190,167,26229,1,0,0:0:0:0:
190,167,26600,1,0,0:0:0:0:
190,167,27592,1,8,0:0:0:0:
192,168,27840,1,0,0:0:0:0:
190,167,28212,1,0,0:0:0:0:
190,167,28584,1,8,0:0:0:0:
192,169,29824,1,12,0:0:0:0:
164,154,30567,1,0,0:0:0:0:
164,154,30815,1,8,0:0:0:0:
159,156,31063,1,8,0:0:0:0:
164,154,31311,1,8,0:0:0:0:
159,156,31559,1,0,0:0:0:0:
164,154,31807,1,8,0:0:0:0:
159,156,32179,1,0,0:0:0:0:
159,156,32551,1,0,0:0:0:0:
159,156,33791,1,0,0:0:0:0:
159,156,34162,1,0,0:0:0:0:
159,156,34534,1,8,0:0:0:0:
159,156,35526,1,0,0:0:0:0:
159,156,35774,1,8,0:0:0:0:
159,156,36146,1,0,0:0:0:0:
159,156,36518,1,0,0:0:0:0:
159,156,37757,1,8,0:0:0:0:
265,75,38129,1,8,0:0:0:0:
159,156,38501,1,0,0:0:0:0:
269,47,38749,1,8,0:0:0:0:
269,47,38997,1,8,0:0:0:0:
269,47,39245,1,0,0:0:0:0:
269,47,39493,1,8,0:0:0:0:
269,47,39741,1,8,0:0:0:0:
265,75,40113,1,8,0:0:0:0:
265,75,40485,1,0,0:0:0:0:
265,75,41724,1,0,0:0:0:0:
265,75,42096,1,0,0:0:0:0:
265,75,42468,1,8,0:0:0:0:
265,75,43460,1,8,0:0:0:0:
265,75,43708,1,0,0:0:0:0:
265,75,44080,1,0,0:0:0:0:
265,75,44452,1,8,0:0:0:0:
265,75,45691,1,0,0:0:0:0:
265,75,46063,1,0,0:0:0:0:
265,75,46435,1,0,0:0:0:0:
265,75,46683,1,8,0:0:0:0:
265,75,46931,1,0,0:0:0:0:
265,75,47179,1,8,0:0:0:0:
265,75,47427,1,8,0:0:0:0:
265,75,47675,1,0,0:0:0:0:
226,179,48047,1,0,0:0:0:0:
226,179,48419,1,0,0:0:0:0:
226,179,49658,1,8,0:0:0:0:
226,179,50030,1,0,0:0:0:0:
226,179,50402,1,0,0:0:0:0:
226,179,51394,1,8,0:0:0:0:
226,179,51642,1,0,0:0:0:0:
226,179,52014,1,0,0:0:0:0:
226,179,52386,1,8,0:0:0:0:
226,177,53625,1,8,0:0:0:0:
226,177,53997,1,0,0:0:0:0:
226,177,54369,1,0,0:0:0:0:
226,177,54617,1,8,0:0:0:0:
226,177,54865,1,8,0:0:0:0:
226,177,55113,1,0,0:0:0:0:
200,171,55361,1,8,0:0:0:0:
200,171,55609,1,0,0:0:0:0:
200,171,55981,1,0,0:0:0:0:
200,171,56352,1,8,0:0:0:0:
200,171,57592,1,8,0:0:0:0:
200,171,57964,1,0,0:0:0:0:
200,171,58336,1,0,0:0:0:0:
200,171,59328,1,8,0:0:0:0:
200,171,59576,1,0,0:0:0:0:
200,171,59948,1,0,0:0:0:0:
200,171,60319,1,8,0:0:0:0:
200,171,61559,1,8,0:0:0:0:
200,171,61931,1,0,0:0:0:0:
200,171,62303,1,8,0:0:0:0:
200,171,62551,1,8,0:0:0:0:
200,171,62799,1,0,0:0:0:0:
200,171,63047,1,8,0:0:0:0:
195,157,63295,1,8,0:0:0:0:
195,157,63543,1,4,0:0:0:0:
195,157,64286,1,8,0:0:0:0:
195,157,64534,1,0,0:0:0:0:
195,157,64782,1,8,0:0:0:0:
195,157,65030,1,8,0:0:0:0:
195,157,65278,1,0,0:0:0:0:
195,157,65526,1,8,0:0:0:0:
195,157,65898,1,0,0:0:0:0:
195,157,66270,1,0,0:0:0:0:
195,157,66766,1,0,0:0:0:0:
195,157,67014,1,8,0:0:0:0:
195,157,67262,1,8,0:0:0:0:
195,157,67510,1,0,0:0:0:0:
195,157,67881,1,0,0:0:0:0:
195,157,68253,1,0,0:0:0:0:
195,157,68997,1,8,0:0:0:0:
195,157,69245,1,0,0:0:0:0:
195,157,69493,1,0,0:0:0:0:
195,157,69865,1,0,0:0:0:0:
195,157,70237,1,8,0:0:0:0:
195,157,70733,1,0,0:0:0:0:
195,157,70981,1,8,0:0:0:0:
195,157,71229,1,8,0:0:0:0:
195,157,71476,1,0,0:0:0:0:
195,157,71848,1,0,0:0:0:0:
195,157,72220,1,0,0:0:0:0:
195,157,72964,1,8,0:0:0:0:
195,157,73212,1,0,0:0:0:0:
195,157,73460,1,8,0:0:0:0:
195,157,73832,1,8,0:0:0:0:
195,157,74204,1,0,0:0:0:0:
195,157,74948,1,8,0:0:0:0:
195,157,75195,1,0,0:0:0:0:
195,157,75443,1,0,0:0:0:0:
195,157,75815,1,0,0:0:0:0:
195,157,76187,1,8,0:0:0:0:
195,157,76931,1,8,0:0:0:0:
195,157,77179,1,0,0:0:0:0:
195,157,77427,1,0,0:0:0:0:
195,157,77799,1,0,0:0:0:0:
195,157,78171,1,0,0:0:0:0:
195,157,78667,1,0,0:0:0:0:
195,157,78914,1,8,0:0:0:0:
195,157,79162,1,8,0:0:0:0:
195,157,79410,1,0,0:0:0:0:
195,157,79782,1,0,0:0:0:0:
195,157,80154,1,0,0:0:0:0:
195,157,80898,1,8,0:0:0:0:
195,157,81146,1,0,0:0:0:0:
195,157,81394,1,0,0:0:0:0:
195,157,81766,1,0,0:0:0:0:
195,157,82138,1,8,0:0:0:0:
195,157,83129,1,0,0:0:0:0:
195,157,83377,1,0,0:0:0:0:
195,157,83749,1,8,0:0:0:0:
195,157,84121,1,0,0:0:0:0:
195,157,84865,1,8,0:0:0:0:
195,157,85113,1,0,0:0:0:0:
195,157,85361,1,8,0:0:0:0:
195,157,85733,1,8,0:0:0:0:
195,157,86105,1,0,0:0:0:0:
195,157,86352,1,8,0:0:0:0:
144,153,86600,1,0,0:0:0:0:
144,153,86848,1,8,0:0:0:0:
144,153,87096,1,0,0:0:0:0:
144,153,87344,1,0,0:0:0:0:
144,153,87716,1,0,0:0:0:0:
144,153,88088,1,0,0:0:0:0:
144,152,89328,1,0,0:0:0:0:
144,152,89700,1,0,0:0:0:0:
144,152,90071,1,0,0:0:0:0:
144,152,91063,1,8,0:0:0:0:
144,152,91311,1,0,0:0:0:0:
144,152,91683,1,0,0:0:0:0:
144,152,92055,1,8,0:0:0:0:
144,152,93295,1,12,0:0:0:0:
223,167,94038,1,0,0:0:0:0:
223,167,94286,1,8,0:0:0:0:
223,167,94534,1,0,0:0:0:0:
188,170,94782,1,8,0:0:0:0:
188,170,95030,1,8,0:0:0:0:
188,170,95278,1,0,0:0:0:0:
188,170,95650,1,8,0:0:0:0:
188,170,96022,1,0,0:0:0:0:
188,170,97262,1,8,0:0:0:0:
188,170,97633,1,0,0:0:0:0:
188,170,98005,1,0,0:0:0:0:
188,170,98997,1,8,0:0:0:0:
188,170,99245,1,0,0:0:0:0:
188,170,99617,1,0,0:0:0:0:
188,170,99989,1,8,0:0:0:0:
188,170,101229,1,0,0:0:0:0:
188,170,101600,1,0,0:0:0:0:
188,170,101972,1,0,0:0:0:0:
188,170,102220,1,8,0:0:0:0:
188,170,102468,1,8,0:0:0:0:
188,170,102716,1,0,0:0:0:0:
188,170,102964,1,8,0:0:0:0:
188,170,103212,1,0,0:0:0:0:
188,170,103584,1,0,0:0:0:0:
188,170,103956,1,0,0:0:0:0:
188,170,105195,1,8,0:0:0:0:
188,170,105567,1,0,0:0:0:0:
188,170,105939,1,0,0:0:0:0:
188,170,106931,1,8,0:0:0:0:
188,170,107179,1,0,0:0:0:0:
188,170,107551,1,0,0:0:0:0:
188,170,107923,1,8,0:0:0:0:
188,170,109162,1,8,0:0:0:0:
188,170,109534,1,0,0:0:0:0:
188,170,109906,1,0,0:0:0:0:
188,170,110154,1,8,0:0:0:0:
188,170,110402,1,8,0:0:0:0:
188,170,110650,1,0,0:0:0:0:
188,170,110898,1,8,0:0:0:0:
188,170,111146,1,0,0:0:0:0:
188,170,111518,1,0,0:0:0:0:
188,170,111890,1,0,0:0:0:0:
189,170,113129,1,8,0:0:0:0:
189,170,113501,1,0,0:0:0:0:
189,170,113873,1,0,0:0:0:0:
189,170,114865,1,8,0:0:0:0:
189,170,115113,1,0,0:0:0:0:
189,170,115485,1,0,0:0:0:0:
189,170,115857,1,8,0:0:0:0:
189,170,117096,1,8,0:0:0:0:
189,170,117468,1,0,0:0:0:0:
189,170,117840,1,0,0:0:0:0:
189,170,118088,1,8,0:0:0:0:
189,170,118336,1,0,0:0:0:0:
189,170,118584,1,8,0:0:0:0:
189,170,118832,1,8,0:0:0:0:
189,170,119080,1,0,0:0:0:0:
189,170,119452,1,0,0:0:0:0:
189,170,119824,1,8,0:0:0:0:
189,170,121063,1,8,0:0:0:0:
189,170,121435,1,0,0:0:0:0:
189,170,121807,1,0,0:0:0:0:
189,170,122799,1,8,0:0:0:0:
189,170,123047,1,0,0:0:0:0:
189,170,123419,1,0,0:0:0:0:
189,170,123791,1,0,0:0:0:0:
189,170,125030,1,8,0:0:0:0:
189,170,125402,1,8,0:0:0:0:
189,170,125774,1,0,0:0:0:0:
189,170,126270,1,0,0:0:0:0:
189,170,126518,1,0,0:0:0:0:
189,170,126766,1,0,0:0:0:0:
