osu file format v14

[General]
AudioFilename: audio.mp3
AudioLeadIn: 0
PreviewTime: 62132
Countdown: 0
SampleSet: Soft
StackLeniency: 0.8
Mode: 0
LetterboxInBreaks: 0
WidescreenStoryboard: 0

[Editor]
DistanceSpacing: 0.8
BeatDivisor: 4
GridSize: 16
TimelineZoom: 1

[Metadata]
Title:Friend Shitai
TitleUnicode:ふ・れ・ん・ど・し・た・い
Artist:Ebisuzawa Kurumi (CV: Ozawa Ari)
ArtistUnicode:恵飛須沢胡桃 (CV: 小澤亜李)
Creator:Ayucchi
Version:Hard
Source:がっこうぐらし!
Tags:anime japanese school live school-live gakkou gurashi op opening オリジナルサウンドトラック 3 Original Soundtrack solo Demonical Blitzifyyy zan1to myshovelkurumi zan
BeatmapID:2202401
BeatmapSetID:1054003

[Difficulty]
HPDrainRate:4
CircleSize:3.5
OverallDifficulty:6
ApproachRate:7
SliderMultiplier:1.4
SliderTickRate:1

[Events]
//Background and Video events
0,0,"a.jpg",0,0
//Break Periods
//Storyboard Layer 0 (Background)
//Storyboard Layer 1 (Fail)
//Storyboard Layer 2 (Pass)
//Storyboard Layer 3 (Foreground)
//Storyboard Layer 4 (Overlay)
//Storyboard Sound Samples

[TimingPoints]
612,405.405405405405,4,2,1,40,1,0
612,-125,4,2,1,50,0,0
2233,-111.111111111111,4,2,1,50,0,0
3855,-100,4,2,1,65,0,0
8314,-100,4,2,2,70,0,0
8720,-90.9090909090909,4,2,1,80,0,1
20882,-90.9090909090909,4,2,2,60,0,1
21287,-117.647058823529,4,2,1,60,0,1
21693,-100,4,2,1,60,0,0
33855,-166.666666666667,4,2,1,60,0,0
34666,-117.647058823529,4,2,1,50,0,0
47639,-153.846153846154,4,2,1,35,0,0
54125,-100,4,2,1,65,0,0
61828,-100,4,2,2,70,0,0
62233,-90.9090909090909,4,2,1,80,0,1
87368,-90.9090909090909,4,2,2,80,0,0

[Colours]
Combo1 : 184,8,106
Combo2 : 169,56,169
Combo3 : 255,183,197
Combo4 : 236,158,121

[HitObjects]
104,83,612,6,0,P|156:104|214:92,1,112,2|0,0:0|0:0,0:0:0:0:
303,58,1422,2,0,L|293:174,1,112,2|0,0:0|0:0,0:0:0:0:
227,248,2233,6,0,P|284:270|345:258,1,125.999996154785,2|0,0:0|0:0,0:0:0:0:
443,219,3043,2,0,L|432:345,1,125.999996154785,2|0,0:0|0:0,0:0:0:0:
292,290,3855,6,0,L|299:344,4,35,2|2|2|2|2,1:2|0:0|0:0|0:0|0:0,0:0:0:0:
200,233,4666,2,0,L|207:179,4,35,2|2|2|2|2,1:2|0:0|0:0|0:0|0:0,0:0:0:0:
124,324,5476,2,0,L|131:378,4,35,2|2|2|2|2,1:2|0:0|0:0|0:0|0:0,0:0:0:0:
32,267,6287,2,0,L|39:213,4,35,2|2|2|2|2,1:2|0:0|0:0|0:0|0:0,0:0:0:0:
118,161,8314,6,0,P|154:140|108:136,1,105,10|0,0:0|0:0,0:0:0:0:
112,172,8720,6,0,P|154:183|200:171,1,77.0000023498536,6|2,1:2|0:0,0:0:0:0:
250,109,9125,1,10,0:0:0:0:
316,169,9328,2,0,P|332:243|306:342,1,154.000004699707,2|2,0:0|0:0,0:0:0:0:
242,361,9936,2,0,P|197:347|156:368,1,77.0000023498536,10|2,0:0|0:0,0:0:0:0:
73,372,10341,6,0,L|84:281,1,77.0000023498536,2|2,1:2|0:0,0:0:0:0:
171,268,10747,2,0,L|160:177,1,77.0000023498536,10|2,0:0|0:0,0:0:0:0:
87,131,11152,2,0,P|143:160|243:136,1,154.000004699707,2|8,1:2|0:0,0:0:0:0:
282,71,11760,1,2,0:0:0:0:
224,0,11963,6,0,P|195:31|194:81,2,77.0000023498536,2|2|10,1:2|0:0|0:0,0:0:0:0:
328,0,12571,2,0,B|418:-16|375:55|481:37,1,154.000004699707,2|2,0:0|0:0,0:0:0:0:
475,119,13179,2,0,P|465:162|471:207,1,77.0000023498536,10|2,0:0|0:0,0:0:0:0:
399,261,13584,6,0,L|308:247,1,77.0000023498536,6|2,1:2|0:0,0:0:0:0:
256,197,13990,1,10,0:0:0:0:
202,292,14193,2,0,B|216:241|216:241|189:125,1,154.000004699707,6|0,1:2|1:2,0:0:0:0:
193,142,14699,1,0,1:2:0:0:
193,142,14801,1,8,2:2:0:0:
120,206,15003,1,0,1:2:0:0:
120,206,15105,1,0,1:2:0:0:
120,206,15206,6,0,L|38:213,1,77.0000023498536,6|2,1:2|0:0,0:0:0:0:
69,124,15611,1,14,0:0:0:0:
10,60,15814,2,0,B|57:29|57:29|175:55,1,154.000004699707,2|2,0:0|0:0,0:0:0:0:
236,94,16422,2,0,L|231:171,1,77.0000023498536,10|2,0:0|0:0,0:0:0:0:
191,260,16828,6,0,P|236:270|276:256,1,77.0000023498536,2|2,1:2|0:0,0:0:0:0:
323,200,17233,2,0,P|368:206|400:234,1,77.0000023498536,10|2,0:0|0:0,0:0:0:0:
449,300,17639,2,0,P|420:241|461:152,1,154.000004699707,2|8,1:2|0:0,0:0:0:0:
512,106,18247,1,2,0:0:0:0:
466,33,18449,6,0,L|295:50,1,154.000004699707,6|10,1:2|0:0,0:0:0:0:
340,134,19057,2,0,B|367:177|367:177|339:311,1,154.000004699707,6|2,1:2|1:2,0:0:0:0:
277,330,19666,1,10,0:0:0:0:
215,272,19868,6,0,B|174:264|140:286|150:295|113:322|47:287,1,154.000004699707,6|2,1:2|1:2,0:0:0:0:
99,218,20476,2,0,L|83:139,1,77.0000023498536,2|2,1:2|1:2,0:0:0:0:
140,66,20882,1,14,0:0:0:0:
140,66,21287,6,0,P|189:67|233:105,1,89.2500017023087,2|0,0:0|0:0,0:0:0:0:
225,105,21693,6,0,L|222:186,1,70,6|2,1:2|0:0,0:0:0:0:
169,246,22098,1,10,0:0:0:0:
169,246,22301,2,0,P|214:216|308:234,1,140,2|2,0:0|0:0,0:0:0:0:
384,275,22909,2,0,P|377:238|395:191,1,70,10|2,0:0|0:0,0:0:0:0:
451,134,23314,6,0,B|365:113|365:113|294:147,2,140,2|10|2,1:2|0:0|1:2,0:0:0:0:
485,37,24328,1,0,0:0:0:0:
485,37,24530,2,0,L|399:42,1,70,8|0,0:0|0:0,0:0:0:0:
331,86,24936,6,0,L|245:81,1,70,2|2,1:2|0:0,0:0:0:0:
198,27,25341,1,10,0:0:0:0:
198,27,25544,2,0,P|222:97|170:169,1,140,2|2,0:0|0:0,0:0:0:0:
109,160,26152,2,0,P|91:196|105:241,1,70,10|2,0:0|0:0,0:0:0:0:
117,311,26557,6,0,B|152:298|166:276|166:276|211:266|258:299,1,140,2|8,1:2|0:0,0:0:0:0:
315,351,27166,1,2,0:0:0:0:
393,297,27368,1,4,1:2:0:0:
479,348,27571,1,2,0:0:0:0:
479,348,27672,1,2,0:0:0:0:
479,348,27774,2,0,P|490:303|480:251,1,70,10|2,0:0|0:0,0:0:0:0:
438,205,28179,6,0,P|426:161|435:123,1,70,6|2,1:2|0:0,0:0:0:0:
502,77,28584,1,10,0:0:0:0:
502,77,28787,2,0,L|359:104,1,140,2|2,0:0|0:0,0:0:0:0:
303,165,29395,2,0,L|230:154,1,70,10|2,0:0|0:0,0:0:0:0:
150,118,29801,6,0,B|130:163|145:191|156:180|170:223|138:262,2,140,2|10|2,1:2|0:0|1:2,0:0:0:0:
196,45,30814,1,0,0:0:0:0:
196,45,31017,2,0,P|228:76|238:112,1,70,10|0,0:0|0:0,0:0:0:0:
259,188,31422,6,0,L|335:178,1,70,6|2,1:2|0:0,0:0:0:0:
396,110,31828,1,10,0:0:0:0:
396,110,32030,2,0,B|366:152|366:152|399:251,1,140,2|2,1:2|1:2,0:0:0:0:
424,335,32639,2,0,P|390:323|336:333,1,70,10|2,0:0|0:0,0:0:0:0:
290,384,33044,5,6,1:2:0:0:
153,321,33449,1,6,1:2:0:0:
24,372,33855,6,0,P|10:321|36:224,1,146.999995513916,6|0,1:2|0:0,0:0:0:0:
54,204,34666,6,0,P|103:210|132:203,1,59.5000011348725,0|2,1:2|0:0,0:0:0:0:
165,126,35071,1,10,0:0:0:0:
165,126,35274,2,0,P|213:133|239:148,1,59.5000011348725,2|2,0:0|0:0,0:0:0:0:
305,203,35679,1,2,1:2:0:0:
310,214,35780,2,0,L|322:118,1,89.2500017023087,2|2,0:0|0:0,0:0:0:0:
382,64,36287,6,0,P|407:107|404:142,1,59.5000011348725,2|2,1:2|0:0,0:0:0:0:
397,200,36693,2,0,P|397:249|418:278,1,59.5000011348725,10|2,0:0|0:0,0:0:0:0:
487,295,37098,1,2,0:0:0:0:
418,362,37301,1,2,1:2:0:0:
429,367,37402,2,0,P|379:381|332:369,1,89.2500017023087,2|2,0:0|0:0,0:0:0:0:
277,309,37909,6,0,P|268:273|276:229,1,59.5000011348725,0|2,1:2|0:0,0:0:0:0:
332,189,38314,1,10,0:0:0:0:
332,189,38517,2,0,L|324:129,1,59.5000011348725,2|2,0:0|0:0,0:0:0:0:
252,80,38922,1,2,1:2:0:0:
193,141,39125,2,0,L|118:133,1,59.5000011348725,10|2,0:0|0:0,0:0:0:0:
50,93,39530,6,0,P|41:127|52:174,1,59.5000011348725,10|2,0:0|1:2,0:0:0:0:
94,218,39936,2,0,P|103:252|92:299,1,59.5000011348725,10|2,0:0|1:2,0:0:0:0:
56,350,40341,5,10,0:0:0:0:
56,350,40544,1,10,0:0:0:0:
143,384,40747,1,10,0:0:0:0:
143,384,40949,1,10,0:0:0:0:
220,328,41152,6,0,P|261:324|304:352,1,89.2500017023087,4|0,1:2|0:0,0:0:0:0:
307,370,41557,2,0,L|391:353,1,59.5000011348725,10|2,0:0|0:0,0:0:0:0:
459,352,41963,1,2,1:2:0:0:
417,266,42166,1,2,0:0:0:0:
410,279,42267,2,0,P|418:229|456:198,1,89.2500017023087,2|2,0:0|0:0,0:0:0:0:
417,117,42774,6,0,L|348:106,1,59.5000011348725,2|2,1:2|0:0,0:0:0:0:
293,179,43179,2,0,L|224:190,1,59.5000011348725,10|2,0:0|0:0,0:0:0:0:
155,150,43584,2,0,P|148:113|165:70,1,59.5000011348725,2|2,1:2|0:0,0:0:0:0:
181,65,43889,1,2,0:0:0:0:
181,65,43990,1,10,0:0:0:0:
286,65,44193,1,0,1:2:0:0:
286,65,44294,1,0,1:2:0:0:
286,65,44395,6,0,P|334:47|405:66,1,119.000002269745,0|10,1:2|0:0,0:0:0:0:
466,113,45003,1,2,0:0:0:0:
387,160,45206,2,0,L|394:226,1,59.5000011348725,2|2,1:2|0:0,0:0:0:0:
479,227,45611,2,0,L|472:286,1,59.5000011348725,10|2,0:0|0:0,0:0:0:0:
429,353,46017,6,0,P|462:366|497:364,2,59.5000011348725,2|2|10,1:2|0:0|0:0,0:0:0:0:
360,300,46625,1,6,1:2:0:0:
360,300,47639,6,0,L|267:309,1,90.9999958343508,6|0,1:2|0:0,0:0:0:0:
202,361,48247,1,2,1:2:0:0:
202,361,48449,2,0,P|184:311|198:269,1,90.9999958343508,2|10,1:2|0:0,0:0:0:0:
238,208,49057,1,0,0:0:0:0:
238,208,49260,6,0,B|272:221|272:221|345:215,2,90.9999958343508,2|2|2,1:2|0:0|1:2,0:0:0:0:
182,148,50274,2,0,L|132:157,1,45.4999979171754,0|8,0:0|0:0,0:0:0:0:
13,32,50882,6,0,P|55:57|109:43,1,90.9999958343508,6|0,1:2|0:0,0:0:0:0:
180,16,51490,1,2,1:2:0:0:
180,16,51693,2,0,L|185:83,1,45.4999979171754,2|0,1:2|0:0,0:0:0:0:
269,78,52098,2,0,L|265:123,1,45.4999979171754,10|2,0:0|0:0,0:0:0:0:
270,213,52503,6,0,P|227:202|170:207,2,90.9999958343508,2|2|2,1:2|0:0|1:2,0:0:0:0:
117,120,53720,1,8,0:0:0:0:
117,120,54125,6,0,P|94:160|95:216,1,70,6|2,1:2|0:0,0:0:0:0:
168,221,54530,2,0,P|179:265|162:319,1,70,2|2,0:0|0:0,0:0:0:0:
127,370,54936,1,10,0:0:0:0:
127,370,55341,6,0,L|221:376,1,70,6|2,1:2|0:0,0:0:0:0:
222,288,55747,2,0,L|316:282,1,70,2|2,0:0|0:0,0:0:0:0:
373,260,56152,2,0,P|379:224|354:180,1,70,10|2,0:0|0:0,0:0:0:0:
279,169,56557,6,0,P|340:153|349:82,1,140,14|2,0:0|0:0,0:0:0:0:
270,52,57166,1,2,0:0:0:0:
181,101,57368,6,0,L|188:154,4,35,2|2|2|2|2,1:2|0:0|0:0|0:0|0:0,0:0:0:0:
82,194,58179,2,0,L|89:141,4,35,2|2|2|2|2,1:2|0:0|0:0|0:0|0:0,0:0:0:0:
195,247,58990,2,0,L|202:300,4,35,2|2|2|2|2,1:2|0:0|0:0|0:0|0:0,0:0:0:0:
96,340,59801,2,0,L|103:287,4,35,2|2|2|2|2,1:2|0:0|0:0|0:0|0:0,0:0:0:0:
272,99,61828,6,0,P|293:135|297:89,1,105,8|0,0:0|0:0,0:0:0:0:
260,92,62234,6,0,P|249:134|261:180,1,77.0000023498536,6|2,1:2|0:0,0:0:0:0:
311,237,62639,1,10,0:0:0:0:
385,288,62841,2,0,B|338:274|338:274|209:304,1,154.000004699707,2|2,0:0|0:0,0:0:0:0:
153,323,63449,2,0,P|133:284|138:239,1,77.0000023498536,10|2,0:0|0:0,0:0:0:0:
169,174,63855,6,0,L|79:166,1,77.0000023498536,2|2,1:2|0:0,0:0:0:0:
155,87,64260,2,0,L|245:79,1,77.0000023498536,10|2,0:0|0:0,0:0:0:0:
306,24,64666,2,0,P|275:84|306:169,1,154.000004699707,2|8,1:2|0:0,0:0:0:0:
381,136,65274,1,0,0:0:0:0:
460,159,65476,6,0,P|468:214|448:257,1,77.0000023498536,2|2,1:2|0:0,0:0:0:0:
397,291,65882,1,10,0:0:0:0:
346,222,66084,2,0,B|306:210|306:210|193:255,1,154.000004699707,2|2,0:0|0:0,0:0:0:0:
140,327,66693,2,0,L|107:242,1,77.0000023498536,10|2,0:0|0:0,0:0:0:0:
40,201,67098,5,6,1:2:0:0:
98,137,67301,1,2,0:0:0:0:
179,169,67503,1,10,0:0:0:0:
247,102,67706,2,0,B|271:146|271:146|256:266,1,154.000004699707,6|0,1:2|1:2,0:0:0:0:
258,249,68213,1,0,1:2:0:0:
258,249,68314,1,8,2:2:0:0:
333,331,68517,1,0,1:2:0:0:
333,331,68618,1,0,1:2:0:0:
333,331,68720,6,0,P|386:316|439:333,1,77.0000023498536,6|2,1:2|0:0,0:0:0:0:
484,362,69125,1,14,0:0:0:0:
505,280,69328,2,0,L|509:117,1,154.000004699707,2|2,0:0|0:0,0:0:0:0:
487,40,69936,2,0,P|447:35|406:46,1,77.0000023498536,10|2,0:0|0:0,0:0:0:0:
360,113,70341,6,0,L|356:205,1,77.0000023498536,2|2,1:2|0:0,0:0:0:0:
264,244,70747,2,0,L|260:152,1,77.0000023498536,10|2,0:0|0:0,0:0:0:0:
270,83,71152,2,0,P|240:135|145:116,1,154.000004699707,2|8,1:2|0:0,0:0:0:0:
108,58,71760,1,2,0:0:0:0:
30,25,71963,6,0,L|23:113,1,77.0000023498536,2|2,1:2|0:0,0:0:0:0:
69,178,72368,1,10,0:0:0:0:
27,249,72571,2,0,B|66:224|66:224|178:237,1,154.000004699707,2|2,0:0|1:2,0:0:0:0:
241,185,73179,1,10,0:0:0:0:
320,151,73382,6,0,B|344:193|316:242|308:220|297:269|325:326,1,154.000004699707,6|0,1:2|1:2,0:0:0:0:
326,322,73889,1,0,1:2:0:0:
326,322,73990,2,0,P|361:339|406:332,1,77.0000023498536,8|0,2:2|1:2,0:0:0:0:
483,294,74395,5,4,1:2:0:0:
461,191,74598,1,4,1:2:0:0:
439,88,74801,1,4,1:2:0:0:
439,88,75206,6,0,L|339:110,1,77.0000023498536,6|2,1:2|0:0,0:0:0:0:
281,73,75611,1,10,0:0:0:0:
224,138,75814,2,0,P|214:209|268:301,1,154.000004699707,2|2,0:0|0:0,0:0:0:0:
308,214,76422,2,0,P|356:200|399:213,1,77.0000023498536,10|2,0:0|0:0,0:0:0:0:
462,233,76828,6,0,L|472:321,1,77.0000023498536,2|2,1:2|0:0,0:0:0:0:
388,364,77233,2,0,L|378:276,1,77.0000023498536,10|2,0:0|0:0,0:0:0:0:
318,210,77639,2,0,B|291:254|291:254|304:377,1,154.000004699707,2|8,1:2|0:0,0:0:0:0:
217,320,78247,1,2,0:0:0:0:
156,375,78449,6,0,P|122:380|60:370,1,77.0000023498536,2|2,1:2|0:0,0:0:0:0:
81,292,78855,1,10,0:0:0:0:
0,268,79057,2,0,P|-6:209|68:133,1,154.000004699707,2|2,0:0|0:0,0:0:0:0:
122,180,79666,2,0,P|159:191|210:178,1,77.0000023498536,10|2,0:0|0:0,0:0:0:0:
166,100,80071,5,6,1:2:0:0:
224,36,80274,1,2,0:0:0:0:
305,68,80476,1,10,0:0:0:0:
373,1,80679,2,0,B|397:45|397:45|382:165,1,154.000004699707,6|0,1:2|1:2,0:0:0:0:
384,148,81186,1,0,1:2:0:0:
384,148,81287,1,8,2:2:0:0:
461,249,81490,1,0,1:2:0:0:
461,249,81591,1,0,1:2:0:0:
461,249,81693,6,0,P|410:240|374:253,1,77.0000023498536,6|2,1:2|0:0,0:0:0:0:
365,327,82098,1,10,0:0:0:0:
279,310,82301,2,0,L|114:347,1,154.000004699707,2|2,0:0|0:0,0:0:0:0:
54,294,82909,2,0,P|42:247|55:211,1,77.0000023498536,10|2,0:0|0:0,0:0:0:0:
130,180,83314,6,0,L|214:186,1,77.0000023498536,2|2,1:2|0:0,0:0:0:0:
262,89,83720,2,0,L|178:95,1,77.0000023498536,10|2,0:0|0:0,0:0:0:0:
123,39,84125,2,0,P|153:102|120:190,1,154.000004699707,2|8,1:2|0:0,0:0:0:0:
57,235,84733,1,2,0:0:0:0:
115,305,84936,6,0,B|148:271|148:271|287:267,1,154.000004699707,6|10,1:2|0:0,0:0:0:0:
334,305,85544,2,0,B|358:250|324:213|324:213|315:167|353:129,1,154.000004699707,6|2,1:2|1:2,0:0:0:0:
407,112,86152,1,10,0:0:0:0:
341,56,86355,6,0,L|172:81,1,154.000004699707,6|2,1:2|1:2,0:0:0:0:
129,144,86963,1,2,1:2:0:0:
175,215,87166,1,2,1:2:0:0:
129,286,87368,1,14,0:0:0:0:
