osu file format v14

[General]
AudioFilename: audio.mp3
AudioLeadIn: 0
PreviewTime: 63106
Countdown: 0
SampleSet: Soft
StackLeniency: 0.7
Mode: 0
LetterboxInBreaks: 0
WidescreenStoryboard: 1

[Editor]
Bookmarks: 17996,30128,46231,53290,63878
DistanceSpacing: 0.9
BeatDivisor: 4
GridSize: 4
TimelineZoom: 1

[Metadata]
Title:HERO
TitleUnicode:HERO
Artist:Ebisuzawa Kurumi (CV: Ozawa Ari) & Wakasa Yuuri (CV: M.A.O)
ArtistUnicode:恵飛須沢胡桃 (CV: 小澤亜李) & 若狭悠里 (CV: M・A・O)
Creator:Ayucchi
Version:Insane
Source:がっこうぐらし!
Tags:anime japanese character song school live! gakkou gurashi! School-Live! myshovelkurumi short cut version ver mocaotic demonical ヤナガワタカオ
BeatmapID:2236520
BeatmapSetID:1068297

[Difficulty]
HPDrainRate:5
CircleSize:4
OverallDifficulty:7
ApproachRate:8
SliderMultiplier:1.6
SliderTickRate:1

[Events]
//Background and Video events
0,0,"god i love kurumi-min.png",0,0
//Break Periods
//Storyboard Layer 0 (Background)
//Storyboard Layer 1 (Fail)
//Storyboard Layer 2 (Pass)
//Storyboard Layer 3 (Foreground)
//Storyboard Layer 4 (Overlay)
//Storyboard Sound Samples

[TimingPoints]
354,441.176470588235,4,2,0,40,1,0
2118,-100,4,2,1,40,0,0
3442,-100,4,2,2,40,0,0
3883,-100,4,2,1,55,0,0
17559,-125,4,2,1,55,0,0
18001,-125,4,2,1,35,0,0
30133,-100,4,2,1,45,0,0
46236,-125,4,2,1,40,0,0
53295,-100,4,2,1,40,0,0
60353,-100,4,2,1,65,0,0
63001,-166.666666666667,4,2,1,65,0,0
63442,-100,4,2,2,65,0,0
63662,-100,4,2,1,65,0,0
63883,-83.3333333333333,4,2,1,75,0,1
91677,-100,4,2,1,50,0,0

[Colours]
Combo1 : 113,194,255
Combo2 : 130,157,45
Combo3 : 164,164,164
Combo4 : 255,145,227
Combo5 : 169,56,169

[HitObjects]
256,192,354,12,0,1898,0:0:0:0:
424,122,2118,6,0,L|429:193,1,40,8|8,0:0|0:0,0:0:0:0:
336,226,2339,2,0,L|331:155,1,40,8|8,0:0|0:0,0:0:0:0:
415,289,2559,1,8,0:0:0:0:
234,205,2780,1,8,0:0:0:0:
234,205,2890,1,8,0:0:0:0:
234,205,3001,1,8,0:0:0:0:
286,346,3221,1,0,1:2:0:0:
109,355,3442,2,0,P|118:311|95:233,1,120,12|0,0:0|0:0,0:0:0:0:
123,273,3883,6,0,P|164:293|208:285,1,80,2|0,1:2|0:0,0:0:0:0:
227,200,4324,1,8,0:0:0:0:
148,107,4545,2,0,L|142:190,1,80,2|0,0:0|1:2,0:0:0:0:
242,97,4986,2,0,L|247:17,1,80,2|8,0:0|0:0,0:0:0:0:
105,30,5427,6,0,B|66:64|66:64|56:196,1,160,2|2,0:0|0:0,0:0:0:0:
46,255,6089,2,0,P|87:240|131:250,1,80,10|2,0:0|0:0,0:0:0:0:
140,274,6420,1,2,0:0:0:0:
140,274,6530,1,0,1:2:0:0:
226,178,6751,1,2,0:0:0:0:
265,344,6971,1,10,0:0:0:0:
222,166,7192,1,2,0:0:0:0:
394,263,7412,6,0,L|295:254,1,80,2|0,1:2|0:0,0:0:0:0:
361,348,7853,1,8,0:0:0:0:
462,207,8074,2,0,P|482:256|475:294,1,80,2|0,0:0|1:2,0:0:0:0:
379,181,8515,2,0,P|382:128|405:97,1,80,2|8,0:0|0:0,0:0:0:0:
509,36,8956,6,0,B|448:43|448:43|430:27|430:27|339:39,1,160,2|2,0:0|0:0,0:0:0:0:
289,139,9618,1,8,0:0:0:0:
230,12,9839,1,2,1:2:0:0:
230,12,9949,1,0,1:2:0:0:
230,12,10059,1,0,1:2:0:0:
181,103,10280,1,2,0:0:0:0:
81,45,10501,1,10,0:0:0:0:
81,45,10611,2,0,P|68:82|70:134,1,80,2|0,0:0|0:0,0:0:0:0:
111,154,10942,6,0,P|73:155|27:183,1,80,2|0,1:2|0:0,0:0:0:0:
8,254,11383,1,8,0:0:0:0:
94,314,11603,2,0,L|89:220,1,80,2|0,0:0|1:2,0:0:0:0:
199,150,12045,2,0,L|194:244,1,80,2|8,0:0|0:0,0:0:0:0:
185,368,12486,6,0,B|220:327|220:327|330:324,1,160,2|2,0:0|0:0,0:0:0:0:
417,377,13148,2,0,P|436:338|419:281,1,80,10|2,0:0|0:0,0:0:0:0:
399,285,13478,1,2,0:0:0:0:
399,285,13589,1,0,1:2:0:0:
450,185,13809,1,2,0:0:0:0:
303,201,14030,1,10,0:0:0:0:
463,183,14251,1,2,0:0:0:0:
233,247,14471,6,0,P|220:200|232:159,1,80,2|0,1:2|0:0,0:0:0:0:
355,153,14912,1,8,0:0:0:0:
296,25,15133,2,0,P|289:52|284:124,1,80,2|0,0:0|1:2,0:0:0:0:
363,241,15574,2,0,P|370:214|375:142,1,80,2|8,0:0|0:0,0:0:0:0:
478,66,16015,6,0,L|469:241,1,160,12|0,0:0|1:2,0:0:0:0:
304,289,16677,1,14,0:0:0:0:
344,136,16898,1,0,1:2:0:0:
344,136,17008,1,0,1:2:0:0:
344,136,17118,2,0,P|300:128|251:152,1,80,14|0,0:0|1:2,0:0:0:0:
204,222,17559,2,0,L|199:332,1,96,14|0,0:0|0:0,0:0:0:0:
141,369,18001,6,0,P|196:353|285:370,2,128,6|0|0,1:2|1:2|1:2,0:0:0:0:
46,319,19103,1,2,0:0:0:0:
115,211,19324,2,0,L|123:285,1,64,10|2,0:0|0:0,0:0:0:0:
42,167,19765,6,0,P|84:130|172:148,1,128,2|2,1:2|1:2,0:0:0:0:
206,215,20427,2,0,L|272:202,1,64,2|0,0:0|1:2,0:0:0:0:
339,131,20868,1,2,0:0:0:0:
395,241,21089,1,10,0:0:0:0:
412,86,21309,1,2,0:0:0:0:
412,86,21420,1,2,0:0:0:0:
412,86,21530,6,0,P|364:51|281:69,2,128,0|0|0,1:2|1:2|1:2,0:0:0:0:
421,166,22633,1,2,0:0:0:0:
275,137,22853,2,0,L|343:130,1,64,10|2,0:0|0:0,0:0:0:0:
212,200,23295,6,0,B|190:158|190:158|205:54,1,128,2|2,1:2|1:2,0:0:0:0:
125,28,23956,1,2,0:0:0:0:
22,109,24177,2,0,L|95:117,1,64,0|2,1:2|0:0,0:0:0:0:
106,139,24508,1,0,1:2:0:0:
106,139,24618,1,10,0:0:0:0:
37,217,24839,1,2,1:2:0:0:
149,254,25059,6,0,B|98:269|98:269|90:283|90:283|16:304,2,128,0|0|0,1:2|1:2|1:2,0:0:0:0:
157,336,26162,1,2,0:0:0:0:
240,217,26383,2,0,L|230:310,1,64,10|2,0:0|0:0,0:0:0:0:
248,310,26714,1,2,0:0:0:0:
248,310,26824,6,0,P|279:323|320:315,1,64,0|2,1:2|0:0,0:0:0:0:
398,217,27265,2,0,L|398:299,1,64,2|0,1:2|0:0,0:0:0:0:
489,210,27706,2,0,L|489:128,1,64,0|0,1:2|0:0,0:0:0:0:
381,20,28148,1,10,0:0:0:0:
399,135,28368,1,0,0:0:0:0:
509,55,28589,6,0,P|478:67|431:65,1,64,2|0,1:2|0:0,0:0:0:0:
381,20,29030,1,2,1:2:0:0:
322,79,29251,2,0,L|317:157,1,64,2|0,0:0|1:2,0:0:0:0:
249,35,29692,1,2,0:0:0:0:
170,150,29912,1,8,0:0:0:0:
170,150,30023,1,0,1:2:0:0:
170,150,30133,6,0,P|247:130|315:210,1,160,6|2,1:2|1:2,0:0:0:0:
246,304,30795,2,0,L|243:223,1,80,14|0,0:0|1:2,0:0:0:0:
233,212,31126,1,0,1:2:0:0:
233,212,31236,1,4,1:2:0:0:
180,355,31456,1,0,1:2:0:0:
88,278,31677,2,0,P|130:270|175:282,1,80,14|0,0:0|0:0,0:0:0:0:
278,372,32118,6,0,L|370:361,1,80,6|2,1:2|0:0,0:0:0:0:
379,336,32449,1,2,0:0:0:0:
379,336,32559,2,0,P|370:294|387:244,1,80,8|2,0:0|0:0,0:0:0:0:
486,305,33001,2,0,P|495:347|478:397,1,80,0|2,1:2|0:0,0:0:0:0:
378,258,33442,1,10,0:0:0:0:
473,206,33662,1,2,0:0:0:0:
394,89,33883,6,0,L|391:177,1,80,2|2,1:2|0:0,0:0:0:0:
372,197,34214,1,2,0:0:0:0:
372,197,34324,2,0,P|333:176|296:176,1,80,10|2,0:0|0:0,0:0:0:0:
232,283,34765,2,0,P|276:283|308:265,1,80,0|2,1:2|0:0,0:0:0:0:
216,131,35206,1,10,0:0:0:0:
168,208,35427,1,2,0:0:0:0:
30,125,35648,6,0,P|73:110|128:121,1,80,0|2,1:2|0:0,0:0:0:0:
126,137,35978,1,2,0:0:0:0:
126,137,36089,2,0,L|136:47,1,80,8|2,0:0|0:0,0:0:0:0:
12,22,36530,2,0,L|2:112,1,80,0|2,1:2|0:0,0:0:0:0:
0,234,36971,1,10,0:0:0:0:
55,169,37192,1,2,0:0:0:0:
151,307,37412,6,0,P|105:288|55:300,1,80,2|2,1:2|0:0,0:0:0:0:
66,322,37743,1,2,0:0:0:0:
66,322,37853,1,10,0:0:0:0:
129,207,38074,2,0,L|225:192,1,80,2|0,0:0|1:2,0:0:0:0:
323,269,38515,1,2,0:0:0:0:
377,193,38736,1,10,0:0:0:0:
318,118,38956,1,2,0:0:0:0:
426,32,39177,6,0,L|424:126,1,80,0|2,1:2|0:0,0:0:0:0:
420,142,39508,1,2,0:0:0:0:
420,142,39618,2,0,P|470:133|507:151,1,80,8|2,0:0|0:0,0:0:0:0:
403,279,40059,2,0,P|353:288|316:270,1,80,0|2,1:2|0:0,0:0:0:0:
457,218,40501,1,10,0:0:0:0:
498,305,40721,1,2,0:0:0:0:
333,357,40942,6,0,L|324:254,1,80,0|2,1:2|0:0,0:0:0:0:
309,253,41273,1,2,0:0:0:0:
309,253,41383,1,10,0:0:0:0:
206,256,41603,1,2,0:0:0:0:
167,344,41824,2,0,P|204:354|254:340,1,80,0|0,1:2|0:0,0:0:0:0:
100,278,42265,1,10,0:0:0:0:
55,354,42486,1,0,0:0:0:0:
5,235,42706,6,0,L|112:248,1,80,2|2,1:2|0:0,0:0:0:0:
104,282,43037,1,2,0:0:0:0:
104,282,43148,2,0,P|93:229|110:191,1,80,10|2,0:0|0:0,0:0:0:0:
227,158,43589,1,0,1:2:0:0:
183,232,43809,1,2,0:0:0:0:
35,104,44030,1,8,0:0:0:0:
35,104,44140,1,0,1:2:0:0:
35,104,44251,6,0,L|163:122,1,120,6|0,1:2|0:0,0:0:0:0:
181,109,44692,1,2,1:2:0:0:
302,81,44912,1,8,0:0:0:0:
269,210,45133,1,2,1:2:0:0:
269,210,45243,1,0,1:2:0:0:
269,210,45353,1,4,1:2:0:0:
428,141,45574,1,2,1:2:0:0:
428,141,45684,1,0,1:2:0:0:
428,141,45795,1,14,0:0:0:0:
302,81,46015,1,0,0:0:0:0:
463,33,46236,6,0,P|447:91|461:181,1,128,6|8,1:2|0:0,0:0:0:0:
512,287,46898,1,2,0:0:0:0:
512,287,47008,1,8,0:0:0:0:
424,239,47228,1,8,0:0:0:0:
424,239,47339,2,0,L|358:251,1,64,2|10,1:2|0:0,0:0:0:0:
211,335,47780,6,0,B|244:309|244:309|344:331,1,128,2|0,1:2|1:2,0:0:0:0:
159,263,48442,1,8,0:0:0:0:
67,352,48662,1,2,0:0:0:0:
66,332,48773,1,8,0:0:0:0:
66,312,48883,1,2,0:0:0:0:
65,292,48993,1,8,0:0:0:0:
65,272,49103,1,0,1:2:0:0:
60,101,49324,1,10,0:0:0:0:
103,198,49545,1,2,0:0:0:0:
53,89,49765,6,0,L|189:75,1,128,2|10,1:2|0:0,0:0:0:0:
349,58,50427,1,2,0:0:0:0:
349,58,50537,1,8,0:0:0:0:
267,31,50758,1,8,0:0:0:0:
267,31,50868,2,0,P|265:70|286:120,1,64,2|8,1:2|0:0,0:0:0:0:
399,169,51309,6,0,P|340:163|284:205,1,128,2|0,1:2|1:2,0:0:0:0:
308,356,51971,1,10,0:0:0:0:
369,250,52192,1,0,1:2:0:0:
369,250,52302,1,8,0:0:0:0:
369,250,52412,2,0,L|376:301,1,32,2|8,1:2|0:0,0:0:0:0:
499,278,52633,1,0,1:2:0:0:
499,278,52743,1,0,1:2:0:0:
499,278,52853,2,0,L|506:227,1,32,2|0,1:2|0:0,0:0:0:0:
437,168,53074,2,0,L|442:200,1,32,0|0,1:2|0:0,0:0:0:0:
483,107,53295,6,0,P|442:92|376:119,1,80,2|0,1:2|0:0,0:0:0:0:
352,230,53736,2,0,L|339:148,1,80,8|0,0:0|0:0,0:0:0:0:
263,29,54177,1,0,1:2:0:0:
257,176,54398,1,2,0:0:0:0:
357,30,54618,1,10,0:0:0:0:
216,101,54839,6,0,B|168:95|139:107|149:121|118:142|39:125,1,160,2|0,0:0|0:0,0:0:0:0:
190,176,55501,1,10,0:0:0:0:
91,54,55721,1,2,0:0:0:0:
9,190,55942,2,0,P|-1:233|26:292,1,80,0|0,1:2|0:0,0:0:0:0:
147,280,56383,1,10,0:0:0:0:
85,228,56603,1,2,0:0:0:0:
9,365,56824,6,0,B|47:335|81:337|81:337|111:378|183:365,1,160,6|10,1:2|0:0,0:0:0:0:
287,261,57486,2,0,L|203:278,1,80,2|0,0:0|1:2,0:0:0:0:
346,366,57927,1,2,0:0:0:0:
351,203,58148,1,10,0:0:0:0:
419,288,58368,1,2,0:0:0:0:
274,169,58589,6,0,P|336:121|415:152,1,160,0|10,1:2|0:0,0:0:0:0:
450,223,59251,1,2,0:0:0:0:
509,47,59471,2,0,L|429:62,1,80,2|0,1:2|0:0,0:0:0:0:
363,154,59912,1,10,0:0:0:0:
363,154,60133,1,2,0:0:0:0:
367,5,60353,5,6,1:0:0:0:
277,187,60574,1,0,0:0:0:0:
213,16,60795,5,10,0:1:0:0:
363,154,61015,1,0,0:0:0:0:
187,98,61236,5,2,1:0:0:0:
367,5,61456,1,0,0:0:0:0:
213,16,61677,5,10,0:1:0:0:
277,187,61898,1,0,0:0:0:0:
132,117,62118,5,14,0:1:0:0:
108,95,62228,1,8,0:0:0:0:
75,95,62339,1,8,0:1:0:0:
47,111,62449,1,8,0:0:0:0:
29,137,62559,2,0,P|22:164|26:198,1,40,14|8,0:1|0:0,0:0:0:0:
73,310,62780,2,0,P|85:294|101:282,1,40,10|8,0:1|0:0,0:0:0:0:
224,177,63001,6,0,L|232:271,1,71.9999978027344,14|0,0:1|0:0,0:0:0:0:
221,295,63442,6,0,P|266:267|314:275,1,80,10|2,0:0|0:0,0:0:0:0:
324,298,63773,1,2,0:0:0:0:
324,298,63883,6,0,P|371:309|441:259,1,95.9999970703126,4|0,1:2|0:0,0:0:0:0:
463,166,64324,1,10,0:0:0:0:
364,229,64545,2,0,L|356:131,1,95.9999970703126,2|0,0:0|1:2,0:0:0:0:
228,199,64986,2,0,L|220:297,1,95.9999970703126,2|8,0:0|0:0,0:0:0:0:
66,156,65427,6,0,P|128:135|172:147,1,95.9999970703126,2|0,0:0|1:2,0:0:0:0:
228,199,65868,1,0,0:0:0:0:
116,54,66089,1,8,0:0:0:0:
131,225,66309,1,2,0:0:0:0:
131,225,66420,1,2,0:0:0:0:
131,225,66530,2,0,P|140:276|108:340,1,95.9999970703126,0|2,1:2|0:0,0:0:0:0:
66,156,66971,1,10,0:0:0:0:
228,199,67192,1,2,0:0:0:0:
51,265,67412,6,0,P|42:214|74:150,1,95.9999970703126,2|0,1:2|0:0,0:0:0:0:
188,40,67853,1,10,0:0:0:0:
86,102,68074,2,0,L|194:122,1,95.9999970703126,2|0,0:0|1:2,0:0:0:0:
282,22,68515,2,0,L|174:42,1,95.9999970703126,2|8,0:0|0:0,0:0:0:0:
240,197,68956,6,0,P|274:160|273:94,1,95.9999970703126,2|0,0:0|1:2,0:0:0:0:
381,25,69398,2,0,P|363:72|388:132,1,95.9999970703126,2|8,0:0|0:0,0:0:0:0:
487,177,69839,1,2,0:0:0:0:
487,177,69949,1,0,1:2:0:0:
487,177,70059,1,0,1:2:0:0:
448,74,70280,1,4,1:2:0:0:
396,209,70501,1,10,0:0:0:0:
454,60,70721,1,8,0:0:0:0:
458,264,70942,6,0,P|411:290|364:287,1,95.9999970703126,2|0,1:2|0:0,0:0:0:0:
324,149,71383,1,10,0:0:0:0:
408,113,71603,2,0,L|395:215,1,95.9999970703126,2|0,0:0|1:2,0:0:0:0:
279,307,72045,2,0,L|266:205,1,95.9999970703126,2|8,0:0|0:0,0:0:0:0:
466,271,72486,6,0,P|429:297|353:293,1,95.9999970703126,2|0,0:0|1:2,0:0:0:0:
395,208,72927,1,0,0:0:0:0:
488,356,73148,1,8,0:0:0:0:
317,245,73368,1,2,0:0:0:0:
317,245,73478,1,2,0:0:0:0:
317,245,73589,2,0,L|221:263,1,95.9999970703126,0|0,1:2|0:0,0:0:0:0:
60,215,74030,1,10,0:0:0:0:
174,335,74251,1,2,0:0:0:0:
3,315,74471,6,0,L|102:292,1,95.9999970703126,2|0,1:2|0:0,0:0:0:0:
173,192,74912,1,10,0:0:0:0:
78,126,75133,2,0,P|57:169|61:217,1,95.9999970703126,2|0,0:0|1:2,0:0:0:0:
169,103,75574,2,0,P|162:55|133:18,1,95.9999970703126,2|0,0:0|1:2,0:0:0:0:
136,186,76015,6,0,B|194:199|239:167|219:163|261:129|316:139,1,191.999994140625,14|8,0:0|0:0,0:0:0:0:
169,103,76677,1,12,0:0:0:0:
296,220,76898,1,0,1:2:0:0:
243,23,77118,1,12,0:0:0:0:
370,83,77339,1,2,1:2:0:0:
370,83,77449,1,2,1:2:0:0:
370,83,77559,2,0,L|429:92,1,47.9999985351563,10|2,0:0|1:2,0:0:0:0:
343,212,77780,2,0,L|284:221,1,47.9999985351563,2|2,0:0|1:2,0:0:0:0:
511,181,78001,6,0,P|521:231|494:288,1,95.9999970703126,6|0,1:2|0:0,0:0:0:0:
373,338,78442,1,10,0:0:0:0:
343,212,78662,2,0,L|443:223,1,95.9999970703126,2|0,0:0|1:2,0:0:0:0:
468,348,79103,2,0,L|368:337,1,95.9999970703126,2|8,0:0|0:0,0:0:0:0:
277,268,79545,6,0,P|282:318|241:368,1,95.9999970703126,2|0,0:0|1:2,0:0:0:0:
195,296,79986,1,2,0:0:0:0:
343,212,80206,1,8,0:0:0:0:
129,235,80427,1,2,0:0:0:0:
129,235,80537,1,2,0:0:0:0:
129,235,80648,2,0,P|105:276|111:322,1,95.9999970703126,0|2,1:2|0:0,0:0:0:0:
277,268,81089,1,10,0:0:0:0:
122,334,81309,1,2,0:0:0:0:
202,130,81530,6,0,L|207:238,1,95.9999970703126,2|0,1:2|0:0,0:0:0:0:
282,96,81971,1,10,0:0:0:0:
161,38,82192,2,0,P|106:38|47:77,1,95.9999970703126,2|0,0:0|1:2,0:0:0:0:
206,225,82633,2,0,P|261:225|320:186,1,95.9999970703126,2|8,0:0|0:0,0:0:0:0:
124,116,83074,6,0,L|118:225,1,95.9999970703126,2|0,0:0|1:2,0:0:0:0:
17,322,83515,2,0,L|11:213,1,95.9999970703126,2|8,0:0|0:0,0:0:0:0:
127,312,83956,1,2,0:0:0:0:
127,312,84067,1,2,0:0:0:0:
127,312,84177,1,0,1:2:0:0:
42,154,84398,1,2,1:2:0:0:
197,258,84618,1,10,0:0:0:0:
34,148,84839,1,8,0:0:0:0:
286,161,85059,6,0,L|288:271,1,95.9999970703126,2|0,1:2|0:0,0:0:0:0:
405,350,85501,1,10,0:0:0:0:
371,222,85721,2,0,P|315:231|282:269,1,95.9999970703126,2|0,0:0|1:2,0:0:0:0:
449,282,86162,2,0,P|470:229|457:182,1,95.9999970703126,2|8,0:0|0:0,0:0:0:0:
373,49,86603,6,0,L|389:144,1,95.9999970703126,2|0,0:0|1:2,0:0:0:0:
468,100,87045,1,0,0:0:0:0:
299,19,87265,1,8,0:0:0:0:
326,200,87486,1,2,0:0:0:0:
326,200,87596,1,2,0:0:0:0:
326,200,87706,2,0,P|273:216|229:201,1,95.9999970703126,0|0,1:2|0:0,0:0:0:0:
130,101,88148,1,10,0:0:0:0:
275,136,88368,1,2,0:0:0:0:
183,36,88589,6,0,P|137:18|69:43,1,95.9999970703126,2|0,1:2|0:0,0:0:0:0:
0,139,89030,1,10,0:0:0:0:
130,101,89251,2,0,L|128:209,1,95.9999970703126,2|0,0:0|1:2,0:0:0:0:
3,329,89692,2,0,L|1:221,1,95.9999970703126,2|0,0:0|1:2,0:0:0:0:
269,273,90133,6,0,B|238:244|189:260|189:260|149:300|89:280,1,191.999994140625,14|8,0:0|0:0,0:0:0:0:
307,358,90795,1,12,0:0:0:0:
307,358,90905,1,8,0:0:0:0:
307,358,91015,1,0,1:2:0:0:
276,180,91236,1,12,0:0:0:0:
450,249,91456,1,0,1:2:0:0:
392,63,91677,6,0,B|360:6|360:6|347:55|347:55|248:110|248:110|231:62|231:62|152:92|99:172|174:243|301:166,1,560,12|0,0:0|0:0,0:0:0:0:
