osu file format v14

[General]
AudioFilename: audio.mp3
AudioLeadIn: 0
PreviewTime: 9818
Countdown: 0
SampleSet: Soft
StackLeniency: 0.7
Mode: 0
LetterboxInBreaks: 0
WidescreenStoryboard: 1

[Editor]
DistanceSpacing: 1
BeatDivisor: 4
GridSize: 16
TimelineZoom: 1

[Metadata]
Title:Nanda Kana
TitleUnicode:なんだかな
Artist:Ebichu
ArtistUnicode:Ebichu
Creator:ALegendsTale
Version:Normal
Source:
Tags:Ebichu, Nanda, Kana, なんだ, かな, Dechu, Chu, Anime, Oruchuban, Risa, Itou, Hamster, Kotono, Mitsuishi
BeatmapID:1747175
BeatmapSetID:832584

[Difficulty]
HPDrainRate:3
CircleSize:3.5
OverallDifficulty:5
ApproachRate:4
SliderMultiplier:1.6
SliderTickRate:1

[Events]
//Background and Video events
0,0,"Ebichu.jpg",0,0
//Break Periods
2,21018,24498
//Storyboard Layer 0 (Background)
//Storyboard Layer 1 (Fail)
//Storyboard Layer 2 (Pass)
//Storyboard Layer 3 (Foreground)
//Storyboard Sound Samples

[TimingPoints]
1319,499.98333388887,4,2,0,65,1,0
41317,-133.333333333333,4,2,0,40,0,0
43317,-133.333333333333,4,2,0,40,0,0
43817,-133.333333333333,4,2,0,40,0,0
47317,-133.333333333333,4,2,0,40,0,0
49817,-100,4,2,0,65,0,0
53316,-90.9090909090909,4,2,0,75,0,0
54316,-76.9230769230769,4,2,0,85,0,0
55317,-66.6666666666667,4,2,0,100,0,1
57317,-100,4,2,0,65,0,1
69315,-90.9090909090909,4,2,0,75,0,1
70315,-83.3333333333333,4,2,0,80,0,1
71316,-76.9230769230769,4,2,0,85,0,1
73065,-100,4,2,0,65,0,1
77815,-100,4,2,0,65,0,1
87316,-100,4,2,0,65,0,0
89816,-100,4,2,0,65,0,0

[HitObjects]
99,85,1319,5,0,0:0:0:0:
258,97,1818,1,0,0:0:0:0:
397,176,2318,2,0,P|362:225|256:250,1,160
141,156,3318,2,0,P|132:256|196:304,1,160
169,294,4068,1,0,0:0:0:0:
476,38,5318,5,0,0:0:0:0:
430,191,5818,1,0,0:0:0:0:
293,274,6318,2,0,P|198:279|120:238,1,160
84,195,7068,1,0,0:0:0:0:
76,73,9818,6,0,P|116:165|178:214,1,160
303,133,10818,1,0,0:0:0:0:
359,189,11068,1,0,0:0:0:0:
256,192,11568,12,0,12818,0:0:0:0:
368,96,13818,6,0,P|310:140|262:233,1,160
132,302,14818,1,0,0:0:0:0:
69,154,15318,1,0,0:0:0:0:
221,105,15818,2,0,P|305:96|385:146,1,160
421,281,16818,1,0,0:0:0:0:
156,100,17818,6,0,P|124:201|283:299,1,320
349,154,19318,2,0,P|305:90|214:79,1,160
299,218,20318,1,0,0:0:0:0:
144,261,20818,1,0,0:0:0:0:
73,113,25818,6,0,P|138:88|170:97,1,80
194,152,26318,2,0,P|126:171|104:206,1,80
113,255,26818,2,0,P|171:229|482:301,1,400
117,93,29818,5,0,0:0:0:0:
276,109,30318,1,0,0:0:0:0:
182,238,30818,1,0,0:0:0:0:
197,78,31318,1,0,0:0:0:0:
110,212,31817,1,0,0:0:0:0:
269,223,32317,2,0,P|353:218|438:272,1,160
159,63,33817,6,0,P|90:176|179:341,1,320
286,229,35317,1,0,0:0:0:0:
39,25,36317,2,0,L|397:30,1,320
431,82,41317,6,0,P|411:143|346:175,1,120.000004577637
306,182,42067,1,0,0:0:0:0:
246,185,42317,1,0,0:0:0:0:
214,235,42567,1,0,0:0:0:0:
154,238,42817,2,0,L|91:237,1,60.0000022888184
85,177,43317,2,0,P|90:103|95:95,1,60.0000022888184
477,264,45317,6,0,P|426:277|352:238,1,120.000004577637
305,262,46067,1,0,0:0:0:0:
245,263,46317,1,0,0:0:0:0:
203,219,46567,1,0,0:0:0:0:
143,216,46817,2,0,L|105:160,1,60.0000022888184
86,110,47317,2,0,P|122:81|150:81,1,60.0000022888184
144,79,49817,5,0,0:0:0:0:
303,89,50317,1,0,0:0:0:0:
187,199,50817,1,0,0:0:0:0:
231,45,51317,1,0,0:0:0:0:
302,188,51817,1,0,0:0:0:0:
169,97,52317,2,0,P|253:49|334:46,1,160
397,199,53317,6,0,P|381:281|299:357,1,176.000005371094
111,329,54317,6,0,P|54:242|102:140,1,207.999990478516
313,67,55317,6,0,P|429:65|432:212,1,240.000009155274
258,297,56317,2,0,P|184:300|147:139,1,240.000009155274
437,80,57817,5,0,0:0:0:0:
281,115,58317,1,0,0:0:0:0:
121,125,58817,2,0,P|75:200|107:263,1,160
258,297,59817,1,0,0:0:0:0:
338,297,60067,1,0,0:0:0:0:
123,59,61067,5,0,0:0:0:0:
202,60,61317,1,0,0:0:0:0:
338,142,61816,1,0,0:0:0:0:
178,157,62316,2,0,P|111:178|75:279,1,160
118,320,63066,1,0,0:0:0:0:
277,305,63566,1,0,0:0:0:0:
391,192,64066,1,0,0:0:0:0:
123,95,65066,6,0,P|174:110|196:155,1,80
84,251,65816,2,0,P|190:293|249:269,1,160
299,136,66816,2,0,P|371:234|362:272,1,160
219,327,67816,1,0,0:0:0:0:
424,81,68816,5,0,0:0:0:0:
254,127,69316,2,0,P|172:123|94:194,1,176.000005371094
289,218,70316,6,0,P|232:290|119:288,1,191.999994140625
110,89,71316,6,0,P|196:57|322:122,1,207.999990478516
309,304,72316,2,0,P|223:338|111:295,1,207.999990478516
121,221,73066,5,0,0:0:0:0:
200,214,73316,1,0,0:0:0:0:
345,146,73816,1,0,0:0:0:0:
192,98,74316,1,0,0:0:0:0:
348,131,74816,6,0,P|381:211|372:231,1,80
284,267,75566,1,0,0:0:0:0:
123,267,76066,1,0,0:0:0:0:
284,267,76566,1,0,0:0:0:0:
122,137,77816,6,0,B|169:116|175:154|169:115|170:117|175:156|169:117|176:155|176:155|266:157,1,160
408,215,78816,1,0,0:0:0:0:
403,294,79066,1,0,0:0:0:0:
242,294,79566,2,0,B|167:298|242:293|166:298|166:298|135:255|135:255|113:299|136:255|113:298|137:255|112:299|113:297|138:255|138:255|61:244,1,240
283,100,81066,5,0,0:0:0:0:
340,155,81316,1,0,0:0:0:0:
346,234,81566,1,0,0:0:0:0:
324,311,81816,2,0,P|249:350|153:309,1,160
88,200,82816,2,0,P|134:126|229:105,1,160
357,130,83816,5,0,0:0:0:0:
292,276,84316,1,0,0:0:0:0:
148,347,84816,1,0,0:0:0:0:
177,189,85316,6,0,B|136:147|72:121|10:169|-21:285|25:375|121:397|218:357|234:294|233:261,1,480
246,124,87316,2,0,B|303:316|265:191|265:191|318:141|355:182|355:182|375:243,1,320
379,63,88816,2,0,B|407:135|483:121|459:29,1,160
