osu file format v14

[General]
AudioFilename: audio.mp3
AudioLeadIn: 0
PreviewTime: 9818
Countdown: 0
SampleSet: Soft
StackLeniency: 0.7
Mode: 0
LetterboxInBreaks: 0
WidescreenStoryboard: 1

[Editor]
DistanceSpacing: 1.1
BeatDivisor: 8
GridSize: 16
TimelineZoom: 1

[Metadata]
Title:Nanda Kana
TitleUnicode:なんだかな
Artist:Ebichu
ArtistUnicode:Ebichu
Creator:ALegendsTale
Version:Hard
Source:
Tags:Ebichu, Nanda, Kana, なんだ, かな, Dechu, Chu, Anime, Oruchuban, Risa, Itou, Hamster, Kotono, Mitsuishi
BeatmapID:1747296
BeatmapSetID:832584

[Difficulty]
HPDrainRate:6.5
CircleSize:3.5
OverallDifficulty:6.5
ApproachRate:9
SliderMultiplier:1.6
SliderTickRate:1

[Events]
//Background and Video events
0,0,"Ebichu.jpg",0,0
//Break Periods
//Storyboard Layer 0 (Background)
//Storyboard Layer 1 (Fail)
//Storyboard Layer 2 (Pass)
//Storyboard Layer 3 (Foreground)
//Storyboard Sound Samples

[TimingPoints]
1319,499.98333388887,4,2,0,65,1,0
41317,-133.333333333333,4,2,0,40,0,0
43317,-133.333333333333,4,2,0,40,0,0
43817,-133.333333333333,4,2,0,40,0,0
47317,-133.333333333333,4,2,0,40,0,0
49817,-100,4,2,0,65,0,0
53316,-90.9090909090909,4,2,0,75,0,0
54316,-76.9230769230769,4,2,0,85,0,0
55317,-66.6666666666667,4,2,0,100,0,1
57317,-100,4,2,0,65,0,1
69315,-90.9090909090909,4,2,0,75,0,1
70315,-83.3333333333333,4,2,0,80,0,1
71316,-76.9230769230769,4,2,0,85,0,1
73065,-100,4,2,0,65,0,1
77815,-100,4,2,0,65,0,1
87316,-100,4,2,0,65,0,0
89816,-100,4,2,0,65,0,0

[HitObjects]
118,108,1319,5,0,0:0:0:0:
276,132,1818,1,0,0:0:0:0:
126,189,2318,1,0,0:0:0:0:
281,228,2818,1,0,0:0:0:0:
128,277,3318,1,0,0:0:0:0:
197,132,3818,1,0,0:0:0:0:
296,138,4131,1,0,0:0:0:0:
347,169,4318,1,0,0:0:0:0:
268,230,4631,1,0,0:0:0:0:
211,211,4818,1,0,0:0:0:0:
327,93,5318,6,0,P|370:166|332:244,1,160
185,223,6318,1,0,0:0:0:0:
144,68,6818,2,0,P|190:46|230:48,1,80
352,78,9818,5,0,0:0:0:0:
356,237,10318,2,0,P|246:241|215:204,1,160
159,156,11068,1,0,0:0:0:0:
228,299,11568,1,0,0:0:0:0:
279,267,11756,1,0,0:0:0:0:
240,174,12068,1,0,0:0:0:0:
294,148,12256,1,0,0:0:0:0:
388,181,12568,1,0,0:0:0:0:
444,160,12756,1,0,0:0:0:0:
444,260,13068,1,0,0:0:0:0:
393,291,13256,1,0,0:0:0:0:
428,114,13818,5,0,0:0:0:0:
270,134,14318,1,0,0:0:0:0:
125,202,14818,1,0,0:0:0:0:
240,312,15318,2,0,P|345:302|381:247,1,160
368,104,16318,2,0,P|324:74|210:97,1,160
34,345,17318,5,0,0:0:0:0:
228,299,17630,1,0,0:0:0:0:
279,267,17818,1,0,0:0:0:0:
242,173,18130,1,0,0:0:0:0:
183,161,18318,1,0,0:0:0:0:
115,87,18630,1,0,0:0:0:0:
171,66,18818,1,0,0:0:0:0:
270,77,19130,1,0,0:0:0:0:
322,105,19318,1,0,0:0:0:0:
364,259,19818,2,0,P|291:284|235:231,1,160
102,143,20818,1,0,0:0:0:0:
75,105,22818,6,0,P|224:69|230:72,1,160
104,179,23818,1,0,0:0:0:0:
263,167,24318,1,0,0:0:0:0:
207,249,24630,1,0,0:0:0:0:
150,269,24818,1,0,0:0:0:0:
85,122,25318,1,0,0:0:0:0:
233,63,25818,2,0,P|278:77|303:116,1,80
283,180,26318,2,0,P|244:217|249:238,1,80
321,272,26818,2,0,P|378:281|401:190,1,160
313,161,27630,5,0,0:0:0:0:
254,148,27818,1,0,0:0:0:0:
158,176,28130,1,0,0:0:0:0:
155,236,28318,1,0,0:0:0:0:
238,290,28630,1,0,0:0:0:0:
298,290,28818,1,0,0:0:0:0:
384,240,29130,1,0,0:0:0:0:
378,180,29318,1,0,0:0:0:0:
475,51,29818,6,0,L|304:69,1,160
312,228,30818,2,0,L|158:147,1,160
41,59,31817,2,0,L|152:186,1,160
304,204,32817,1,0,0:0:0:0:
202,80,33130,5,0,0:0:0:0:
147,105,33317,1,0,0:0:0:0:
182,198,33630,1,0,0:0:0:0:
130,228,33817,1,0,0:0:0:0:
212,284,34130,1,0,0:0:0:0:
250,330,34317,1,0,0:0:0:0:
341,289,34630,1,0,0:0:0:0:
352,230,34817,1,0,0:0:0:0:
330,71,35317,6,0,P|221:71|184:104,1,160
339,149,36317,1,0,0:0:0:0:
19,166,37317,2,0,P|89:229|160:248,1,160
310,248,38317,1,0,0:0:0:0:
412,125,38817,1,0,0:0:0:0:
260,73,39317,5,0,0:0:0:0:
285,169,39630,1,0,0:0:0:0:
245,213,39817,1,0,0:0:0:0:
145,211,40130,1,0,0:0:0:0:
113,159,40317,1,0,0:0:0:0:
185,90,40630,1,0,0:0:0:0:
245,86,40817,1,0,0:0:0:0:
331,135,41130,6,0,P|357:176|347:193,1,60
239,214,41817,1,0,0:0:0:0:
137,149,42317,1,0,0:0:0:0:
230,74,42630,2,0,P|267:83|275:90,1,45.0000017166138
321,196,43317,2,0,P|305:252|290:268,1,75.000002861023
130,99,45317,5,0,0:0:0:0:
245,131,45817,1,0,0:0:0:0:
323,221,46317,2,0,P|349:208|361:160,1,75.000002861023
362,166,46817,1,0,0:0:0:0:
347,92,47129,1,0,0:0:0:0:
305,73,47317,1,0,0:0:0:0:
260,75,47629,2,0,P|214:87|207:92,1,45.0000017166138
227,144,48067,5,0,0:0:0:0:
127,211,48567,1,0,0:0:0:0:
242,243,49067,1,0,0:0:0:0:
408,70,49817,5,0,0:0:0:0:
248,74,50317,1,0,0:0:0:0:
351,195,50817,1,0,0:0:0:0:
196,237,51317,1,0,0:0:0:0:
331,152,51817,5,0,0:0:0:0:
259,82,52129,1,0,0:0:0:0:
199,77,52317,1,0,0:0:0:0:
143,159,52629,1,0,0:0:0:0:
155,217,52817,1,0,0:0:0:0:
254,212,53129,1,0,0:0:0:0:
309,175,53317,1,0,0:0:0:0:
297,65,53629,5,0,0:0:0:0:
231,58,53817,1,0,0:0:0:0:
138,117,54129,1,0,0:0:0:0:
121,193,54317,1,0,0:0:0:0:
212,285,54629,5,0,0:0:0:0:
289,293,54817,1,0,0:0:0:0:
387,208,55129,1,0,0:0:0:0:
404,119,55317,1,0,0:0:0:0:
264,63,55629,5,0,0:0:0:0:
210,135,55817,1,0,0:0:0:0:
278,268,56129,1,0,0:0:0:0:
338,201,56317,1,0,0:0:0:0:
293,89,56567,5,0,0:0:0:0:
248,77,56754,1,0,0:0:0:0:
198,77,56942,1,0,0:0:0:0:
150,93,57129,1,0,0:0:0:0:
111,118,57317,1,0,0:0:0:0:
270,134,57817,6,0,P|256:230|201:273,1,160
74,185,58817,1,0,0:0:0:0:
233,192,59317,1,0,0:0:0:0:
371,111,59817,1,0,0:0:0:0:
301,72,60129,2,0,P|254:58|230:60,1,60
183,138,60629,1,0,0:0:0:0:
228,177,60817,1,0,0:0:0:0:
301,146,61067,5,0,0:0:0:0:
388,200,61317,2,0,P|303:252|241:268,1,160
100,199,62316,1,0,0:0:0:0:
243,128,62816,1,0,0:0:0:0:
264,205,63066,1,0,0:0:0:0:
125,285,63566,1,0,0:0:0:0:
151,107,64066,1,0,0:0:0:0:
444,169,65129,5,0,0:0:0:0:
411,219,65316,1,0,0:0:0:0:
304,99,65816,1,0,0:0:0:0:
148,62,66316,2,0,P|63:150|73:188,1,160
222,136,67316,2,0,P|181:235|200:290,1,160
432,66,68816,5,0,0:0:0:0:
256,57,69316,2,0,P|158:119|135:185,1,176.000005371094
328,180,70316,2,0,P|267:239|159:274,1,191.999994140625
237,77,71316,5,0,0:0:0:0:
286,95,71483,1,0,0:0:0:0:
322,136,71649,1,0,0:0:0:0:
341,189,71816,1,0,0:0:0:0:
318,237,71983,1,0,0:0:0:0:
279,272,72149,1,0,0:0:0:0:
229,283,72316,1,0,0:0:0:0:
175,278,72483,1,0,0:0:0:0:
125,252,72649,1,0,0:0:0:0:
114,198,72816,1,0,0:0:0:0:
176,116,73129,6,0,P|144:144|139:175,1,60
263,260,73816,1,0,0:0:0:0:
399,175,74316,1,0,0:0:0:0:
239,158,74816,1,0,0:0:0:0:
270,84,75066,1,0,0:0:0:0:
359,216,75566,1,0,0:0:0:0:
280,76,76066,1,0,0:0:0:0:
285,235,76566,1,0,0:0:0:0:
80,123,77816,6,0,P|97:226|138:252,1,160
298,254,78816,1,0,0:0:0:0:
350,193,79066,1,0,0:0:0:0:
306,39,79566,2,0,P|210:92|191:139,1,160
107,260,81128,5,0,0:0:0:0:
186,271,81316,1,0,0:0:0:0:
158,195,81628,1,0,0:0:0:0:
237,206,81816,1,0,0:0:0:0:
354,97,82316,1,0,0:0:0:0:
414,245,82816,1,0,0:0:0:0:
262,297,83316,2,0,P|218:219|154:169,1,160
313,116,84316,1,0,0:0:0:0:
388,256,84816,1,0,0:0:0:0:
230,282,85316,6,0,P|156:240|147:165,1,160
217,101,86128,1,0,0:0:0:0:
275,112,86316,1,0,0:0:0:0:
324,198,86628,1,0,0:0:0:0:
277,235,86816,1,0,0:0:0:0:
177,238,87128,5,0,0:0:0:0:
131,199,87316,1,0,0:0:0:0:
179,111,87628,1,0,0:0:0:0:
236,92,87816,1,0,0:0:0:0:
328,128,88128,1,0,0:0:0:0:
363,176,88316,1,0,0:0:0:0:
369,275,88628,1,0,0:0:0:0:
320,310,88816,1,0,0:0:0:0:
189,217,89316,1,0,0:0:0:0:
