osu file format v14

[General]
AudioFilename: audio.mp3
AudioLeadIn: 0
PreviewTime: 69933
Countdown: 0
SampleSet: Soft
StackLeniency: 0.7
Mode: 0
LetterboxInBreaks: 0
WidescreenStoryboard: 0

[Editor]
DistanceSpacing: 0.7
BeatDivisor: 4
GridSize: 8
TimelineZoom: 2.2

[Metadata]
Title:Landyshi
TitleUnicode:Ландыши
Artist:Eban'ko
ArtistUnicode:Ебанько
Creator:Myahkey
Version:This Song is About Spring Love
Source:
Tags:pop russian русский поп пародия parody humor юмор comedy Гелена Великанова Gelena Velikanova Невошедшее Nevoshedsheye 2007 tiktok tik tok viral song astrolis myah ebanko yebanko yeban'ko landishi
BeatmapID:3514302
BeatmapSetID:1719629

[Difficulty]
HPDrainRate:6
CircleSize:4
OverallDifficulty:8
ApproachRate:8.5
SliderMultiplier:1.8
SliderTickRate:1

[Events]
//Background and Video events
0,0,"landysh (1).jpg",0,0
//Break Periods
//Storyboard Layer 0 (Background)
//Storyboard Layer 1 (Fail)
//Storyboard Layer 2 (Pass)
//Storyboard Layer 3 (Foreground)
//Storyboard Layer 4 (Overlay)
//Storyboard Sound Samples

[TimingPoints]
185,438.436244062843,4,2,1,40,1,0
185,-133.333333333333,4,2,1,40,0,0
7199,-83.3333333333333,4,2,1,70,0,0
14214,-100,4,2,1,60,0,0
28244,-76.9230769230769,4,2,1,80,0,1
42274,439.155065653682,4,2,1,60,1,0
42274,-86.9565217391304,4,2,1,60,0,0
56326,-68.9655172413793,4,2,1,80,0,1
63353,438.692695766615,4,2,1,80,1,1
63353,-68.9655172413793,4,2,1,80,0,1
70372,-76.9230769230769,4,2,1,70,0,0
84410,-62.5,4,2,1,90,0,1
98448,-52.6315789473684,4,2,1,90,0,0

[Colours]
Combo1 : 214,214,214
Combo2 : 0,202,0

[HitObjects]
113,186,185,6,0,P|92:158|46:126,1,67.5000025749208,2|0,0:2|0:2,0:0:0:0:
2,180,623,1,2,0:2:0:0:
37,321,842,1,2,0:0:0:0:
12,296,1281,1,2,0:0:0:0:
46,288,1719,1,2,0:0:0:0:
203,304,1938,6,0,P|224:276|270:245,1,67.5000025749208,2|0,0:2|0:2,0:0:0:0:
326,239,2377,1,2,0:2:0:0:
473,231,2596,1,2,0:0:0:0:
443,234,3034,1,2,0:0:0:0:
461,256,3473,1,2,0:0:0:0:
409,74,3692,6,0,P|420:111|454:148,1,67.5000025749208,2|0,0:2|0:2,0:0:0:0:
510,164,4130,1,2,0:2:0:0:
430,146,4350,1,2,0:2:0:0:
351,252,4569,2,0,L|361:185,1,67.5000025749208,2|0,0:2|0:2,0:0:0:0:
338,270,5007,1,2,0:2:0:0:
442,258,5227,1,2,0:2:0:0:
251,326,5446,2,0,P|190:280|126:266,1,135.000005149842,2|0,0:2|0:2,0:0:0:0:
209,177,6323,2,0,P|261:135|325:117,1,135.000005149842,2|0,0:2|0:2,0:0:0:0:
78,50,7199,6,0,L|99:172,1,107.999996704102,6|0,1:2|3:2,0:0:0:0:
213,57,7638,2,0,P|193:34|168:19,1,53.9999983520508,10|0,1:2|0:0,0:0:0:0:
319,116,7857,1,2,3:2:0:0:
319,116,7967,1,0,0:0:0:0:
319,116,8076,2,0,B|253:117|275:141|205:142,1,107.999996704102,0|2,1:2|3:2,0:0:0:0:
337,217,8515,1,10,1:2:0:0:
433,141,8734,2,0,P|449:160|464:207,1,53.9999983520508,2|0,3:2|0:0,0:0:0:0:
470,368,8953,6,0,L|498:248,1,107.999996704102,2|0,1:2|3:2,0:0:0:0:
309,272,9392,2,0,P|328:253|363:235,1,53.9999983520508,10|0,1:2|0:0,0:0:0:0:
213,334,9611,1,2,3:2:0:0:
213,334,9720,1,0,0:0:0:0:
213,334,9830,2,0,B|279:335|257:359|327:362,1,107.999996704102,0|0,1:2|3:2,0:0:0:0:
196,218,10269,2,0,P|154:175|84:151,1,107.999996704102,10|2,1:2|3:2,0:0:0:0:
330,73,10707,6,0,L|196:36,1,107.999996704102,2|0,1:2|3:2,0:0:0:0:
307,185,11145,2,0,L|441:148,1,107.999996704102,8|0,1:2|3:2,0:0:0:0:
453,95,11474,1,0,0:0:0:0:
453,95,11584,2,0,P|467:42|471:-12,1,107.999996704102,2|0,1:2|3:2,0:0:0:0:
411,156,12022,2,0,P|418:180|453:221,1,53.9999983520508,10|0,1:2|0:0,0:0:0:0:
339,259,12241,1,0,3:2:0:0:
339,259,12351,1,0,0:0:0:0:
339,259,12461,2,0,B|404:261|357:285|459:290,1,107.999996704102,2|0,1:2|3:2,0:0:0:0:
248,331,12899,6,0,L|246:318,4,13.4999995880127,10|0|0|0|0,1:2|0:0|0:0|0:0|0:0,0:0:0:0:
160,342,13118,6,0,L|165:329,4,13.4999995880127,0|0|0|0|0,3:2|0:0|0:0|0:0|0:0,0:0:0:0:
87,287,13338,6,0,L|96:278,4,13.4999995880127,0|0|0|0|0,1:2|0:0|0:0|0:0|0:0,0:0:0:0:
62,201,13557,6,0,L|75:199,4,13.4999995880127,0|0|0|0|0,3:2|0:0|0:0|0:0|0:0,0:0:0:0:
87,119,13776,6,0,L|76:113,12,13.4999995880127,8|0|0|0|0|0|0|0|0|0|0|0|0,1:2|0:0|0:0|0:0|0:0|0:0|0:0|0:0|3:2|0:0|0:0|0:0|0:0,0:0:0:0:
167,176,14214,6,0,P|205:165|253:120,1,90,4|0,1:2|3:2,0:0:0:0:
80,16,14653,1,10,1:2:0:0:
156,57,14872,1,2,3:2:0:0:
337,30,15091,2,0,L|223:47,1,90,2|0,1:2|3:2,0:0:0:0:
419,64,15530,5,8,1:2:0:0:
376,141,15749,1,0,3:2:0:0:
376,141,15859,1,0,0:0:0:0:
376,141,15968,2,0,B|437:148|403:168|479:175,1,90,0|0,1:2|3:2,0:0:0:0:
285,233,16407,2,0,P|293:208|326:184,1,45,10|0,1:2|0:0,0:0:0:0:
254,127,16626,2,0,P|246:102|213:78,1,45,2|0,3:2|0:0,0:0:0:0:
172,219,16845,2,0,B|196:269|205:240|239:318,1,90,2|0,1:2|3:2,0:0:0:0:
411,349,17284,6,0,L|331:269,1,90,8|0,1:2|3:2,0:0:0:0:
406,232,17612,1,0,0:0:0:0:
406,232,17722,2,0,L|480:310,1,90,0|0,1:2|3:2,0:0:0:0:
386,92,18160,2,0,P|371:140|318:190,1,90,10|0,1:2|3:2,0:0:0:0:
406,20,18599,1,2,1:2:0:0:
361,14,18708,1,2,0:2:0:0:
317,25,18818,1,2,3:2:0:0:
286,58,18928,1,2,0:2:0:0:
257,93,19037,2,0,P|208:109|151:93,1,90,10|2,1:2|3:2,0:0:0:0:
30,144,19476,6,0,P|73:154|116:190,1,90,0|0,1:2|3:2,0:0:0:0:
209,272,19914,1,10,1:2:0:0:
182,264,20024,1,2,0:2:0:0:
156,272,20133,1,2,3:2:0:0:
138,292,20243,1,2,0:2:0:0:
125,315,20353,2,0,P|87:344|20:349,1,90,2|0,1:2|3:2,0:0:0:0:
311,327,20791,2,0,L|292:221,1,90,8|0,1:2|3:2,0:0:0:0:
209,92,21229,6,0,P|234:120|309:161,1,90,2|0,1:2|3:2,0:0:0:0:
168,26,21668,2,0,P|146:43|136:74,1,45,8|0,1:2|0:0,0:0:0:0:
39,60,21887,2,0,P|61:77|71:108,1,45,0|0,3:2|0:0,0:0:0:0:
17,190,22106,2,0,P|53:174|130:162,1,90,2|0,1:2|3:2,0:0:0:0:
225,258,22545,2,0,P|210:214|165:154,1,90,8|0,1:2|3:2,0:0:0:0:
56,270,22983,5,2,1:2:0:0:
123,329,23202,1,0,3:2:0:0:
186,178,23422,2,0,P|196:157|231:127,1,45,8|0,1:2|0:0,0:0:0:0:
326,92,23641,1,0,3:2:0:0:
326,92,23750,1,0,0:0:0:0:
326,92,23860,2,0,B|266:83|303:60|228:42,1,90,2|0,1:2|3:2,0:0:0:0:
339,259,24298,2,0,P|329:238|294:208,1,45,8|0,1:2|0:0,0:0:0:0:
216,282,24518,2,0,L|286:291,1,45,0|0,3:2|0:0,0:0:0:0:
423,363,24737,6,0,B|360:368|394:384|327:385,1,90,2|0,1:2|3:2,0:0:0:0:
462,208,25175,2,0,P|480:246|529:291,1,90,8|0,1:2|3:2,0:0:0:0:
461,358,25614,1,2,1:2:0:0:
379,165,25833,1,0,3:2:0:0:
379,165,25943,1,0,0:0:0:0:
379,165,26052,2,0,P|383:117|423:69,1,90,10|0,1:2|3:2,0:0:0:0:
265,21,26491,5,2,1:2:0:0:
313,98,26710,1,0,3:2:0:0:
114,160,26929,5,10,1:2:0:0:
269,214,27148,1,0,3:2:0:0:
63,330,27368,5,2,1:2:0:0:
321,313,27587,1,0,3:2:0:0:
26,234,27806,5,10,1:2:0:0:
163,14,28025,1,0,3:2:0:0:
163,14,28135,1,0,0:0:0:0:
163,14,28244,6,0,P|101:34|32:41,1,116.999994644165,4|0,1:2|3:2,0:0:0:0:
175,252,28683,1,10,1:2:0:0:
325,137,28902,2,0,P|262:158|212:221,1,116.999994644165,2|0,3:2|1:2,0:0:0:0:
307,238,29341,1,0,3:2:0:0:
241,29,29560,1,8,1:2:0:0:
470,111,29779,1,0,3:2:0:0:
470,111,29889,1,0,0:0:0:0:
470,111,29998,6,0,P|492:164|555:240,1,116.999994644165,2|0,1:2|3:2,0:0:0:0:
418,32,30437,2,0,P|393:60|377:93,1,58.4999973220826,10|0,1:2|0:0,0:0:0:0:
415,197,30656,2,0,P|386:182|337:177,1,58.4999973220826,2|0,3:2|0:0,0:0:0:0:
225,294,30875,2,0,L|347:266,1,116.999994644165,0|0,1:2|3:2,0:0:0:0:
203,380,31313,1,10,1:2:0:0:
250,198,31533,1,2,3:2:0:0:
12,269,31752,5,2,1:2:0:0:
103,306,31971,1,0,3:2:0:0:
66,82,32190,1,10,1:2:0:0:
77,176,32410,1,2,3:2:0:0:
255,40,32629,2,0,B|189:36|207:15|121:7,1,116.999994644165,2|0,1:2|3:2,0:0:0:0:
318,102,33067,2,0,P|332:85|341:37,1,58.4999973220826,10|0,1:2|0:0,0:0:0:0:
211,161,33286,1,2,3:2:0:0:
211,161,33396,1,0,0:0:0:0:
211,161,33506,6,0,P|265:171|331:217,1,116.999994644165,2|0,1:2|3:2,0:0:0:0:
494,329,33944,1,10,1:2:0:0:
436,227,34163,2,0,L|460:108,1,116.999994644165,0|2,3:2|1:2,0:0:0:0:
418,32,34602,1,0,3:2:0:0:
473,133,34821,1,10,1:2:0:0:
281,204,35040,1,0,3:2:0:0:
281,204,35150,1,0,0:0:0:0:
281,204,35259,6,0,P|251:151|186:88,1,116.999994644165,4|0,1:2|3:2,0:0:0:0:
111,76,35698,1,10,1:2:0:0:
310,11,35917,2,0,L|288:144,1,116.999994644165,2|0,3:2|1:2,0:0:0:0:
178,223,36355,1,2,3:2:0:0:
344,272,36575,1,10,1:2:0:0:
192,241,36794,1,2,3:2:0:0:
365,295,37013,6,0,P|305:310|247:341,1,116.999994644165,2|0,1:2|3:2,0:0:0:0:
454,335,37452,1,10,1:2:0:0:
392,196,37671,1,2,3:2:0:0:
392,196,37780,1,0,0:0:0:0:
392,196,37890,2,0,P|433:228|504:243,1,116.999994644165,0|0,1:2|3:2,0:0:0:0:
457,22,38328,1,10,1:2:0:0:
509,88,38548,1,2,3:2:0:0:
299,25,38767,6,0,L|321:158,1,116.999994644165,2|0,1:2|3:2,0:0:0:0:
212,308,39205,1,10,1:2:0:0:
271,237,39425,1,2,3:2:0:0:
171,149,39644,2,0,B|99:150|124:185|23:182,1,116.999994644165,2|0,1:2|3:2,0:0:0:0:
202,74,40082,2,0,P|224:89|258:131,1,58.4999973220826,10|0,1:2|0:0,0:0:0:0:
378,90,40301,1,0,3:2:0:0:
386,82,40411,1,0,0:0:0:0:
395,74,40521,6,0,L|390:61,12,14.6249993305207,2|0|0|0|0|0|0|0|0|0|0|0|0,1:2|0:0|0:0|0:0|0:0|0:0|0:0|0:0|3:2|0:0|0:0|0:0|0:0,0:0:0:0:
468,110,40959,6,0,L|469:96,12,14.6249993305207,8|0|0|0|0|0|0|0|0|0|0|0|0,1:2|0:0|0:0|0:0|0:0|0:0|0:0|0:0|3:2|0:0|0:0|0:0|0:0,0:0:0:0:
512,178,41398,6,0,L|504:190,28,14.6249993305207,0|0|0|0|0|0|0|0|0|0|0|0|0|0|0|0|8|0|0|0|0|0|0|0|0|0|0|0|0,1:2|0:0|0:0|0:0|0:0|0:0|0:0|0:0|3:2|0:0|0:0|0:0|0:0|0:0|0:0|0:0|1:2|0:0|0:0|0:0|0:0|0:0|0:0|0:0|3:2|0:0|0:0|0:0|0:0,0:0:0:0:
487,275,42274,6,0,B|427:269|450:293|376:286,1,103.500001974106,6|0,1:2|3:2,0:0:0:0:
413,76,42713,2,0,P|430:101|468:126,1,51.7500009870529,8|0,1:2|0:0,0:0:0:0:
511,71,42932,1,0,3:2:0:0:
325,31,43152,2,0,L|355:172,1,103.500001974106,0|0,1:2|3:2,0:0:0:0:
200,213,43591,1,10,1:2:0:0:
200,213,43701,1,2,0:2:0:0:
146,116,43920,1,2,0:2:0:0:
146,116,44030,6,0,B|184:120|184:120|200:130|200:130|260:136,1,103.500001974106,2|0,1:2|3:2,0:0:0:0:
56,48,44469,2,0,L|119:12,1,51.7500009870529,8|0,1:2|0:0,0:0:0:0:
44,148,44689,2,0,L|-19:112,1,51.7500009870529,0|0,3:2|0:0,0:0:0:0:
120,212,44908,2,0,P|102:258|93:351,1,103.500001974106,0|0,1:2|3:2,0:0:0:0:
208,157,45348,1,10,1:2:0:0:
208,157,45457,1,2,0:2:0:0:
303,226,45677,1,2,0:2:0:0:
303,226,45787,6,0,B|264:230|264:230|249:240|249:240|202:244,1,103.500001974106,2|0,1:2|3:2,0:0:0:0:
347,138,46226,2,0,P|332:112|302:85,1,51.7500009870529,8|0,1:2|0:0,0:0:0:0:
247,57,46445,1,0,3:2:0:0:
455,20,46665,1,2,1:2:0:0:
446,70,46775,1,2,0:2:0:0:
437,121,46885,1,2,3:2:0:0:
434,172,46994,1,2,0:2:0:0:
438,223,47104,2,0,P|445:271|463:355,1,103.500001974106,10|0,1:2|3:2,0:0:0:0:
333,218,47543,6,0,P|289:179|222:152,1,103.500001974106,0|0,1:2|3:2,0:0:0:0:
378,128,47983,1,10,1:2:0:0:
359,103,48092,1,2,0:2:0:0:
347,74,48202,1,2,3:2:0:0:
340,43,48312,1,2,0:2:0:0:
342,11,48422,2,0,L|309:137,1,103.500001974106,2|0,1:2|3:2,0:0:0:0:
106,171,48861,1,8,1:2:0:0:
177,122,49080,1,0,3:2:0:0:
0,40,49300,6,0,P|24:79|32:142,1,103.500001974106,2|0,1:2|3:2,0:0:0:0:
1,317,49739,1,10,1:2:0:0:
1,317,49849,1,2,0:2:0:0:
86,271,50069,1,2,0:2:0:0:
86,271,50178,2,0,P|45:240|-22:218,1,103.500001974106,2|0,1:2|3:2,0:0:0:0:
82,367,50617,2,0,P|123:342|184:320,1,103.500001974106,8|0,1:2|3:2,0:0:0:0:
150,134,51057,6,0,L|169:264,1,103.500001974106,2|0,1:2|3:2,0:0:0:0:
86,75,51496,1,10,1:2:0:0:
86,75,51606,1,2,0:2:0:0:
153,10,51825,1,2,0:2:0:0:
153,10,51935,2,0,L|263:32,1,103.500001974106,2|0,1:2|3:2,0:0:0:0:
493,27,52374,1,8,1:2:0:0:
493,27,52484,1,0,0:0:0:0:
413,81,52703,1,0,0:0:0:0:
413,81,52813,6,0,P|451:116|459:190,1,103.500001974106,2|0,1:2|3:2,0:0:0:0:
433,246,53143,1,0,0:0:0:0:
433,246,53252,2,0,P|461:248|483:256,1,51.7500009870529,8|0,1:2|0:0,0:0:0:0:
392,344,53472,2,0,P|417:335|442:333,1,51.7500009870529,0|0,3:2|0:0,0:0:0:0:
253,154,53692,2,0,P|286:244|305:366,1,207.000003948212,2|8,1:2|1:2,0:0:0:0:
254,294,54350,1,0,3:2:0:0:
367,238,54570,5,2,1:2:0:0:
262,170,54789,1,0,3:2:0:0:
439,37,55009,5,10,1:2:0:0:
221,67,55229,1,0,3:2:0:0:
372,127,55448,5,2,1:2:0:0:
164,227,55668,1,0,3:2:0:0:
306,337,55887,5,10,1:2:0:0:
0,191,56107,1,0,3:2:0:0:
14,200,56217,1,0,0:0:0:0:
28,208,56326,6,0,L|3:346,1,130.500003982544,4|0,1:2|3:2,0:0:0:0:
101,69,56766,2,0,P|117:45|154:21,1,65.250001991272,10|0,1:2|0:0,0:0:0:0:
209,152,56985,2,0,P|193:128|156:104,1,65.250001991272,2|0,3:2|0:0,0:0:0:0:
296,96,57205,2,0,L|269:249,1,130.500003982544,0|2,1:2|3:2,0:0:0:0:
284,17,57644,2,0,B|369:28|322:45|426:55,1,130.500003982544,10|2,1:2|3:2,0:0:0:0:
420,205,57973,1,0,0:0:0:0:
420,205,58083,6,0,P|450:150|530:97,1,130.500003982544,2|0,1:2|3:2,0:0:0:0:
357,304,58522,1,10,1:2:0:0:
357,304,58632,1,0,0:0:0:0:
357,304,58742,2,0,P|340:276|301:248,1,65.250001991272,2|0,3:2|0:0,0:0:0:0:
451,371,58961,2,0,L|471:232,1,130.500003982544,0|0,1:2|3:2,0:0:0:0:
332,78,59401,1,10,1:2:0:0:
288,151,59620,1,2,3:2:0:0:
168,12,59840,6,0,L|184:141,1,130.500003982544,2|0,1:2|3:2,0:0:0:0:
41,47,60279,2,0,P|16:18|-13:0,1,65.250001991272,10|0,1:2|0:0,0:0:0:0:
77,123,60498,2,0,P|102:94|131:76,1,65.250001991272,2|0,3:2|0:0,0:0:0:0:
0,182,60718,2,0,B|82:187|37:219|135:226,1,130.500003982544,2|0,1:2|3:2,0:0:0:0:
38,384,61157,2,0,L|7:246,1,130.500003982544,10|2,1:2|3:2,0:0:0:0:
300,325,61596,5,2,1:2:0:0:
219,186,61816,1,0,3:2:0:0:
395,35,62035,5,8,1:2:0:0:
277,77,62255,1,2,3:2:0:0:
370,238,62475,5,2,1:2:0:0:
389,150,62694,1,2,3:2:0:0:
386,231,62914,1,10,1:2:0:0:
497,95,63133,1,2,3:2:0:0:
497,95,63243,1,0,0:0:0:0:
497,95,63353,6,0,P|442:54|366:31,1,130.500003982544,6|0,1:2|3:2,0:0:0:0:
195,50,63791,2,0,P|171:26|126:10,1,65.250001991272,10|0,1:2|0:0,0:0:0:0:
271,130,64011,2,0,P|294:106|344:83,1,65.250001991272,2|0,3:2|0:0,0:0:0:0:
164,145,64230,2,0,B|242:173|181:194|285:232,1,130.500003982544,0|2,1:2|3:2,0:0:0:0:
89,187,64669,2,0,P|124:260|141:330,1,130.500003982544,10|2,1:2|3:2,0:0:0:0:
50,98,64998,1,0,0:0:0:0:
50,98,65107,6,0,P|14:171|-9:255,1,130.500003982544,2|0,1:2|3:2,0:0:0:0:
191,50,65546,1,10,1:2:0:0:
301,151,65765,1,2,3:2:0:0:
301,151,65875,1,0,0:0:0:0:
301,151,65985,2,0,L|267:8,1,130.500003982544,2|2,1:2|3:2,0:0:0:0:
251,297,66423,1,10,1:2:0:0:
192,228,66643,1,2,3:2:0:0:
0,329,66862,6,0,P|41:286|112:239,1,130.500003982544,2|0,1:2|3:2,0:0:0:0:
306,360,67301,2,0,L|146:322,1,130.500003982544,10|2,1:2|3:2,0:0:0:0:
284,208,67739,1,2,1:2:0:0:
284,208,67849,1,0,0:0:0:0:
284,208,67959,2,0,P|326:166|403:144,1,130.500003982544,0|10,3:2|1:2,0:0:0:0:
488,198,68397,1,0,3:2:0:0:
431,360,68617,2,0,L|409:218,5,130.500003982544,2|0|8|0|0|0,1:2|3:2|1:2|3:2|1:2|3:2,0:0:0:0:
296,282,69933,6,0,L|315:278,12,16.312500497818,8|0|0|0|0|0|0|0|0|0|0|0|0,1:2|0:0|0:0|0:0|0:0|0:0|0:0|0:0|3:2|0:0|0:0|0:0|0:0,0:0:0:0:
217,358,70372,6,0,P|167:323|100:295,1,116.999994644165,6|2,1:2|3:2,0:0:0:0:
217,98,70810,2,0,L|229:185,1,58.4999973220826,10|0,1:2|0:0,0:0:0:0:
174,217,71030,1,2,3:2:0:0:
71,98,71249,2,0,P|55:172|21:236,1,116.999994644165,2|0,1:2|3:2,0:0:0:0:
199,19,71688,2,0,B|280:22|243:48|353:49,1,116.999994644165,10|2,1:2|3:2,0:0:0:0:
466,105,72017,1,0,0:0:0:0:
466,105,72126,6,0,L|330:122,1,116.999994644165,2|2,1:2|3:2,0:0:0:0:
510,290,72565,2,0,P|498:259|470:221,1,58.4999973220826,10|0,1:2|0:0,0:0:0:0:
404,357,72784,2,0,P|415:326|444:288,1,58.4999973220826,2|0,3:2|0:0,0:0:0:0:
272,223,73004,2,0,L|299:364,1,116.999994644165,2|0,1:2|3:2,0:0:0:0:
155,203,73442,2,0,P|105:195|45:148,1,116.999994644165,10|2,1:2|3:2,0:0:0:0:
115,294,73771,1,0,0:0:0:0:
115,294,73881,6,0,L|-24:317,1,116.999994644165,2|0,1:2|3:2,0:0:0:0:
168,103,74320,1,10,1:2:0:0:
54,20,74539,1,2,3:2:0:0:
349,75,74759,2,0,P|307:204|298:318,1,233.999989288331,2|8,1:2|1:2,0:0:0:0:
280,183,75417,1,2,3:2:0:0:
426,300,75636,6,0,P|459:254|513:197,1,116.999994644165,0|0,1:2|3:2,0:0:0:0:
364,372,76075,1,8,1:2:0:0:
221,353,76294,1,0,3:2:0:0:
221,353,76404,1,0,0:0:0:0:
221,353,76513,2,0,P|198:297|144:227,1,116.999994644165,0|0,1:2|3:2,0:0:0:0:
0,167,76952,2,0,P|27:114|102:75,1,116.999994644165,10|2,1:2|3:2,0:0:0:0:
60,253,77391,6,0,P|45:308|37:384,1,116.999994644165,2|2,1:2|3:2,0:0:0:0:
2,186,77829,1,10,1:2:0:0:
129,309,78049,1,2,3:2:0:0:
129,309,78158,1,2,0:2:0:0:
129,309,78268,2,0,P|154:260|216:204,1,116.999994644165,2|0,1:2|3:2,0:0:0:0:
376,327,78707,1,10,1:2:0:0:
269,298,78926,1,2,3:2:0:0:
325,126,79145,6,0,L|335:257,1,116.999994644165,2|2,1:2|3:2,0:0:0:0:
260,78,79474,1,0,0:0:0:0:
260,78,79584,2,0,P|277:60|312:41,1,58.4999973220826,10|0,1:2|0:0,0:0:0:0:
512,35,79803,1,2,3:2:0:0:
512,35,79913,1,0,0:0:0:0:
512,35,80023,2,0,B|435:38|478:69|365:66,1,116.999994644165,2|0,1:2|3:2,0:0:0:0:
512,245,80462,2,0,L|503:128,1,116.999994644165,10|2,1:2|3:2,0:0:0:0:
397,261,80900,5,2,1:2:0:0:
456,336,81120,1,0,3:2:0:0:
245,243,81339,1,10,1:2:0:0:
311,102,81558,1,2,3:2:0:0:
311,102,81668,1,0,0:0:0:0:
311,102,81778,2,0,P|254:72|188:61,1,116.999994644165,2|0,1:2|3:2,0:0:0:0:
26,157,82107,1,0,0:0:0:0:
26,157,82216,2,0,L|156:137,1,116.999994644165,10|0,1:2|3:2,0:0:0:0:
241,243,82655,5,2,1:2:0:0:
171,320,82874,1,0,3:2:0:0:
100,38,83094,5,10,1:2:0:0:
7,58,83313,1,0,3:2:0:0:
7,58,83423,1,0,0:0:0:0:
7,58,83532,5,2,1:2:0:0:
104,56,83752,1,0,3:2:0:0:
177,331,83971,5,10,1:2:0:0:
92,189,84190,1,0,3:2:0:0:
409,89,84410,6,0,P|438:150|523:215,1,144,4|0,1:2|3:2,0:0:0:0:
272,31,84848,2,0,P|304:11|346:-2,1,72,10|0,1:2|0:0,0:0:0:0:
229,113,85068,1,2,3:2:0:0:
229,113,85177,1,0,0:0:0:0:
229,113,85287,1,0,1:2:0:0:
138,32,85506,5,2,3:2:0:0:
12,236,85726,1,10,1:2:0:0:
59,329,85945,1,2,3:2:0:0:
265,209,86165,6,0,B|161:215|241:258|117:260,1,144,2|0,1:2|3:2,0:0:0:0:
328,148,86603,2,0,P|340:114|329:71,1,72,10|0,1:2|0:0,0:0:0:0:
269,28,86823,1,2,3:2:0:0:
393,207,87042,2,0,P|433:153|508:95,1,144,0|0,1:2|3:2,0:0:0:0:
439,310,87481,1,10,1:2:0:0:
401,31,87700,1,2,3:2:0:0:
203,214,87919,6,0,P|254:172|337:146,1,144,2|0,1:2|3:2,0:0:0:0:
141,359,88248,1,0,0:0:0:0:
141,359,88358,2,0,L|103:187,1,144,10|2,1:2|3:2,0:0:0:0:
15,89,88797,2,0,P|33:120|45:153,1,72,2|0,1:2|0:0,0:0:0:0:
135,77,89016,2,0,P|143:42|159:10,1,72,0|0,3:2|0:0,0:0:0:0:
329,223,89235,2,0,P|275:183|188:138,1,144,10|2,1:2|3:2,0:0:0:0:
263,353,89674,5,2,1:2:0:0:
204,265,89893,1,0,3:2:0:0:
425,39,90113,5,8,1:2:0:0:
488,134,90332,1,2,3:2:0:0:
352,220,90551,5,2,1:2:0:0:
226,130,90771,1,2,3:2:0:0:
103,184,90990,1,10,1:2:0:0:
10,135,91209,1,2,3:2:0:0:
10,135,91319,1,0,0:0:0:0:
10,135,91429,6,0,P|51:195|61:277,1,144,6|0,1:2|3:2,0:0:0:0:
108,4,91868,2,0,P|70:9|22:44,1,72,10|0,1:2|0:0,0:0:0:0:
171,68,92087,2,0,P|145:101|132:140,1,72,2|0,3:2|0:0,0:0:0:0:
302,195,92306,2,0,B|215:203|268:235|143:246,1,144,0|2,1:2|3:2,0:0:0:0:
482,353,92745,1,10,1:2:0:0:
384,264,92964,2,0,P|393:229|433:165,1,72,2|0,3:2|0:0,0:0:0:0:
275,361,93184,6,0,L|302:211,1,144,2|0,1:2|3:2,0:0:0:0:
0,245,93622,2,0,P|30:223|63:181,1,72,10|0,1:2|0:0,0:0:0:0:
16,122,93842,1,2,3:2:0:0:
91,297,94061,2,0,P|143:255|230:217,1,144,2|2,1:2|3:2,0:0:0:0:
494,272,94500,1,10,1:2:0:0:
351,85,94719,1,2,3:2:0:0:
481,16,94938,5,2,1:2:0:0:
469,127,95158,1,0,3:2:0:0:
252,221,95377,5,10,1:2:0:0:
170,24,95596,1,2,3:2:0:0:
1,178,95816,6,0,P|56:142|141:122,1,144,2|0,1:2|3:2,0:0:0:0:
429,231,96254,1,10,1:2:0:0:
196,371,96474,1,0,3:2:0:0:
196,371,96583,1,0,0:0:0:0:
196,371,96693,2,0,L|160:195,1,144,2|0,1:2|3:2,0:0:0:0:
390,328,97132,6,0,P|416:267|491:211,1,144,10|0,1:2|3:2,0:0:0:0:
227,186,97461,1,0,0:0:0:0:
227,186,97571,2,0,P|286:155|379:161,1,144,2|0,1:2|3:2,0:0:0:0:
157,288,97900,1,0,0:0:0:0:
160,287,98009,2,0,P|224:302|292:366,1,144,10|0,1:2|3:2,0:0:0:0:
96,11,98448,5,6,1:2:0:0:
96,11,98558,1,2,0:2:0:0:
38,103,98777,1,2,0:2:0:0:
38,103,98887,1,10,1:2:0:0:
167,190,99106,1,2,3:2:0:0:
167,190,99216,1,0,0:0:0:0:
167,190,99325,2,0,B|58:190|95:228|-16:223,1,170.999995433807,0|2,1:2|3:2,0:0:0:0:
230,344,99764,2,0,L|215:259,1,85.4999977169037,10|0,1:2|0:0,0:0:0:0:
152,355,99983,2,0,L|137:270,1,85.4999977169037,2|0,3:2|0:0,0:0:0:0:
314,104,100203,5,2,1:2:0:0:
314,104,100312,1,2,0:2:0:0:
393,165,100532,1,2,0:2:0:0:
393,165,100641,1,10,1:2:0:0:
445,51,100861,2,0,P|413:17|367:-4,1,85.4999977169037,2|0,3:2|0:0,0:0:0:0:
462,303,101080,2,0,P|466:223|494:110,1,170.999995433807,0|0,1:2|3:2,0:0:0:0:
382,355,101519,1,10,1:2:0:0:
242,237,101738,1,2,3:2:0:0:
4,290,101957,6,0,B|112:294|34:340|170:339,1,170.999995433807,2|0,1:2|3:2,0:0:0:0:
3,60,102396,2,0,P|14:98|69:148,1,85.4999977169037,10|0,1:2|0:0,0:0:0:0:
122,175,102615,1,2,3:2:0:0:
256,47,102835,2,0,L|58:13,1,170.999995433807,2|0,1:2|3:2,0:0:0:0:
334,146,103274,1,10,1:2:0:0:
451,75,103493,1,2,3:2:0:0:
425,344,103712,6,0,P|450:268|514:200,1,170.999995433807,2|0,1:2|3:2,0:0:0:0:
290,355,104151,2,0,P|259:323|203:298,1,85.4999977169037,10|0,1:2|0:0,0:0:0:0:
346,236,104370,1,0,3:2:0:0:
346,236,104480,1,0,0:0:0:0:
346,236,104590,2,0,P|302:162|283:72,1,170.999995433807,2|0,1:2|3:2,0:0:0:0:
512,296,105028,1,10,1:2:0:0:
424,346,105248,1,0,3:2:0:0:
429,78,105467,5,6,1:2:0:0:
429,78,105577,1,2,0:2:0:0:
505,146,105796,1,2,0:2:0:0:
505,146,105906,1,10,1:2:0:0:
420,258,106125,2,0,L|394:155,1,85.4999977169037,2|0,3:2|0:0,0:0:0:0:
340,349,106344,2,0,P|272:297|158:268,1,170.999995433807,0|2,1:2|3:2,0:0:0:0:
356,54,106783,1,10,1:2:0:0:
319,102,106893,1,2,0:2:0:0:
271,137,107002,1,2,3:2:0:0:
220,170,107112,1,2,0:2:0:0:
165,194,107222,6,0,P|79:203|-8:174,1,170.999995433807,2|0,1:2|3:2,0:0:0:0:
316,238,107660,2,0,P|282:275|264:327,1,85.4999977169037,10|0,1:2|0:0,0:0:0:0:
107,203,107880,2,0,P|141:240|159:292,1,85.4999977169037,2|0,3:2|0:0,0:0:0:0:
6,183,108099,1,0,1:2:0:0:
6,183,108209,1,0,0:0:0:0:
6,183,108319,1,0,3:2:0:0:
269,28,108538,1,10,1:2:0:0:
258,69,108648,1,2,0:2:0:0:
257,111,108757,1,2,3:2:0:0:
261,153,108867,1,2,0:2:0:0:
273,193,108977,6,0,P|301:279|348:358,1,170.999995433807,2|0,1:2|3:2,0:0:0:0:
141,91,109415,1,10,1:2:0:0:
384,157,109635,1,2,3:2:0:0:
363,141,109744,1,0,0:0:0:0:
337,133,109854,2,0,P|256:136|171:169,1,170.999995433807,2|0,1:2|3:2,0:0:0:0:
481,324,110293,1,10,1:2:0:0:
248,363,110512,1,2,3:2:0:0:
248,363,110622,1,0,0:0:0:0:
248,363,110731,2,0,P|265:284|329:200,1,170.999995433807,2|0,1:2|3:2,0:0:0:0:
26,25,111170,5,10,1:2:0:0:
38,83,111280,1,2,0:2:0:0:
52,141,111389,1,2,3:2:0:0:
64,199,111499,1,2,0:2:0:0:
77,257,111609,1,2,1:2:0:0:
