osu file format v14

[General]
AudioFilename: audio.mp3
AudioLeadIn: 0
PreviewTime: 90476
Countdown: 0
SampleSet: Soft
StackLeniency: 0.7
Mode: 0
LetterboxInBreaks: 0
WidescreenStoryboard: 0

[Editor]
Bookmarks: 13697,24668,46611,68554,85011,87754,90498,112440,134383,156326,178268,200211,222154,244097,266040,287983,309926,331868,337012
DistanceSpacing: 1.3
BeatDivisor: 4
GridSize: 32
TimelineZoom: 3.499998

[Metadata]
Title:Tsuisou Jojou Kyoku -lycoris-
TitleUnicode:終奏叙情曲 -lycoris-
Artist:EastNewSound feat. Chata
ArtistUnicode:EastNewSound feat. 茶太
Creator:Lasse
Version:Lunatic
Source:東方花映塚 ~ Phantasmagoria of Flower View.
Tags:japanese pop electronic felsic mirage いずみん izumin crouka touhou 彼岸帰航 Riverside View higan retour ZUN doujin Komachi Onozuka 小野塚小町 東方Project PoFV Kikou Kaeizuka Team Shanghai Alice ENS
BeatmapID:3565083
BeatmapSetID:1743800

[Difficulty]
HPDrainRate:7
CircleSize:4
OverallDifficulty:8
ApproachRate:9
SliderMultiplier:1.8
SliderTickRate:1

[Events]
//Background and Video events
0,0,"90384513_p0.jpg",0,0
//Break Periods
2,178469,187269
2,223554,227041
2,229040,232526
2,234526,238012
//Storyboard Layer 0 (Background)
//Storyboard Layer 1 (Fail)
//Storyboard Layer 2 (Pass)
//Storyboard Layer 3 (Foreground)
//Storyboard Layer 4 (Overlay)
//Storyboard Sound Samples

[TimingPoints]
-2759,342.857142857143,4,2,1,40,1,0
2726,-200,4,2,1,40,0,0
6841,-133.333333333333,4,2,2,45,0,0
8212,-200,4,2,1,40,0,0
13012,-166.666666666667,4,2,1,40,0,0
13355,-142.857142857143,4,2,1,40,0,0
13698,-200,4,2,1,45,0,0
16441,-133.333333333333,4,2,2,50,0,0
17812,-166.666666666667,4,2,1,45,0,0
19183,-200,4,2,1,45,0,0
21926,-200,4,2,1,50,0,0
22269,-200,4,2,2,50,0,0
22355,-200,4,2,1,50,0,0
22783,-200,4,2,2,50,0,0
22869,-200,4,2,1,50,0,0
22955,-200,4,2,1,55,0,0
23298,-200,4,2,2,55,0,0
23384,-200,4,2,1,55,0,0
24155,-200,4,2,2,55,0,0
24326,-200,4,2,1,60,0,0
24669,-108.695652173913,4,2,1,65,0,0
46612,-133.333333333333,4,2,1,55,0,0
68555,-119.047619047619,4,2,1,60,0,0
85012,-119.047619047619,4,2,1,62,0,0
89126,-108.695652173913,4,2,1,64,0,0
89812,-108.695652173913,4,2,2,66,0,0
90498,-100,4,2,1,70,0,1
111412,-100,4,2,2,70,0,1
111498,-100,4,2,1,70,0,1
111926,-100,4,2,2,70,0,1
112012,-100,4,2,1,70,0,1
112441,-108.695652173913,4,2,1,65,0,0
134383,-142.857142857143,4,2,1,52,0,0
145355,-133.333333333333,4,2,1,55,0,0
156326,-119.047619047619,4,2,1,60,0,0
172783,-119.047619047619,4,2,1,62,0,0
176897,-119.047619047619,4,2,1,64,0,0
177583,-119.047619047619,4,2,1,66,0,0
178269,-400,4,2,1,55,0,0
187869,-400,4,2,1,40,0,0
189241,-250,4,2,1,43,0,0
194555,-200,4,2,1,45,0,0
197469,-166.666666666667,4,2,1,47,0,0
198841,-133.333333333333,4,2,1,48,0,0
198926,-133.333333333333,4,2,1,49,0,0
199012,-133.333333333333,4,2,1,50,0,0
199098,-133.333333333333,4,2,1,51,0,0
199183,-133.333333333333,4,2,1,52,0,0
199269,-133.333333333333,4,2,1,53,0,0
199355,-133.333333333333,4,2,1,54,0,0
199441,-133.333333333333,4,2,1,55,0,0
199526,-133.333333333333,4,2,1,56,0,0
199612,-133.333333333333,4,2,1,57,0,0
199698,-133.333333333333,4,2,1,58,0,0
199783,-133.333333333333,4,2,1,59,0,0
199869,-133.333333333333,4,2,1,60,0,0
200212,-95.2380952380952,4,2,1,70,0,1
222155,-133.333333333333,4,2,2,50,0,0
242041,-133.333333333333,4,2,2,60,0,0
242726,-133.333333333333,4,2,2,70,0,0
243412,-133.333333333333,4,2,2,80,0,0
243926,-133.333333333333,4,2,2,5,0,0
244098,-133.333333333333,4,2,1,55,0,0
259755,-133.333333333333,4,2,1,50,0,0
259812,-133.333333333333,4,2,1,45,0,0
260041,-133.333333333333,4,2,1,55,0,0
264669,-133.333333333333,4,2,1,60,0,0
265183,-133.333333333333,4,2,1,62,0,0
265698,-133.333333333333,4,2,1,65,0,0
266041,-100,4,2,1,70,0,1
285583,-100,4,2,2,70,0,1
285669,-100,4,2,1,70,0,1
286098,-100,4,2,2,70,0,1
286183,-100,4,2,1,70,0,1
286612,-100,4,2,2,70,0,1
286698,-100,4,2,1,70,0,1
287298,-100,4,2,2,70,0,1
287383,-100,4,2,1,40,0,1
287469,-100,4,2,1,70,0,1
287983,-100,4,2,1,70,0,1
309926,-108.695652173913,4,2,1,65,0,0
331869,-200,4,2,1,50,0,0
331955,-200,4,2,1,5,0,0
332383,-200,4,2,1,39,0,0
332469,-200,4,2,1,5,0,0
332898,-200,4,2,1,30,0,0
333241,-200,4,2,1,35,0,0
333326,-200,4,2,1,5,0,0
333755,-200,4,2,1,30,0,0
333841,-200,4,2,1,5,0,0
334269,-200,4,2,1,30,0,0
334698,-200,4,2,1,5,0,0
335126,-200,4,2,1,30,0,0
335212,-200,4,2,1,5,0,0
335641,-200,4,2,1,30,0,0
337012,-200,4,2,99,25,0,0

[Colours]
Combo1 : 240,140,140
Combo2 : 200,180,220
Combo3 : 240,200,155
Combo4 : 150,185,220

[HitObjects]
219,1,2726,6,0,P|209:38|208:96,1,90,4|0,1:1|0:2,0:2:0:0:
220,185,3241,2,0,L|122:197,2,90,0|0|0,0:2|0:2|0:2,0:2:0:0:
444,200,4269,1,0,0:2:0:0:
444,200,4441,2,0,P|443:155|432:111,2,90,0|0|0,0:2|0:2|0:2,0:2:0:0:
376,339,5469,2,0,L|286:328,1,90,2|0,0:2|0:2,0:2:0:0:
191,351,5983,2,0,L|101:340,2,90,0|0|0,0:2|0:2|0:2,0:2:0:0:
309,300,6841,6,0,P|375:297|437:265,1,135.000005149842,2|8,0:2|0:2,0:2:0:0:
203,84,7355,2,0,P|136:86|75:119,2,135.000005149842,2|8|2,0:2|0:2|0:2,0:2:0:0:
291,22,8212,6,0,P|323:32|385:38,1,90,2|0,3:2|0:2,0:2:0:0:
425,109,8726,2,0,P|468:96|512:92,2,90,0|0|0,3:2|0:2|3:2,0:2:0:0:
339,226,9755,1,0,0:2:0:0:
339,226,9926,2,0,L|344:319,2,90,0|0|0,0:2|0:2|0:2,0:2:0:0:
176,164,10955,2,0,L|171:71,1,90,2|0,0:2|0:2,0:2:0:0:
89,31,11469,2,0,P|44:34|1:47,2,90,0|0|0,0:2|0:2|0:2,0:2:0:0:
181,194,12498,5,0,0:2:0:0:
181,194,12669,2,0,L|121:187,1,45,2|0,0:2|0:2,0:2:0:0:
247,312,13012,6,0,L|187:305,1,53.9999983520508,2|0,0:2|0:2,0:2:0:0:
336,141,13355,6,0,L|257:131,1,62.9999980773926,2|0,0:2|0:2,0:2:0:0:
360,260,13698,6,0,P|408:271|458:268,1,90,4|0,1:1|0:2,0:2:0:0:
501,191,14212,2,0,L|511:96,2,90,0|0|0,0:2|0:2|0:2,0:2:0:0:
325,116,15241,1,0,0:2:0:0:
325,116,15412,2,0,L|335:27,2,90,0|0|0,0:2|0:2|0:2,0:2:0:0:
416,204,16441,6,0,P|417:254|363:341,1,135.000005149842,2|8,0:2|0:2,0:2:0:0:
96,180,16955,2,0,P|95:130|149:43,2,135.000005149842,2|8|2,0:2|0:2|0:2,0:2:0:0:
53,259,17812,6,0,L|-8:266,1,53.9999983520508,2|0,3:2|0:2,0:2:0:0:
115,347,18155,2,0,L|54:354,1,53.9999983520508,0|0,2:2|3:2,2:2:0:0:
196,243,18498,2,0,P|189:272|188:304,1,53.9999983520508,2|0,0:2|0:2,0:2:0:0:
288,345,18841,2,0,P|294:318|296:291,1,53.9999983520508,0|0,0:2|3:2,0:2:0:0:
416,215,19183,6,0,P|371:210|329:193,1,90,2|0,0:2|0:2,0:2:0:0:
274,115,19698,2,0,L|268:22,2,90,0|0|0,0:2|0:2|0:2,0:2:0:0:
400,329,20726,1,0,0:2:0:0:
400,329,20898,2,0,P|441:345|486:351,2,90,0|0|0,0:2|0:2|0:2,0:2:0:0:
256,160,21926,5,2,1:2:0:0:
256,160,22098,1,0,1:2:0:0:
125,218,22269,1,8,0:2:0:0:
56,158,22441,5,2,1:2:0:0:
56,158,22612,1,0,1:2:0:0:
107,357,22783,1,8,0:2:0:0:
194,294,22955,5,0,1:2:0:0:
194,294,23041,1,0,1:2:0:0:
194,294,23126,1,0,1:2:0:0:
0,236,23298,1,8,0:2:0:0:
141,105,23469,5,0,1:2:0:0:
141,105,23555,1,0,1:2:0:0:
141,105,23641,1,0,1:2:0:0:
234,165,23812,1,0,1:2:0:0:
234,64,23983,5,2,1:2:0:0:
144,207,24155,1,8,2:2:0:0:
270,312,24326,5,0,1:2:0:0:
296,308,24412,1,0,1:2:0:0:
323,304,24498,1,0,1:2:0:0:
350,300,24583,1,0,1:2:0:0:
376,296,24669,6,0,B|457:315|457:315|522:241,1,165.599994440918,4|8,1:1|0:2,0:2:0:0:
376,88,25183,2,0,B|457:69|457:69|511:130,1,165.599994440918,2|0,0:2|1:2,0:2:0:0:
351,188,25698,2,0,P|309:179|262:171,1,82.7999972204591,8|0,0:2|0:2,0:2:0:0:
205,330,26041,2,0,P|247:339|294:347,1,82.7999972204591,2|0,1:2|0:2,0:2:0:0:
104,223,26383,1,8,0:2:0:0:
104,223,26555,2,0,P|81:299|69:398,1,165.599994440918,2|0,1:2|1:2,0:2:0:0:
210,235,27069,1,8,0:2:0:0:
210,235,27155,1,8,0:2:0:0:
210,235,27241,1,0,1:2:0:0:
29,154,27412,6,0,P|56:76|96:3,1,165.599994440918,2|8,1:2|2:2,2:2:0:0:
277,84,27926,2,0,P|249:161|209:234,1,165.599994440918,2|0,0:2|1:2,0:2:0:0:
357,143,28441,2,0,P|410:127|462:119,1,82.7999972204591,8|0,0:2|0:2,0:2:0:0:
315,211,28783,1,2,1:2:0:0:
376,44,28955,1,0,1:2:0:0:
505,169,29126,1,8,0:2:0:0:
385,279,29298,2,0,P|313:260|199:243,1,165.599994440918,2|0,1:2|1:2,0:2:0:0:
106,169,29812,1,8,0:2:0:0:
114,302,29983,1,0,1:2:0:0:
285,339,30155,6,0,L|321:152,1,165.599994440918,2|8,1:2|0:2,0:2:0:0:
512,160,30669,2,0,L|480:322,1,165.599994440918,2|0,0:2|1:2,0:2:0:0:
415,170,31183,2,0,P|426:115|437:71,1,82.7999972204591,8|0,0:2|0:2,0:2:0:0:
275,11,31526,1,2,1:2:0:0:
316,176,31698,1,0,1:2:0:0:
382,1,31869,1,8,0:2:0:0:
238,111,32041,2,0,P|171:106|66:80,1,165.599994440918,2|0,1:2|1:2,0:2:0:0:
0,171,32555,1,8,0:2:0:0:
0,171,32641,1,8,0:2:0:0:
0,171,32726,1,0,1:2:0:0:
117,262,32898,5,2,1:2:0:0:
0,362,33069,2,0,P|8:312|20:273,1,82.7999972204591,0|8,0:2|0:2,0:2:0:0:
248,218,33412,2,0,P|240:268|228:307,1,82.7999972204591,2|0,0:2|0:2,0:2:0:0:
0,171,33755,2,0,P|8:121|20:82,1,82.7999972204591,0|8,1:2|0:2,0:2:0:0:
186,13,34098,5,2,0:2:0:0:
104,37,34269,1,0,1:2:0:0:
210,95,34441,1,0,1:2:0:0:
128,119,34612,1,8,0:2:0:0:
268,39,34783,5,2,1:2:0:0:
113,135,34955,1,0,1:2:0:0:
209,290,35126,1,8,0:2:0:0:
321,171,35298,5,0,1:2:0:0:
356,165,35383,1,0,1:2:0:0:
391,160,35469,1,0,1:2:0:0:
427,154,35555,1,0,1:2:0:0:
462,149,35641,6,0,B|515:212|515:212|486:290,1,165.599994440918,4|8,1:1|0:2,0:2:0:0:
257,242,36155,2,0,B|228:320|228:320|281:383,1,165.599994440918,2|0,0:2|1:2,0:2:0:0:
361,233,36669,2,0,P|351:180|330:125,1,82.7999972204591,8|0,0:2|0:2,0:2:0:0:
266,89,37012,2,0,P|225:79|187:66,1,82.7999972204591,2|0,1:2|0:2,0:2:0:0:
416,4,37355,1,8,0:2:0:0:
353,62,37526,2,0,P|307:124|268:236,1,165.599994440918,2|0,1:2|1:2,0:2:0:0:
266,299,38041,1,8,0:2:0:0:
266,299,38126,1,8,0:2:0:0:
266,299,38212,1,0,1:2:0:0:
26,257,38383,6,0,P|117:260|203:229,1,165.599994440918,2|8,1:2|0:2,0:2:0:0:
164,53,38898,2,0,P|73:50|-13:81,1,165.599994440918,2|0,0:2|1:2,0:2:0:0:
244,133,39412,2,0,P|254:89|271:45,1,82.7999972204591,8|0,0:2|0:2,0:2:0:0:
150,143,39755,1,2,1:2:0:0:
277,235,39926,1,0,1:2:0:0:
150,143,40098,1,8,0:2:0:0:
374,104,40269,2,0,P|387:175|383:273,1,165.599994440918,2|0,1:2|1:2,0:2:0:0:
327,379,40783,1,8,0:2:0:0:
213,327,40955,1,0,1:2:0:0:
304,200,41126,6,0,L|493:182,1,165.599994440918,2|8,1:2|0:2,0:2:0:0:
266,37,41641,2,0,L|430:21,1,165.599994440918,2|0,0:2|1:2,0:2:0:0:
230,131,42155,2,0,P|175:117|138:112,1,82.7999972204591,8|0,0:2|0:2,0:2:0:0:
34,157,42498,1,0,1:2:0:0:
71,39,42669,1,0,1:2:0:0:
123,224,42841,1,8,0:2:0:0:
260,115,43012,2,0,P|338:98|431:102,1,165.599994440918,2|0,1:2|1:2,2:2:0:0:
512,225,43526,1,8,0:2:0:0:
512,225,43612,1,8,0:2:0:0:
512,225,43698,1,0,1:2:0:0:
406,361,43869,5,2,1:2:0:0:
406,361,44041,2,0,P|405:320|390:277,1,82.7999972204591,0|8,0:2|0:2,0:2:0:0:
248,183,44383,2,0,P|284:202|328:211,1,82.7999972204591,2|0,0:2|0:2,0:2:0:0:
481,135,44726,2,0,P|445:156|416:190,1,82.7999972204591,0|8,1:2|0:2,0:2:0:0:
306,299,45069,5,2,0:2:0:0:
204,269,45241,1,0,1:2:0:0:
272,207,45412,1,0,1:2:0:0:
234,362,45583,1,8,0:2:0:0:
111,246,45755,5,2,1:2:0:0:
252,107,45926,1,0,1:2:0:0:
306,299,46098,1,8,0:2:0:0:
397,178,46269,5,0,1:2:0:0:
385,149,46355,1,0,1:2:0:0:
379,118,46441,1,0,1:2:0:0:
379,87,46526,1,0,1:2:0:0:
385,57,46612,6,0,P|439:38|528:50,2,135.000005149842,4|8|0,1:1|0:2|0:2,0:2:0:0:
317,172,47469,1,0,1:2:0:0:
404,238,47641,2,0,L|477:236,1,67.5000025749208,8|0,0:2|0:2,0:2:0:0:
302,282,47983,2,0,P|252:265|178:272,1,101.250003862381,2|0,1:2|0:2,0:2:0:0:
204,265,48326,2,0,L|195:338,1,67.5000025749208,8|0,0:2|1:2,0:2:0:0:
59,189,48669,2,0,L|50:262,1,67.5000025749208,0|0,0:2|1:2,0:2:0:0:
187,162,49012,1,8,0:2:0:0:
187,162,49098,1,8,0:2:0:0:
187,162,49183,1,0,1:2:0:0:
130,51,49355,6,0,P|66:30|0:38,2,135.000005149842,2|8|0,1:2|0:2|0:2,0:2:0:0:
284,183,50212,1,0,1:2:0:0:
191,229,50383,2,0,P|186:173|191:132,1,67.5000025749208,8|0,0:2|0:2,0:2:0:0:
369,116,50726,2,0,P|381:169|371:270,1,135.000005149842,2|8,1:2|0:2,0:2:0:0:
290,349,51241,1,0,1:2:0:0:
290,349,51412,2,0,L|214:340,1,67.5000025749208,0|0,0:2|1:2,0:2:0:0:
129,376,51755,1,8,0:2:0:0:
129,376,51841,1,8,0:2:0:0:
129,376,51926,1,0,1:2:0:0:
134,234,52098,6,0,L|0:218,2,135.000005149842,2|8|0,1:2|0:2|0:2,0:2:0:0:
253,159,52955,1,0,1:2:0:0:
187,66,53126,2,0,L|119:58,1,67.5000025749208,8|0,0:2|0:2,0:2:0:0:
257,163,53469,2,0,P|314:168|370:153,1,101.250003862381,2|0,1:2|0:2,0:2:0:0:
356,158,53812,2,0,L|368:80,1,67.5000025749208,8|0,0:2|1:2,0:2:0:0:
497,238,54155,2,0,L|509:160,1,67.5000025749208,2|0,0:2|1:2,0:2:0:0:
392,276,54498,1,8,0:2:0:0:
392,276,54583,1,8,0:2:0:0:
392,276,54669,1,0,1:2:0:0:
251,361,54841,6,0,P|313:385|379:377,1,135.000005149842,2|8,1:2|0:2,0:2:0:0:
264,260,55355,2,0,P|330:251|392:276,1,135.000005149842,2|0,0:2|1:2,0:2:0:0:
267,161,55869,2,0,P|258:129|257:82,1,67.5000025749208,8|0,0:2|0:2,0:2:0:0:
389,0,56212,5,2,1:2:0:0:
389,0,56383,1,0,1:2:0:0:
426,112,56555,1,8,0:2:0:0:
293,28,56726,5,2,1:2:0:0:
293,28,56898,1,0,1:2:0:0:
267,161,57069,1,8,0:2:0:0:
185,49,57241,5,0,1:2:0:0:
151,42,57326,1,0,1:2:0:0:
117,36,57412,1,0,1:2:0:0:
84,30,57498,1,0,1:2:0:0:
51,25,57583,6,0,P|26:86|24:159,2,135.000005149842,4|8|0,1:1|0:2|0:2,0:2:0:0:
175,171,58441,1,0,1:2:0:0:
113,260,58612,2,0,L|38:252,1,67.5000025749208,8|0,0:2|0:2,0:2:0:0:
236,267,58955,2,0,P|248:325|247:383,1,101.250003862381,2|0,1:2|0:2,0:2:0:0:
248,366,59298,2,0,L|323:358,1,67.5000025749208,8|0,0:2|1:2,0:2:0:0:
473,312,59641,2,0,P|471:347|464:387,1,67.5000025749208,0|0,0:2|1:2,0:2:0:0:
359,257,59983,1,8,0:2:0:0:
359,257,60069,1,8,0:2:0:0:
359,257,60155,1,0,1:2:0:0:
473,170,60326,6,0,P|498:107|500:40,2,135.000005149842,2|8|0,1:2|0:2|0:2,0:2:0:0:
359,257,61183,1,0,1:2:0:0:
437,338,61355,2,0,P|473:337|508:330,1,67.5000025749208,8|0,0:2|0:2,0:2:0:0:
359,257,61698,2,0,P|292:241|214:239,1,135.000005149842,2|8,1:2|0:2,0:2:0:0:
122,327,62212,1,0,1:2:0:0:
122,327,62383,2,0,P|86:326|51:319,1,67.5000025749208,0|0,0:2|1:2,0:2:0:0:
9,227,62726,1,8,0:2:0:0:
9,227,62812,1,8,0:2:0:0:
9,227,62898,1,0,1:2:0:0:
147,138,63069,6,0,L|141:-6,2,135.000005149842,2|8|0,1:2|0:2|0:2,0:2:0:0:
314,159,63926,1,0,1:2:0:0:
203,273,64098,2,0,P|207:231|220:188,1,67.5000025749208,8|0,0:2|0:2,0:2:0:0:
408,221,64441,2,0,P|413:271|402:320,1,101.250003862381,2|0,1:2|0:2,0:2:0:0:
401,320,64783,2,0,L|319:310,1,67.5000025749208,8|0,0:2|1:2,0:2:0:0:
305,146,65126,2,0,P|311:114|326:66,1,67.5000025749208,2|0,0:2|1:2,0:2:0:0:
383,13,65469,1,8,0:2:0:0:
383,13,65555,1,8,0:2:0:0:
383,13,65641,1,0,1:2:0:0:
219,86,65812,6,0,L|66:64,2,135.000005149842,2|8|0,1:2|0:2|0:2,0:2:0:0:
315,164,66669,1,0,1:2:0:0:
226,239,66841,2,0,L|149:228,1,67.5000025749208,8|0,0:2|0:2,0:2:0:0:
19,180,67183,5,2,1:2:0:0:
19,180,67355,1,0,1:2:0:0:
28,322,67526,1,8,0:2:0:0:
163,233,67698,5,0,1:2:0:0:
163,233,67869,1,0,1:2:0:0:
137,375,68041,1,8,0:2:0:0:
311,301,68212,5,0,1:2:0:0:
342,313,68298,1,0,1:2:0:0:
375,319,68383,1,0,1:2:0:0:
409,319,68469,1,0,1:2:0:0:
442,312,68555,6,0,P|448:281|447:235,1,75.5999976928712,4|0,1:2|0:2,0:2:0:0:
362,77,68898,2,0,P|418:62|518:69,1,151.199995385742,8|0,0:2|0:2,0:2:0:0:
333,176,69412,1,0,1:2:0:0:
257,99,69583,2,0,L|262:24,1,75.5999976928712,8|0,0:2|0:2,0:2:0:0:
11,100,69926,2,0,P|67:85|167:92,1,151.199995385742,2|8,1:2|0:2,0:2:0:0:
245,196,70441,1,0,1:2:0:0:
245,196,70612,2,0,L|240:271,1,75.5999976928712,0|0,0:2|1:2,0:2:0:0:
237,384,70955,1,8,0:2:0:0:
237,384,71041,1,8,0:2:0:0:
237,384,71126,1,0,1:2:0:0:
123,277,71298,5,2,1:2:0:0:
123,277,71469,2,0,P|86:266|49:260,1,75.5999976928712,0|8,0:2|0:2,0:2:0:0:
176,95,71812,2,0,P|139:84|102:78,1,75.5999976928712,2|0,0:2|0:2,0:2:0:0:
245,196,72155,2,0,P|281:206|318:212,1,75.5999976928712,0|8,1:2|0:2,0:2:0:0:
380,38,72498,2,0,P|417:44|453:54,1,75.5999976928712,2|0,0:2|1:2,0:2:0:0:
265,95,72841,2,0,P|227:88|191:78,1,75.5999976928712,0|8,0:2|0:2,0:2:0:0:
33,0,73183,5,0,1:2:0:0:
55,105,73355,1,2,0:2:0:0:
20,208,73526,1,0,1:2:0:0:
42,314,73698,1,8,0:2:0:0:
42,314,73783,1,8,0:2:0:0:
42,314,73869,1,0,1:2:0:0:
166,234,74041,6,0,L|149:408,2,151.199995385742,2|8|0,1:2|0:2|0:2,0:2:0:0:
190,59,74898,1,0,1:2:0:0:
190,59,75069,2,0,P|153:51|111:51,1,75.5999976928712,8|0,0:2|0:2,0:2:0:0:
263,167,75412,2,0,P|333:184|418:180,1,151.199995385742,2|8,1:2|0:2,0:2:0:0:
512,137,75926,1,0,1:2:0:0:
425,74,76098,2,0,P|427:42|438:-4,1,75.5999976928712,0|0,0:2|1:2,0:2:0:0:
501,248,76441,1,8,0:2:0:0:
501,248,76526,1,8,0:2:0:0:
501,248,76612,1,0,1:2:0:0:
399,342,76783,6,0,P|323:345|250:327,1,151.199995385742,2|8,1:2|0:2,0:2:0:0:
59,282,77298,2,0,L|41:369,1,75.5999976928712,2|0,0:2|0:2,0:2:0:0:
265,253,77641,2,0,L|247:340,1,75.5999976928712,0|8,1:2|0:2,0:2:0:0:
111,191,77983,2,0,P|151:187|196:169,1,75.5999976928712,2|0,0:2|1:2,0:2:0:0:
149,23,78326,2,0,P|109:27|64:45,1,75.5999976928712,0|8,1:2|0:2,0:2:0:0:
260,83,78669,5,2,1:2:0:0:
370,130,78841,1,0,1:2:0:0:
343,40,79012,1,8,0:2:0:0:
286,172,79183,1,0,1:2:0:0:
278,199,79269,1,0,1:2:0:0:
273,227,79355,1,0,1:2:0:0:
271,255,79441,1,0,1:2:0:0:
271,283,79526,6,0,P|312:293|372:298,1,75.5999976928712,6|0,1:2|0:2,0:2:0:0:
195,376,79869,2,0,P|121:362|42:360,1,151.199995385742,8|0,0:2|0:2,0:2:0:0:
1,267,80383,1,0,1:2:0:0:
43,174,80555,2,0,L|39:83,1,75.5999976928712,8|0,0:2|0:2,0:2:0:0:
221,199,80898,2,0,L|214:47,1,151.199995385742,2|8,1:2|0:2,0:2:0:0:
131,277,81412,1,0,1:2:0:0:
131,277,81583,2,0,L|128:202,1,75.5999976928712,0|0,0:2|1:2,0:2:0:0:
287,293,81926,1,8,0:2:0:0:
287,293,82012,1,8,0:2:0:0:
287,293,82098,1,0,1:2:0:0:
357,172,82269,6,0,P|430:156|510:156,1,151.199995385742,2|8,1:2|0:2,0:2:0:0:
408,252,82783,2,0,P|444:246|494:245,1,75.5999976928712,2|0,0:2|0:2,0:2:0:0:
379,73,83126,2,0,P|416:67|454:66,1,75.5999976928712,0|8,1:2|0:2,0:2:0:0:
264,228,83469,2,0,P|260:189|253:148,1,75.5999976928712,2|0,0:2|1:2,0:2:0:0:
117,290,83812,2,0,P|111:253|108:216,1,75.5999976928712,0|8,0:2|0:2,0:2:0:0:
257,345,84155,5,0,1:2:0:0:
361,265,84326,1,2,0:2:0:0:
345,384,84498,1,0,1:2:0:0:
271,235,84669,1,8,0:2:0:0:
271,235,84755,1,8,0:2:0:0:
271,235,84841,1,0,1:2:0:0:
439,172,85012,5,0,1:2:0:0:
73,212,85355,1,8,1:2:0:0:
399,307,85698,1,0,1:2:0:0:
112,76,86041,1,8,1:2:0:0:
275,375,86383,1,2,1:2:0:0:
236,9,86726,1,8,1:2:0:0:
140,335,87069,1,0,1:2:0:0:
371,48,87412,1,8,1:2:0:0:
371,48,87583,1,0,1:2:0:0:
155,160,87755,5,2,1:2:0:0:
356,223,87926,1,0,1:2:0:0:
207,98,88098,1,8,1:2:0:0:
304,285,88269,1,0,1:2:0:0:
287,91,88441,1,2,1:2:0:0:
224,292,88612,1,8,1:2:0:0:
349,143,88783,1,0,1:2:0:0:
162,240,88955,1,8,1:2:0:0:
356,223,89126,5,2,1:2:0:0:
344,191,89212,1,0,1:2:0:0:
316,172,89298,1,8,1:2:0:0:
283,172,89383,1,0,1:2:0:0:
256,192,89469,1,0,1:2:0:0:
229,212,89555,1,0,1:2:0:0:
196,212,89641,1,0,1:2:0:0:
168,193,89726,1,8,1:2:0:0:
156,161,89812,6,0,L|170:111,1,41.3999986102295,2|0,3:2|3:2,0:2:0:0:
18,63,89983,2,0,L|4:113,1,41.3999986102295,2|0,3:2|3:2,0:2:0:0:
38,181,90155,6,0,L|88:195,1,41.3999986102295,8|0,3:2|3:2,0:2:0:0:
136,43,90326,2,0,L|86:29,1,41.3999986102295,8|0,3:2|3:2,0:2:0:0:
186,148,90498,6,0,B|275:166|275:166|372:120,1,180,4|8,1:1|0:2,0:2:0:0:
512,97,91012,2,0,L|498:197,1,90,0|0,1:2|0:2,0:2:0:0:
356,14,91355,1,0,1:2:0:0:
356,14,91526,2,0,L|454:5,1,90,8|0,0:2|0:2,0:2:0:0:
342,164,91869,1,2,1:2:0:0:
250,91,92041,1,0,1:2:0:0:
145,142,92212,1,8,0:2:0:0:
237,215,92383,2,0,P|236:260|223:328,1,90,0|0,1:2|0:2,0:2:0:0:
22,282,92726,2,0,P|23:327|36:395,1,90,0|8,1:2|0:2,0:2:0:0:
116,218,93069,5,0,1:2:0:0:
116,218,93241,2,0,B|108:148|108:148|117:115|117:115|107:39,1,180,2|8,1:2|0:2,0:2:0:0:
290,158,93755,2,0,P|246:167|191:170,1,90,0|0,1:2|0:2,0:2:0:0:
108,41,94098,1,0,1:2:0:0:
0,142,94269,2,0,P|44:132|88:129,1,90,8|0,0:2|0:2,0:2:0:0:
193,270,94612,1,2,1:2:0:0:
68,333,94783,1,0,1:2:0:0:
106,221,94955,1,8,2:2:0:0:
154,383,95126,1,0,1:2:0:0:
297,295,95298,5,2,0:2:0:0:
297,295,95469,1,0,1:2:0:0:
193,270,95641,1,8,0:2:0:0:
401,320,95812,1,0,1:2:0:0:
309,189,95983,6,0,P|327:107|366:3,1,180,2|8,1:2|0:2,0:2:0:0:
419,132,96498,2,0,P|468:127|520:106,1,90,0|0,1:2|0:2,0:2:0:0:
394,232,96841,1,0,1:2:0:0:
310,89,97012,2,0,P|261:94|209:115,1,90,8|0,0:2|0:2,0:2:0:0:
123,172,97355,1,2,1:2:0:0:
137,53,97526,1,0,1:2:0:0:
222,211,97698,1,8,0:2:0:0:
108,283,97869,2,0,P|59:278|7:257,1,90,0|0,1:2|0:2,0:2:0:0:
244,360,98212,2,0,P|201:374|156:378,1,90,0|8,1:2|0:2,0:2:0:0:
340,270,98555,5,0,1:2:0:0:
340,270,98726,2,0,B|444:255|407:302|516:289,1,180,2|8,1:2|0:2,0:2:0:0:
301,172,99241,2,0,P|293:85|328:-6,1,180,2|0,1:2|1:2,0:2:0:0:
186,112,99755,1,8,0:2:0:0:
186,112,99926,2,0,L|95:99,1,90,2|0,0:2|1:2,0:2:0:0:
216,215,100269,5,2,1:2:0:0:
108,241,100441,1,8,0:2:0:0:
0,267,100612,1,0,1:2:0:0:
15,153,100783,5,8,1:3:0:0:
108,241,100955,1,8,0:2:0:0:
201,329,101126,1,2,1:2:0:0:
230,345,101212,1,0,1:2:0:0:
263,353,101298,1,0,1:2:0:0:
296,354,101383,1,0,1:2:0:0:
329,346,101469,6,0,B|372:267|372:267|342:174,1,180,2|8,1:2|0:2,0:2:0:0:
279,15,101983,2,0,L|384:4,1,90,0|0,1:2|0:2,0:2:0:0:
254,190,102326,1,0,1:2:0:0:
254,190,102498,2,0,L|359:179,1,90,8|0,0:2|0:2,0:2:0:0:
149,91,102841,1,2,1:2:0:0:
68,182,103012,1,0,2:2:0:0:
8,71,103183,1,8,0:2:0:0:
68,182,103355,2,0,P|56:238|44:275,1,90,0|0,1:2|0:2,0:2:0:0:
165,382,103698,2,0,P|177:326|189:289,1,90,0|8,1:2|0:2,0:2:0:0:
303,183,104041,5,0,1:2:0:0:
365,280,104212,2,0,P|427:298|520:300,1,135,2|0,1:2|0:2,0:2:0:0:
497,302,104555,2,0,L|512:215,1,90,8|0,0:2|1:2,0:2:0:0:
405,88,104898,2,0,L|420:-1,1,90,2|0,0:2|1:2,0:2:0:0:
306,138,105241,1,8,2:2:0:0:
204,176,105412,2,0,B|157:177|157:177|112:148,1,90,2|0,0:2|1:2,0:2:0:0:
101,330,105755,2,0,B|64:306|64:306|18:307,1,90,0|8,1:2|0:2,0:2:0:0:
262,326,106098,2,0,B|322:360|322:360|414:345,1,135,2|0,1:2|0:2,0:2:0:0:
387,349,106441,2,0,L|398:249,1,90,0|8,1:2|0:2,0:2:0:0:
512,226,106783,1,0,1:2:0:0:
334,80,106955,6,0,P|416:57|522:74,1,180,2|8,1:2|0:2,0:2:0:0:
251,207,107469,2,0,L|229:7,1,180,0|0,1:2|1:2,0:2:0:0:
59,179,107983,2,0,P|103:183|145:169,1,90,8|0,0:2|0:2,0:2:0:0:
0,113,108326,1,2,1:2:0:0:
110,267,108498,1,0,1:2:0:0:
179,91,108669,1,8,0:2:0:0:
289,245,108841,2,0,P|371:268|477:251,1,180,2|0,1:2|1:2,0:2:0:0:
512,172,109355,1,8,2:2:0:0:
512,172,109441,1,8,2:2:0:0:
512,172,109526,1,0,1:2:0:0:
383,350,109698,6,0,P|384:250|366:170,1,180,2|8,1:2|0:2,0:2:0:0:
132,383,110212,2,0,P|131:283|148:203,1,180,2|0,1:2|1:2,0:2:0:0:
302,329,110726,2,0,P|256:324|206:309,1,90,10|0,0:2|0:2,0:2:0:0:
131,116,111069,5,2,1:2:0:0:
131,116,111241,1,0,1:2:0:0:
0,218,111412,1,8,0:2:0:0:
41,65,111583,5,0,1:2:0:0:
41,64,111755,1,0,1:2:0:0:
84,277,111926,1,8,0:2:0:0:
258,175,112098,5,0,1:2:0:0:
261,141,112183,1,0,1:2:0:0:
265,107,112269,1,0,1:2:0:0:
269,74,112355,1,0,1:2:0:0:
273,40,112441,6,0,P|196:9|114:16,1,165.599994440918,4|8,1:1|0:2,0:2:0:0:
158,241,112955,2,0,P|76:247|-1:217,1,165.599994440918,2|0,0:2|1:2,0:2:0:0:
182,143,113469,2,0,P|234:133|288:130,1,82.7999972204591,8|0,0:2|0:2,0:2:0:0:
284,324,113812,2,0,P|243:332|202:336,1,82.7999972204591,2|0,1:2|0:2,0:2:0:0:
312,219,114155,1,8,0:2:0:0:
312,219,114326,2,0,P|393:212|470:242,1,165.599994440918,2|0,1:2|1:2,0:2:0:0:
512,354,114841,1,8,0:2:0:0:
512,354,114926,1,8,0:2:0:0:
512,354,115012,1,0,1:2:0:0:
386,297,115183,6,0,L|402:116,1,165.599994440918,2|8,1:2|0:2,0:2:0:0:
267,43,115698,2,0,L|252:207,1,165.599994440918,2|0,0:2|1:2,0:2:0:0:
47,336,116212,2,0,P|92:335|145:322,1,82.7999972204591,8|0,0:2|0:2,0:2:0:0:
115,169,116555,1,2,1:2:0:0:
115,169,116726,2,0,P|70:170|17:183,1,82.7999972204591,0|8,0:2|0:2,0:2:0:0:
235,242,117069,2,0,P|293:243|405:220,1,165.599994440918,2|0,1:2|1:2,0:2:0:0:
497,138,117583,1,8,0:2:0:0:
497,138,117669,1,8,0:2:0:0:
497,138,117755,1,0,1:2:0:0:
375,17,117926,6,0,P|317:16|205:39,1,165.599994440918,2|8,1:2|0:2,0:2:0:0:
235,242,118441,2,0,P|317:240|398:222,1,165.599994440918,2|0,0:2|1:2,0:2:0:0:
191,132,118955,2,0,P|145:124|86:122,1,82.7999972204591,8|0,0:2|0:2,0:2:0:0:
86,338,119298,2,0,P|44:335|5:327,1,82.7999972204591,2|0,1:2|0:2,0:2:0:0:
212,249,119641,1,8,0:2:0:0:
212,249,119812,2,0,P|294:250|375:268,1,165.599994440918,2|0,1:2|1:2,0:2:0:0:
494,350,120326,1,8,0:2:0:0:
494,350,120412,1,8,0:2:0:0:
494,350,120498,1,0,1:2:0:0:
417,179,120669,5,2,1:2:0:0:
417,179,120841,2,0,L|508:172,1,82.7999972204591,0|8,0:2|0:2,0:2:0:0:
284,330,121183,2,0,L|366:323,1,82.7999972204591,2|0,0:2|0:2,0:2:0:0:
208,145,121526,2,0,L|299:138,1,82.7999972204591,0|8,1:2|0:2,0:2:0:0:
143,284,121869,5,2,0:2:0:0:
71,242,122041,1,0,1:2:0:0:
43,320,122212,1,0,1:2:0:0:
114,362,122383,1,8,0:2:0:0:
233,256,122555,5,2,1:2:0:0:
87,123,122726,1,0,1:2:0:0:
43,320,122898,1,8,0:2:0:0:
233,256,123069,5,0,1:2:0:0:
267,250,123155,1,0,1:2:0:0:
302,250,123241,1,0,1:2:0:0:
335,258,123326,1,0,1:2:0:0:
365,276,123412,6,0,B|444:301|444:301|524:237,1,165.599994440918,4|8,1:1|0:2,0:2:0:0:
341,94,123926,2,0,B|405:42|405:42|484:67,1,165.599994440918,2|0,2:2|1:2,0:2:0:0:
292,195,124441,2,0,P|253:188|208:169,1,82.7999972204591,8|0,0:2|0:2,0:2:0:0:
83,226,124783,2,0,P|44:210|4:202,1,82.7999972204591,2|0,1:2|0:2,0:2:0:0:
137,361,125126,1,8,0:2:0:0:
137,361,125298,2,0,P|222:368|303:349,1,165.599994440918,2|0,1:2|1:2,0:2:0:0:
401,287,125812,1,8,2:2:0:0:
401,287,125898,1,8,2:2:0:0:
401,287,125983,1,0,1:2:0:0:
218,219,126155,6,0,L|243:37,1,165.599994440918,2|8,1:2|0:2,0:2:0:0:
423,122,126669,2,0,L|398:304,1,165.599994440918,2|0,0:2|1:2,0:2:0:0:
332,40,127183,2,0,P|372:32|430:26,1,82.7999972204591,8|0,0:2|0:2,0:2:0:0:
307,217,127526,1,2,1:2:0:0:
307,217,127698,2,0,P|347:209|405:203,1,82.7999972204591,0|8,0:2|0:2,0:2:0:0:
233,104,128041,2,0,P|175:85|63:82,1,165.599994440918,2|0,1:2|1:2,0:2:0:0:
0,155,128555,1,8,0:2:0:0:
0,155,128641,1,8,0:2:0:0:
0,155,128726,1,0,1:2:0:0:
122,278,128898,6,0,L|151:113,1,165.599994440918,2|8,1:2|0:2,0:2:0:0:
296,221,129412,2,0,L|267:386,1,165.599994440918,2|0,0:2|1:2,0:2:0:0:
408,280,129926,2,0,P|447:273|494:270,1,82.7999972204591,8|0,0:2|0:2,0:2:0:0:
356,94,130269,2,0,P|395:87|442:84,1,82.7999972204591,2|0,1:2|0:2,0:2:0:0:
300,225,130612,1,8,0:2:0:0:
300,225,130783,2,0,P|223:238|133:217,1,165.599994440918,2|0,1:2|1:2,0:2:0:0:
29,174,131298,1,8,0:2:0:0:
29,174,131383,1,8,0:2:0:0:
29,174,131469,1,0,1:2:0:0:
95,30,131641,5,2,1:2:0:0:
95,30,131812,2,0,P|54:32|4:42,1,82.7999972204591,0|8,0:2|0:2,0:2:0:0:
211,103,132155,2,0,P|209:62|199:12,1,82.7999972204591,2|0,0:2|0:2,0:2:0:0:
138,219,132498,2,0,P|179:217|229:207,1,82.7999972204591,0|8,1:2|0:2,0:2:0:0:
402,112,132841,5,2,0:2:0:0:
362,228,133012,1,0,1:2:0:0:
324,150,133183,1,0,1:2:0:0:
440,190,133355,1,8,0:2:0:0:
298,295,133526,5,2,1:2:0:0:
459,199,133698,1,0,1:2:0:0:
331,65,133869,1,8,0:2:0:0:
197,214,134041,5,0,1:2:0:0:
166,219,134126,1,0,1:2:0:0:
135,216,134212,1,0,1:2:0:0:
106,207,134298,1,0,1:2:0:0:
79,191,134383,5,4,1:1:0:0:
0,317,134555,2,0,P|60:304|137:306,1,125.999996154785,0|0,1:2|0:2,0:2:0:0:
225,355,135069,2,0,P|287:355|349:342,1,125.999996154785,8|0,0:2|0:2,0:2:0:0:
456,259,135583,2,0,L|444:391,2,125.999996154785,0|0|0,1:2|1:2|1:2,0:2:0:0:
376,151,136441,1,8,0:2:0:0:
376,151,136612,2,0,P|437:137|500:138,1,125.999996154785,0|0,1:2|0:2,0:2:0:0:
383,30,137126,5,2,1:2:0:0:
383,30,137298,2,0,P|321:44|258:42,1,125.999996154785,0|0,1:2|0:2,0:2:0:0:
146,86,137812,2,0,P|83:84|21:98,1,125.999996154785,8|0,0:2|0:2,0:2:0:0:
164,192,138326,2,0,L|147:325,2,125.999996154785,0|0|0,1:2|1:2|1:2,0:2:0:0:
301,131,139183,1,8,0:2:0:0:
385,172,139355,1,0,1:2:0:0:
452,105,139526,1,8,0:2:0:0:
368,64,139698,1,0,1:2:0:0:
283,145,139869,5,2,1:2:0:0:
283,145,140041,2,0,L|266:278,1,125.999996154785,0|0,1:2|0:2,0:2:0:0:
361,333,140555,2,0,L|376:208,1,125.999996154785,8|0,0:2|0:2,0:2:0:0:
485,175,141069,2,0,L|469:299,2,125.999996154785,0|0|0,1:2|1:2|1:2,0:2:0:0:
432,79,141926,1,8,0:2:0:0:
432,79,142098,2,0,P|372:57|305:66,1,125.999996154785,0|0,1:2|0:2,0:2:0:0:
201,111,142612,5,2,1:2:0:0:
201,111,142783,2,0,P|138:117|80:95,1,125.999996154785,0|0,1:2|0:2,0:2:0:0:
131,221,143298,2,0,P|72:199|10:205,1,125.999996154785,8|0,0:2|0:2,0:2:0:0:
121,327,143812,2,0,P|58:333|0:311,2,125.999996154785,0|0|0,1:2|1:2|1:2,0:2:0:0:
222,256,144669,1,0,3:3:0:0:
217,240,144755,1,0,3:2:0:0:
215,225,144841,1,0,3:2:0:0:
214,209,144926,1,0,3:2:0:0:
214,193,145012,1,0,3:3:0:0:
215,178,145098,1,0,3:2:0:0:
218,162,145183,1,0,3:2:0:0:
315,78,145355,6,0,L|460:89,2,135.000005149842,4|8|0,1:1|0:2|0:2,0:2:0:0:
238,0,146212,1,0,1:2:0:0:
138,47,146383,2,0,P|131:76|127:118,1,67.5000025749208,8|0,0:2|0:2,0:2:0:0:
115,233,146726,2,0,L|-1:241,1,101.250003862381,2|0,1:2|0:2,0:2:0:0:
13,239,147069,2,0,P|16:272|23:305,1,67.5000025749208,8|0,0:2|1:2,0:2:0:0:
132,367,147412,2,0,L|217:361,1,67.5000025749208,0|0,0:2|1:2,0:2:0:0:
305,301,147755,1,8,0:2:0:0:
305,301,147841,1,8,0:2:0:0:
305,301,147926,1,0,1:2:0:0:
227,192,148098,6,0,P|231:143|259:52,2,135.000005149842,2|8|0,1:2|0:2|0:2,0:2:0:0:
305,301,148955,1,0,1:2:0:0:
384,375,149126,2,0,P|422:376|454:367,1,67.5000025749208,8|0,0:2|0:2,0:2:0:0:
305,301,149469,2,0,P|242:281|160:283,1,135.000005149842,2|8,1:2|0:2,0:2:0:0:
67,196,149983,1,0,1:2:0:0:
67,196,150155,2,0,L|-8:204,1,67.5000025749208,0|0,0:2|1:2,0:2:0:0:
111,90,150498,1,8,0:2:0:0:
111,90,150583,1,8,0:2:0:0:
111,90,150669,1,0,1:2:0:0:
204,181,150841,6,0,L|191:327,2,135.000005149842,2|8|0,1:2|0:2|0:2,0:2:0:0:
282,105,151698,1,0,1:2:0:0:
223,14,151869,2,0,P|189:9|155:7,1,67.5000025749208,8|0,0:2|0:2,0:2:0:0:
286,109,152212,2,0,P|333:118|399:118,1,101.250003862381,2|0,1:2|0:2,0:2:0:0:
386,119,152555,2,0,L|394:44,1,67.5000025749208,8|0,0:2|1:2,0:2:0:0:
505,207,152898,2,0,L|513:132,1,67.5000025749208,2|0,0:2|1:2,0:2:0:0:
398,260,153241,1,8,0:2:0:0:
398,260,153326,1,8,0:2:0:0:
398,260,153412,1,0,1:2:0:0:
291,171,153583,6,0,P|236:156|146:159,2,135.000005149842,2|8|0,1:2|0:2|0:2,0:2:0:0:
398,260,154441,1,0,1:2:0:0:
300,325,154612,2,0,P|304:287|315:250,1,67.5000025749208,8|0,0:2|0:2,0:2:0:0:
481,174,154955,5,2,1:2:0:0:
481,174,155126,1,0,1:2:0:0:
510,322,155298,1,8,0:2:0:0:
407,232,155469,5,0,1:2:0:0:
407,232,155641,1,0,1:2:0:0:
384,381,155812,1,8,0:2:0:0:
311,258,155983,5,0,1:2:0:0:
280,246,156069,1,0,1:2:0:0:
247,240,156155,1,0,1:2:0:0:
213,240,156241,1,0,1:2:0:0:
180,247,156326,6,0,P|170:282|168:325,1,75.5999976928712,4|0,1:2|0:2,0:2:0:0:
384,381,156669,2,0,P|402:308|402:214,1,151.199995385742,8|0,0:2|0:2,0:2:0:0:
354,131,157183,1,0,1:2:0:0:
424,42,157355,2,0,P|463:35|507:36,1,75.5999976928712,8|0,0:2|0:2,0:2:0:0:
354,131,157698,2,0,P|277:134|204:109,1,151.199995385742,2|8,1:2|0:2,0:2:0:0:
74,155,158212,1,0,1:2:0:0:
74,155,158383,2,0,P|35:148|-9:149,1,75.5999976928712,0|0,0:2|1:2,0:2:0:0:
162,250,158726,1,8,0:2:0:0:
162,250,158812,1,8,0:2:0:0:
162,250,158898,1,0,1:2:0:0:
278,153,159069,5,2,1:2:0:0:
278,153,159241,2,0,L|286:241,1,75.5999976928712,0|8,0:2|0:2,0:2:0:0:
219,65,159583,2,0,P|185:55|143:46,1,75.5999976928712,2|0,0:2|0:2,0:2:0:0:
324,57,159926,2,0,P|355:40|394:22,1,75.5999976928712,0|8,1:2|0:2,0:2:0:0:
191,152,160269,2,0,P|159:172|129:195,1,75.5999976928712,2|0,0:2|1:2,0:2:0:0:
367,134,160612,2,0,P|402:145|437:160,1,75.5999976928712,0|8,0:2|0:2,0:2:0:0:
285,265,160955,5,0,1:2:0:0:
388,311,161126,1,2,0:2:0:0:
295,376,161298,1,0,1:2:0:0:
192,330,161469,1,8,0:2:0:0:
192,330,161555,1,8,0:2:0:0:
192,330,161641,1,0,1:2:0:0:
293,232,161812,6,0,P|305:155|307:81,2,151.199995385742,2|8|0,1:2|0:2|0:2,0:2:0:0:
206,93,162669,1,0,1:2:0:0:
206,93,162841,2,0,P|169:85|131:84,1,75.5999976928712,8|0,0:2|0:2,0:2:0:0:
148,200,163183,2,0,P|72:196|0:214,1,151.199995385742,2|8,1:2|0:2,0:2:0:0:
153,312,163698,1,0,1:2:0:0:
250,263,163869,2,0,P|255:226|267:186,1,75.5999976928712,0|0,0:2|1:2,0:2:0:0:
340,110,164212,1,8,0:2:0:0:
340,110,164298,1,8,0:2:0:0:
340,110,164383,1,0,1:2:0:0:
364,255,164555,6,0,P|437:272|512:269,1,151.199995385742,2|8,1:2|0:2,0:2:0:0:
348,375,165069,2,0,P|312:364|275:358,1,75.5999976928712,2|0,0:2|0:2,0:2:0:0:
235,242,165412,2,0,P|199:231|162:225,1,75.5999976928712,0|8,1:2|0:2,0:2:0:0:
349,163,165755,2,0,P|386:156|422:145,1,75.5999976928712,2|0,0:2|1:2,0:2:0:0:
261,44,166098,2,0,P|225:33|188:27,1,75.5999976928712,0|8,1:2|0:2,0:2:0:0:
0,55,166441,5,2,1:2:0:0:
103,125,166612,1,0,1:2:0:0:
79,13,166783,1,8,0:2:0:0:
19,160,166955,1,0,1:2:0:0:
13,187,167041,1,0,1:2:0:0:
12,215,167126,1,0,1:2:0:0:
13,243,167212,1,0,1:2:0:0:
20,270,167298,6,0,P|56:281|93:287,1,75.5999976928712,6|0,1:2|0:2,0:2:0:0:
233,194,167641,2,0,L|259:44,1,151.199995385742,8|0,0:2|0:2,0:2:0:0:
349,1,168155,1,0,1:2:0:0:
429,114,168326,2,0,P|392:102|355:96,1,75.5999976928712,8|0,0:2|0:2,0:2:0:0:
455,246,168669,2,0,P|398:192|324:182,1,151.199995385742,2|8,1:2|0:2,0:2:0:0:
186,208,169183,1,0,1:2:0:0:
186,208,169355,2,0,P|148:201|112:190,1,75.5999976928712,0|0,0:2|1:2,0:2:0:0:
30,114,169698,1,8,0:2:0:0:
30,114,169783,1,8,0:2:0:0:
30,114,169869,1,0,1:2:0:0:
158,13,170041,5,2,1:2:0:0:
158,13,170212,2,0,P|160:59|166:116,1,75.5999976928712,0|8,0:0|0:2,0:0:0:0:
324,161,170555,2,0,P|322:115|316:58,1,75.5999976928712,2|0,0:2|0:2,0:2:0:0:
112,190,170898,2,0,P|114:236|120:293,1,75.5999976928712,0|8,1:2|0:2,0:2:0:0:
381,324,171241,2,0,P|379:278|373:221,1,75.5999976928712,2|0,0:2|1:2,0:2:0:0:
193,304,171583,2,0,P|194:341|197:379,1,75.5999976928712,0|8,0:2|0:2,0:2:0:0:
284,242,171926,5,0,1:2:0:0:
142,216,172098,1,2,0:2:0:0:
245,139,172269,1,0,1:2:0:0:
200,312,172441,1,8,0:2:0:0:
200,312,172526,1,8,0:2:0:0:
200,312,172612,1,0,1:2:0:0:
376,248,172783,5,0,1:2:0:0:
136,136,173126,1,8,1:2:0:0:
312,72,173469,1,0,1:2:0:0:
200,312,173812,1,8,1:2:0:0:
192,17,174155,5,2,1:2:0:0:
319,366,174498,1,8,1:2:0:0:
81,255,174841,1,0,1:2:0:0:
430,128,175183,1,8,1:2:0:0:
430,128,175355,1,0,1:2:0:0:
193,147,175526,5,2,1:2:0:0:
318,236,175698,1,0,1:2:0:0:
211,254,175869,1,8,1:2:0:0:
300,129,176041,1,0,1:2:0:0:
128,213,176212,5,2,1:2:0:0:
383,170,176383,1,8,1:2:0:0:
277,319,176555,1,0,1:2:0:0:
234,64,176726,1,8,1:2:0:0:
211,254,176898,5,2,1:2:0:0:
238,249,176983,1,0,1:2:0:0:
264,245,177069,1,0,1:2:0:0:
291,240,177155,1,0,1:2:0:0:
317,236,177241,1,0,1:3:0:0:
313,209,177326,1,0,1:2:0:0:
308,183,177412,1,0,1:2:0:0:
304,156,177498,1,0,1:2:0:0:
299,130,177583,1,8,1:3:0:0:
272,134,177669,1,0,1:2:0:0:
246,139,177755,1,0,1:2:0:0:
219,143,177841,1,0,1:2:0:0:
193,148,177926,1,4,1:3:0:0:
198,175,178012,1,0,1:2:0:0:
202,201,178098,1,0,1:2:0:0:
207,228,178183,1,0,1:2:0:0:
211,254,178269,1,6,1:2:0:0:
193,147,187869,5,2,0:2:0:0:
211,254,188212,1,0,0:2:0:0:
318,236,188555,1,2,0:2:0:0:
300,129,188898,1,0,0:2:0:0:
133,212,189241,6,0,P|102:208|58:192,1,72,4|0,0:2|0:2,0:2:0:0:
16,125,189755,2,0,P|20:94|36:50,1,72,0|0,0:2|0:2,0:2:0:0:
182,22,190441,1,0,0:2:0:0:
182,22,190612,2,0,P|213:26|257:42,1,72,2|0,0:2|0:2,0:2:0:0:
299,109,191126,2,0,P|295:140|279:184,1,72,0|0,0:2|0:2,0:2:0:0:
305,348,191812,5,0,0:2:0:0:
305,348,191983,2,0,P|343:339|384:339,1,72,2|0,0:2|0:2,0:2:0:0:
444,369,192498,1,0,0:2:0:0:
502,321,192669,2,0,P|503:286|495:248,1,72,0|0,0:2|0:2,0:2:0:0:
411,123,193355,1,2,0:2:0:0:
411,123,193526,1,0,0:2:0:0:
289,141,193869,1,0,0:2:0:0:
172,109,194212,1,0,0:2:0:0:
30,166,194555,5,0,0:2:0:0:
30,166,194726,2,0,P|27:206|32:258,1,90,2|0,0:2|0:2,0:2:0:0:
70,332,195241,2,0,L|179:343,1,90,0|0,0:2|0:2,0:2:0:0:
246,374,195755,2,0,P|246:351|250:329,1,45,0|0,0:2|0:2,0:2:0:0:
324,289,196098,2,0,L|433:278,1,90,2|0,0:2|0:2,0:2:0:0:
490,232,196612,2,0,P|490:209|484:176,1,45,0|0,0:2|0:2,0:2:0:0:
431,116,196955,2,0,P|431:93|435:71,1,45,0|0,0:2|0:2,0:2:0:0:
435,72,197469,6,0,L|317:63,1,107.999996704102,2|0,0:2|0:2,0:2:0:0:
390,210,197983,2,0,L|282:201,1,107.999996704102,2|0,0:2|2:2,0:2:0:0:
144,244,198498,1,2,3:2:0:0:
144,244,198669,1,0,3:2:0:0:
192,130,198841,5,0,1:2:0:0:
191,121,198926,1,0,1:2:0:0:
190,113,199012,1,0,1:2:0:0:
189,104,199098,1,0,1:2:0:0:
189,96,199183,1,0,1:2:0:0:
188,87,199269,1,0,1:2:0:0:
187,79,199355,1,0,1:2:0:0:
186,71,199441,1,0,1:2:0:0:
186,62,199526,1,0,1:2:0:0:
185,54,199612,1,0,1:2:0:0:
184,45,199698,1,0,1:2:0:0:
184,37,199783,1,0,1:2:0:0:
183,29,199869,2,2,B|130:17|130:17|80:39,1,101.250003862381,2|0,1:1|0:2,0:1:0:0:
20,111,200212,6,2,P|17:160|30:215,1,94.499997116089,6|0,1:1|0:2,0:1:0:0:
136,349,200555,2,2,L|233:340,1,94.499997116089,10|0,1:2|0:2,0:1:0:0:
395,254,200898,1,2,1:2:0:0:
508,295,201069,1,0,0:2:0:0:
488,177,201241,1,8,1:2:0:0:
378,267,201412,6,2,P|331:262|288:242,1,94.499997116089,2|0,0:2|1:2,0:1:0:0:
349,66,201755,2,2,P|395:70|438:90,1,94.499997116089,2|8,0:2|1:2,0:1:0:0:
237,123,202098,1,2,0:2:0:0:
237,123,202183,1,2,0:2:0:0:
237,123,202269,1,0,1:2:0:0:
147,15,202441,1,2,0:1:0:0:
237,123,202612,1,10,1:2:0:0:
90,150,202783,1,0,0:2:0:0:
194,251,202955,5,2,1:1:0:0:
95,276,203126,1,0,0:2:0:0:
261,329,203298,1,10,1:2:0:0:
360,354,203469,1,0,0:2:0:0:
409,193,203641,1,2,1:1:0:0:
310,168,203812,1,0,0:2:0:0:
335,261,203983,1,8,1:2:0:0:
384,100,204155,6,2,P|427:86|476:87,1,94.499997116089,2|0,0:2|1:2,0:1:0:0:
232,222,204498,1,2,0:2:0:0:
232,222,204583,1,2,0:2:0:0:
232,222,204669,2,2,L|213:116,1,94.499997116089,8|0,1:2|0:2,0:1:0:0:
27,51,205012,1,2,1:1:0:0:
151,2,205183,1,0,0:2:0:0:
94,177,205355,1,10,1:2:0:0:
151,2,205526,1,0,0:2:0:0:
237,136,205698,6,2,B|328:159|328:159|406:95,2,188.999994232178,2|8|0,1:1|1:2|1:2,0:1:0:0:
91,211,206555,2,2,L|0:188,1,94.499997116089,2|8,0:2|1:2,0:1:0:0:
114,316,206898,5,2,0:2:0:0:
215,359,207069,2,2,P|259:360|332:342,1,94.499997116089,2|0,1:1|0:2,0:1:0:0:
308,350,207326,1,2,0:1:0:0:
308,350,207412,1,8,1:2:0:0:
438,384,207583,1,2,0:1:0:0:
408,255,207755,2,2,P|458:257|507:270,1,94.499997116089,2|0,1:2|0:2,0:1:0:0:
315,168,208098,2,2,P|267:166|222:155,1,94.499997116089,8|0,1:2|0:2,0:1:0:0:
51,67,208441,6,0,L|41:-3,2,62.9999980773926,2|0|0,1:1|2:1|2:2,0:1:0:0:
118,134,208783,2,0,L|128:204,2,62.9999980773926,8|0|0,1:2|0:2|0:2,0:2:0:0:
172,59,209126,1,2,1:1:0:0:
212,39,209241,1,0,0:2:0:0:
255,42,209355,1,0,0:2:0:0:
288,70,209469,1,10,1:2:0:0:
307,109,209583,1,0,0:2:0:0:
346,128,209698,1,0,0:2:0:0:
389,125,209812,6,0,P|435:113|502:110,1,94.499997116089,2|0,1:1|1:2,0:2:0:0:
338,253,210155,1,2,1:2:0:0:
312,244,210241,1,0,1:2:0:0:
285,236,210326,1,0,1:2:0:0:
260,232,210412,1,0,1:2:0:0:
233,232,210498,1,2,1:1:0:0:
208,237,210583,1,0,1:2:0:0:
183,247,210669,1,0,1:2:0:0:
159,258,210755,1,0,1:2:0:0:
134,267,210841,1,2,1:2:0:0:
108,268,210926,1,0,1:2:0:0:
83,267,211012,1,0,1:2:0:0:
55,262,211098,1,0,1:2:0:0:
30,254,211183,6,2,P|37:197|56:142,1,94.499997116089,6|0,1:1|0:2,0:1:0:0:
255,12,211526,2,2,P|269:86|269:167,1,141.749995674133,10|0,1:2|0:2,0:1:0:0:
270,152,211869,2,2,L|164:158,1,94.499997116089,2|0,1:1|0:2,0:1:0:0:
420,272,212212,5,10,1:2:0:0:
420,272,212383,2,2,P|481:272|533:251,1,94.499997116089,2|0,0:1|1:2,0:1:0:0:
398,79,212726,2,0,P|443:66|490:68,1,94.499997116089,2|8,0:2|1:2,0:2:0:0:
334,189,213069,1,2,0:2:0:0:
334,189,213241,2,2,B|245:221|245:221|154:194,1,188.999994232178,2|8,1:1|1:2,0:1:0:0:
67,239,213755,1,0,0:2:0:0:
179,85,213926,6,2,B|88:58|88:58|-28:100,2,188.999994232178,2|8|0,1:1|1:2|1:2,0:1:0:0:
274,13,214783,1,2,0:2:0:0:
274,13,214869,1,2,0:2:0:0:
274,13,214955,1,8,1:2:0:0:
386,130,215126,2,2,B|398:84|398:84|377:39,1,94.499997116089,2|0,0:1|1:2,0:1:0:0:
271,185,215469,5,2,0:2:0:0:
271,185,215555,1,2,0:2:0:0:
271,185,215641,1,8,1:2:0:0:
372,255,215812,1,2,0:2:0:0:
372,255,215898,1,2,0:2:0:0:
372,255,215983,2,2,P|418:253|480:226,1,94.499997116089,2|0,1:1|0:2,0:1:0:0:
463,236,216241,2,2,P|467:209|473:182,1,47.2499985580445,2|8,0:1|1:2,0:1:0:0:
510,76,216498,1,2,1:2:0:0:
337,19,216669,6,2,L|132:42,1,188.999994232178,2|8,1:1|1:2,0:1:0:0:
10,177,217183,1,2,0:2:0:0:
10,177,217355,2,2,P|55:159|109:153,1,94.499997116089,0|0,1:2|0:2,0:1:0:0:
139,327,217698,2,2,P|94:345|40:351,1,94.499997116089,10|0,1:2|0:2,0:1:0:0:
261,196,218041,6,2,P|347:179|431:198,1,141.749995674133,2|0,1:1|0:2,0:1:0:0:
399,186,218383,2,2,P|415:139|405:76,1,94.499997116089,10|0,1:2|0:2,0:1:0:0:
258,283,218726,2,2,P|290:320|350:343,1,94.499997116089,2|0,1:1|0:2,0:1:0:0:
198,107,219069,2,2,P|149:116|99:156,1,94.499997116089,10|0,1:2|0:2,0:1:0:0:
13,237,219412,5,2,1:1:0:0:
13,237,219583,1,0,1:2:0:0:
0,121,219755,1,10,1:2:0:0:
0,121,219926,1,0,1:2:0:0:
129,261,220098,1,2,1:1:0:0:
129,261,220269,1,0,1:2:0:0:
116,145,220441,1,10,1:2:0:0:
116,145,220612,1,0,1:2:0:0:
260,45,220783,5,2,1:1:0:0:
219,194,220955,1,0,1:2:0:0:
368,235,221126,1,8,1:2:0:0:
476,165,221298,5,2,1:1:0:0:
470,147,221383,1,0,1:2:0:0:
464,128,221469,1,0,1:2:0:0:
359,92,221641,1,2,1:1:0:0:
260,45,221812,1,2,1:2:0:0:
266,27,221898,1,0,1:2:0:0:
272,8,221983,1,0,1:2:0:0:
359,92,222155,6,0,P|380:157|369:226,1,135.000005149842,6|8,0:2|0:2,0:2:0:0:
153,292,222669,2,0,P|132:227|143:158,2,135.000005149842,2|8|2,0:2|0:2|0:2,0:2:0:0:
450,144,227641,6,0,P|389:117|322:113,1,135.000005149842,2|8,0:2|0:2,0:2:0:0:
189,269,228155,2,0,P|122:266|61:239,2,135.000005149842,2|8|2,0:2|0:2|0:2,0:2:0:0:
394,230,233126,6,0,P|397:163|373:100,1,135.000005149842,2|8,0:2|0:2,0:2:0:0:
118,154,233641,2,0,P|114:220|138:283,2,135.000005149842,2|8|2,0:2|0:2|0:2,0:2:0:0:
304,279,238612,6,0,P|372:279|438:252,1,135.000005149842,2|8,0:2|0:2,0:2:0:0:
208,105,239126,2,0,P|139:104|74:132,2,135.000005149842,2|8|2,0:2|0:2|0:2,0:2:0:0:
256,192,241355,12,0,243926,0:2:0:0:
117,61,244098,6,0,L|104:201,2,135.000005149842,4|8|0,1:1|0:2|0:2,0:2:0:0:
176,0,244955,1,0,1:2:0:0:
255,37,245126,1,8,0:2:0:0:
339,167,245469,2,0,P|405:172|485:138,1,135.000005149842,2|8,1:2|0:2,0:2:0:0:
389,270,245983,2,0,P|322:265|259:287,1,135.000005149842,0|0,1:2|1:2,0:2:0:0:
179,339,246498,1,8,0:2:0:0:
179,339,246583,1,8,0:2:0:0:
179,339,246669,1,0,1:2:0:0:
84,236,246841,6,0,L|72:101,2,135.000005149842,2|8|0,1:2|0:2|0:2,0:2:0:0:
38,311,247698,1,0,1:2:0:0:
114,353,247869,2,0,P|152:349|193:332,1,67.5000025749208,8|0,0:2|0:2,0:2:0:0:
179,339,248126,1,0,1:2:0:0:
179,339,248212,1,2,1:2:0:0:
255,283,248383,1,0,1:2:0:0:
195,209,248555,1,8,0:2:0:0:
249,130,248726,1,0,1:2:0:0:
249,130,249069,1,0,1:2:0:0:
309,204,249241,1,8,0:2:0:0:
255,283,249412,1,0,1:2:0:0:
168,199,249583,6,0,P|101:181|25:187,2,135.000005149842,2|8|0,1:2|0:2|0:2,0:2:0:0:
239,249,250441,1,0,1:2:0:0:
211,332,250612,1,8,0:2:0:0:
388,251,250955,1,2,1:2:0:0:
440,319,251126,1,0,1:2:0:0:
512,267,251298,1,8,0:2:0:0:
458,197,251469,2,0,L|470:40,1,135.000005149842,0|0,1:2|1:2,0:2:0:0:
371,6,251983,1,8,1:2:0:0:
366,30,252069,1,0,1:2:0:0:
351,50,252155,1,0,1:2:0:0:
329,61,252241,1,0,1:2:0:0:
304,61,252326,6,0,P|261:41|151:34,2,135.000005149842,2|8|0,1:2|0:2|0:2,0:2:0:0:
363,125,253183,1,0,1:2:0:0:
450,116,253355,1,8,0:2:0:0:
307,242,253698,5,2,1:2:0:0:
307,242,253869,1,0,1:2:0:0:
394,306,254041,1,8,0:2:0:0:
391,212,254212,5,0,1:2:0:0:
391,212,254383,1,0,1:2:0:0:
304,332,254555,1,8,0:2:0:0:
225,203,254726,5,0,1:2:0:0:
202,192,254812,1,0,1:2:0:0:
177,185,254898,1,0,1:2:0:0:
152,183,254983,1,0,1:2:0:0:
127,185,255069,6,0,L|112:324,2,135.000005149842,2|8|0,1:2|0:2|0:2,0:2:0:0:
86,106,255926,1,0,1:2:0:0:
37,179,256098,1,8,0:2:0:0:
206,266,256441,2,0,L|220:131,1,135.000005149842,2|8,1:2|0:2,0:2:0:0:
311,234,256955,2,0,L|325:99,1,135.000005149842,0|0,1:2|1:2,0:2:0:0:
392,29,257469,1,8,0:2:0:0:
392,29,257555,1,8,0:2:0:0:
392,29,257641,1,0,1:2:0:0:
464,135,257812,6,0,L|449:269,2,135.000005149842,2|8|0,1:2|0:2|0:2,0:2:0:0:
510,60,258669,1,0,1:2:0:0:
435,14,258841,1,8,0:2:0:0:
327,151,259183,1,2,1:2:0:0:
252,105,259355,1,0,1:2:0:0:
180,156,259526,1,8,0:2:0:0:
255,202,259698,2,0,L|258:234,2,22.5000008583069,0|0|0,1:2|1:2|1:2,1:2:0:0:
105,74,260041,5,0,1:2:0:0:
34,137,260212,1,8,0:2:0:0:
78,220,260383,1,0,1:2:0:0:
180,156,260555,6,0,L|168:295,2,135.000005149842,2|8|0,1:2|0:2|0:2,0:2:0:0:
250,103,261412,1,0,1:2:0:0:
225,18,261583,1,8,0:2:0:0:
382,139,261926,1,2,1:2:0:0:
351,221,262098,1,0,1:2:0:0:
435,246,262269,1,8,0:2:0:0:
466,164,262441,2,0,P|474:98|455:31,1,135.000005149842,0|0,1:2|1:2,0:2:0:0:
362,7,262955,1,8,0:2:0:0:
362,7,263041,1,8,0:2:0:0:
362,7,263126,1,0,1:2:0:0:
267,72,263298,6,0,P|200:79|135:61,2,135.000005149842,2|8|0,1:2|0:2|0:2,0:2:0:0:
322,139,264155,1,0,1:2:0:0:
406,114,264326,1,8,0:2:0:0:
314,270,264669,5,2,1:2:0:0:
314,270,264841,1,0,1:2:0:0:
433,331,265012,1,8,0:2:0:0:
427,224,265183,5,0,1:2:0:0:
427,224,265355,1,0,1:2:0:0:
323,371,265526,1,8,0:2:0:0:
231,214,265698,5,0,1:2:0:0:
235,181,265783,1,0,1:2:0:0:
240,148,265869,1,0,1:2:0:0:
245,116,265955,1,0,1:2:0:0:
250,83,266041,6,0,B|161:61|161:61|60:111,1,180,4|8,1:1|1:2,0:2:0:0:
95,244,266555,2,0,L|1:253,1,90,2|0,0:2|1:2,0:2:0:0:
256,366,266898,2,0,L|162:375,1,90,2|8,0:2|1:2,0:2:0:0:
345,215,267241,1,2,0:2:0:0:
345,215,267326,1,2,0:2:0:0:
345,215,267412,1,0,1:2:0:0:
453,259,267583,1,2,2:2:0:0:
506,155,267755,1,8,1:2:0:0:
398,111,267926,2,0,P|387:70|381:20,1,90,2|0,0:2|1:2,0:2:0:0:
179,135,268269,2,0,P|190:176|196:226,1,90,2|8,0:2|1:2,0:2:0:0:
329,312,268612,5,2,0:2:0:0:
329,312,268783,2,0,P|316:220|296:134,1,180,0|8,1:2|1:2,0:2:0:0:
107,236,269298,2,0,P|160:232|203:220,1,90,2|0,0:2|1:2,0:2:0:0:
164,28,269641,2,0,P|111:32|68:44,1,90,2|8,0:2|1:2,0:2:0:0:
308,146,269983,1,2,0:2:0:0:
308,146,270069,1,2,0:2:0:0:
308,146,270155,2,0,P|363:146|442:118,1,135,0|0,1:2|0:2,0:2:0:0:
438,120,270498,2,0,P|429:67|416:24,1,90,8|0,1:2|0:2,0:2:0:0:
170,114,270841,5,2,1:2:0:0:
314,151,271012,1,0,0:2:0:0:
265,29,271183,1,10,1:2:0:0:
218,223,271355,1,0,0:2:0:0:
340,312,271526,6,0,P|429:315|512:283,1,180,2|8,1:2|1:2,0:2:0:0:
424,99,272041,2,0,L|519:83,1,90,2|0,0:2|1:2,0:2:0:0:
338,212,272383,2,0,P|334:168|322:119,1,90,2|8,0:2|1:2,0:2:0:0:
200,19,272726,1,2,0:2:0:0:
200,19,272812,1,2,0:2:0:0:
200,19,272898,1,0,1:2:0:0:
96,72,273069,1,2,0:2:0:0:
191,140,273241,1,8,1:2:0:0:
87,193,273412,2,0,P|38:190|-16:168,1,90,2|0,0:2|1:2,0:2:0:0:
199,377,273755,2,0,P|156:362|111:360,1,90,2|8,0:2|1:2,0:2:0:0:
346,277,274098,5,2,0:2:0:0:
346,277,274269,2,0,B|456:274|407:227|515:216,1,180,0|8,1:2|1:2,0:2:0:0:
389,0,274783,2,0,P|352:78|358:184,1,180,2|0,0:2|0:2,0:2:0:0:
237,39,275298,1,8,1:2:0:0:
237,39,275469,2,0,L|146:26,1,90,2|0,0:2|1:2,0:2:0:0:
0,171,275812,5,2,1:2:0:0:
88,247,275983,1,8,1:2:0:0:
91,224,276069,1,0,1:2:0:0:
94,201,276155,1,0,1:2:0:0:
187,289,276326,1,8,3:3:0:0:
190,266,276412,1,8,3:3:0:0:
193,243,276498,1,8,3:3:0:0:
196,220,276583,1,8,3:3:0:0:
199,197,276669,2,0,L|189:143,1,45,4|0,3:3|3:2,0:2:0:0:
253,82,276841,5,4,3:3:0:0:
253,82,276926,1,4,3:3:0:0:
253,82,277012,2,0,B|341:102|341:102|433:51,1,180,2|8,1:2|1:2,0:2:0:0:
512,224,277526,2,0,P|476:212|419:204,1,90,2|0,0:2|1:2,0:2:0:0:
398,364,277869,2,0,P|434:376|491:384,1,90,2|8,0:2|1:2,0:2:0:0:
315,262,278212,1,2,0:2:0:0:
315,262,278298,1,2,0:2:0:0:
315,262,278383,1,0,1:2:0:0:
212,318,278555,1,2,0:2:0:0:
95,304,278726,1,10,1:2:0:0:
7,225,278898,2,0,P|11:182|23:135,1,90,2|0,0:2|1:2,0:2:0:0:
229,230,279241,2,0,P|223:274|212:318,1,90,2|8,0:2|1:2,0:2:0:0:
111,171,279583,5,2,0:2:0:0:
191,102,279755,2,0,L|346:89,1,135,0|0,1:2|0:2,0:2:0:0:
325,90,280098,2,0,P|320:45|309:1,1,90,10|0,1:2|0:2,0:2:0:0:
111,192,280441,2,0,P|116:237|127:281,1,90,2|0,1:2|0:2,0:2:0:0:
307,359,280783,1,8,1:2:0:0:
307,359,280955,2,0,L|422:343,1,90,2|0,0:2|1:2,0:2:0:0:
307,149,281298,2,0,L|422:133,1,90,2|8,0:2|1:2,0:2:0:0:
215,267,281641,2,0,L|126:280,1,90,2|0,0:2|1:2,0:2:0:0:
210,52,281983,2,0,L|120:64,1,90,2|8,0:2|1:2,0:2:0:0:
329,174,282326,5,2,0:2:0:0:
329,174,282498,2,0,L|538:144,1,180,0|8,1:2|1:2,0:2:0:0:
338,68,283012,1,2,0:2:0:0:
338,68,283183,2,0,P|380:54|429:14,1,90,0|0,1:2|0:2,0:2:0:0:
334,284,283526,2,0,P|273:254|207:245,1,135,10|0,1:2|0:2,0:2:0:0:
207,244,283869,2,0,P|189:304|185:354,2,90,2|0|8,1:2|0:2|1:2,0:2:0:0:
434,297,284383,2,0,P|427:341|412:383,1,90,2|0,0:2|1:2,0:2:0:0:
311,170,284726,1,2,0:2:0:0:
311,170,284812,1,2,0:2:0:0:
311,170,284898,2,0,P|317:125|332:83,1,90,8|0,1:2|0:2,0:2:0:0:
461,5,285241,5,2,1:2:0:0:
461,5,285412,1,0,1:2:0:0:
488,159,285583,1,8,0:2:0:0:
351,67,285755,5,2,1:2:0:0:
351,67,285926,1,0,1:2:0:0:
378,221,286098,1,8,0:2:0:0:
241,129,286269,5,2,1:2:0:0:
241,129,286441,1,0,1:2:0:0:
268,283,286612,1,8,0:2:0:0:
131,191,286783,5,2,1:2:0:0:
106,207,286869,1,0,1:2:0:0:
76,211,286955,1,0,1:2:0:0:
48,202,287041,1,0,1:2:0:0:
27,182,287126,1,0,1:2:0:0:
16,154,287212,1,0,1:2:0:0:
19,124,287298,2,0,P|32:98|59:74,1,45,8|0,0:2|0:2,0:2:0:0:
129,42,287469,5,2,1:2:0:0:
144,67,287555,1,0,1:2:0:0:
167,87,287641,1,0,1:2:0:0:
194,99,287726,1,0,1:2:0:0:
223,103,287812,1,0,1:2:0:0:
253,98,287898,1,0,1:2:0:0:
280,85,287983,6,0,B|359:46|359:46|460:75,1,180,4|8,1:1|1:2,0:2:0:0:
424,232,288498,2,0,P|484:229|532:210,1,90,2|0,0:2|1:2,0:2:0:0:
290,344,288841,2,0,P|333:355|378:356,1,90,2|8,0:2|1:2,0:2:0:0:
191,237,289183,1,2,0:2:0:0:
191,237,289269,1,2,0:2:0:0:
191,237,289355,1,0,1:2:0:0:
86,290,289526,1,2,0:2:0:0:
1,209,289698,1,8,1:2:0:0:
106,156,289869,2,0,P|121:112|130:54,1,90,2|0,0:2|1:2,0:2:0:0:
296,242,290212,2,0,P|250:251|195:272,1,90,2|8,2:2|1:2,0:2:0:0:
268,16,290555,5,2,0:2:0:0:
268,16,290726,2,0,P|300:97|400:113,1,180,0|8,1:2|1:2,0:2:0:0:
512,282,291241,2,0,P|505:235|488:190,1,90,2|0,0:2|1:2,0:2:0:0:
319,297,291583,2,0,P|326:344|343:389,1,90,2|8,0:2|1:2,0:2:0:0:
391,209,291926,1,2,0:2:0:0:
391,209,292012,1,2,0:2:0:0:
391,209,292098,2,0,L|253:190,1,135,0|0,1:2|0:2,0:2:0:0:
257,190,292441,2,0,P|241:147|235:103,1,90,8|0,1:2|0:2,0:2:0:0:
0,70,292783,5,2,1:2:0:0:
113,11,292955,1,0,0:2:0:0:
33,194,293126,1,8,1:2:0:0:
146,135,293298,1,0,0:2:0:0:
71,325,293469,6,0,B|159:346|159:346|244:318,1,180,2|8,1:2|1:2,0:2:0:0:
477,285,293983,2,0,B|462:327|462:327|470:392,1,90,2|0,0:2|1:2,0:2:0:0:
254,230,294326,2,0,B|259:275|259:275|244:317,1,90,2|8,0:2|1:2,0:2:0:0:
368,144,294669,1,2,0:2:0:0:
368,144,294755,1,2,0:2:0:0:
368,144,294841,1,0,1:2:0:0:
479,178,295012,1,2,0:2:0:0:
510,64,295183,1,8,1:2:0:0:
399,31,295355,2,0,P|356:19|297:10,1,90,2|0,0:2|1:2,0:2:0:0:
226,242,295698,2,0,P|268:253|313:262,1,90,2|8,0:2|1:2,0:2:0:0:
184,68,296041,5,2,0:2:0:0:
184,68,296212,2,0,B|117:53|117:53|79:63|79:63|-7:43,1,180,0|8,1:2|1:2,0:2:0:0:
138,220,296726,2,0,P|194:230|306:170,1,180,2|0,0:2|0:2,0:2:0:0:
408,48,297241,1,8,1:2:0:0:
408,48,297412,2,0,L|517:35,1,90,2|0,0:2|1:2,0:2:0:0:
300,177,297755,5,2,1:2:0:0:
437,265,297926,1,8,0:2:0:0:
437,265,298012,1,8,0:2:0:0:
437,265,298098,1,0,1:2:0:0:
393,131,298269,5,2,1:2:0:0:
339,312,298441,1,8,0:2:0:0:
198,205,298612,5,0,1:2:0:0:
192,182,298698,1,0,1:2:0:0:
188,160,298783,1,0,1:2:0:0:
183,138,298869,1,0,1:2:0:0:
179,116,298955,6,0,P|102:108|20:169,1,180,4|8,1:1|1:2,0:2:0:0:
247,32,299469,2,0,P|207:20|132:6,1,90,2|0,0:2|1:2,0:2:0:0:
215,231,299812,2,0,P|175:219|100:205,1,90,2|8,0:2|1:2,0:2:0:0:
338,140,300155,1,2,0:2:0:0:
338,140,300241,1,2,0:2:0:0:
338,140,300326,1,0,1:2:0:0:
426,217,300498,1,2,0:2:0:0:
508,134,300669,1,8,1:2:0:0:
420,57,300841,2,0,P|375:47|332:34,1,90,2|0,0:2|1:2,0:2:0:0:
246,268,301183,2,0,P|290:277|333:290,1,90,2|8,0:2|1:2,0:2:0:0:
222,113,301526,5,2,0:2:0:0:
139,182,301698,2,0,P|82:181|-8:146,1,135,0|0,1:2|0:2,0:2:0:0:
8,156,302041,2,0,P|14:111|36:66,1,90,8|0,1:2|0:2,0:2:0:0:
200,254,302383,2,0,P|158:271|108:274,1,90,2|0,1:2|0:2,0:2:0:0:
188,38,302726,1,8,1:2:0:0:
188,38,302898,2,0,P|223:66|249:103,1,90,2|0,0:2|1:2,0:2:0:0:
410,132,303241,2,8,P|446:106|474:71,1,90,2|8,2:2|1:2,0:2:0:0:
381,292,303583,2,0,P|406:328|441:356,1,90,2|0,0:2|1:2,0:2:0:0:
221,263,303926,2,0,P|184:288|156:323,1,90,2|8,0:2|1:2,0:2:0:0:
435,217,304269,5,2,0:2:0:0:
435,217,304441,2,0,L|404:22,1,180,0|8,1:2|1:2,2:2:0:0:
250,0,304955,1,2,0:2:0:0:
250,0,305126,2,0,L|264:88,1,90,0|0,1:2|0:2,0:2:0:0:
157,205,305469,2,0,P|83:200|30:166,1,135,10|0,1:2|0:2,0:2:0:0:
32,168,305812,2,0,P|12:208|0:251,2,90,2|0|8,1:2|0:2|1:2,0:2:0:0:
226,301,306326,2,0,P|214:344|194:384,1,90,2|0,0:2|1:2,0:2:0:0:
135,180,306669,1,2,0:2:0:0:
135,180,306755,1,2,0:2:0:0:
135,180,306841,2,0,P|146:136|166:96,1,90,8|0,1:2|0:2,0:2:0:0:
328,31,307183,5,2,1:2:0:0:
328,31,307355,1,0,1:2:0:0:
447,167,307526,1,8,1:2:0:0:
426,12,307698,5,2,1:2:0:0:
426,12,307869,1,0,1:2:0:0:
357,206,308041,1,8,1:2:0:0:
185,119,308212,5,10,1:2:0:0:
94,141,308383,1,0,1:2:0:0:
94,141,308469,1,0,1:2:0:0:
94,141,308555,1,0,1:2:0:0:
3,163,308726,1,0,1:2:0:0:
67,32,308898,5,10,1:2:0:0:
117,237,309069,1,0,1:2:0:0:
117,237,309155,1,0,1:2:0:0:
117,237,309241,1,0,1:2:0:0:
294,229,309412,5,2,1:2:0:0:
297,195,309498,1,0,1:2:0:0:
300,162,309583,1,0,1:2:0:0:
303,128,309669,1,0,1:2:0:0:
306,95,309755,1,0,1:2:0:0:
309,61,309841,1,0,1:2:0:0:
313,28,309926,6,0,P|422:32|474:69,1,165.599994440918,4|8,1:1|0:2,0:2:0:0:
433,251,310441,2,0,P|351:255|279:217,1,165.599994440918,2|0,0:2|1:2,0:2:0:0:
120,366,310955,2,0,P|172:356|227:356,1,82.7999972204591,8|0,0:2|0:2,0:2:0:0:
82,204,311298,2,0,P|40:206|0:215,1,82.7999972204591,2|0,1:2|0:2,0:2:0:0:
175,109,311641,1,8,0:2:0:0:
175,109,311812,2,0,P|256:113|328:75,1,165.599994440918,2|0,1:2|1:2,0:2:0:0:
394,7,312326,1,8,0:2:0:0:
394,7,312412,1,8,0:2:0:0:
394,7,312498,1,0,1:2:0:0:
512,206,312669,6,0,L|341:177,1,165.599994440918,2|8,1:2|0:2,0:2:0:0:
326,347,313183,2,0,L|489:374,1,165.599994440918,2|0,0:2|1:2,0:2:0:0:
256,284,313698,2,0,P|239:322|231:362,1,82.7999972204591,8|0,0:2|0:2,0:2:0:0:
95,178,314041,1,2,1:2:0:0:
95,178,314212,2,0,P|111:139|119:99,1,82.7999972204591,0|8,0:2|0:2,0:2:0:0:
156,279,314555,2,0,P|75:266|-1:300,1,165.599994440918,2|0,1:2|1:2,0:2:0:0:
239,371,315069,1,8,0:2:0:0:
239,371,315155,1,8,0:2:0:0:
239,371,315241,1,0,1:2:0:0:
331,259,315412,6,0,L|311:57,1,165.599994440918,2|8,1:2|0:2,0:2:0:0:
477,118,315926,2,0,L|493:282,1,165.599994440918,2|0,0:2|1:2,0:2:0:0:
412,31,316441,2,0,P|457:22|517:21,1,82.7999972204591,8|0,0:2|0:2,0:2:0:0:
369,168,316783,2,0,P|324:177|264:178,1,82.7999972204591,2|0,1:2|0:2,0:2:0:0:
193,50,317126,1,8,0:2:0:0:
193,50,317298,2,0,P|112:36|30:73,1,165.599994440918,2|0,1:2|1:2,0:2:0:0:
0,169,317812,1,8,0:2:0:0:
0,169,317898,1,8,0:2:0:0:
0,169,317983,1,0,1:2:0:0:
128,268,318155,5,2,1:2:0:0:
128,268,318326,2,0,L|37:261,1,82.7999972204591,0|8,0:2|0:2,0:2:0:0:
267,168,318669,2,0,L|185:161,1,82.7999972204591,2|0,0:2|0:2,0:2:0:0:
283,372,319012,2,0,L|192:365,1,82.7999972204591,0|8,1:2|0:2,0:2:0:0:
409,267,319355,5,2,0:2:0:0:
481,223,319526,1,0,1:2:0:0:
497,307,319698,1,0,1:2:0:0:
424,350,319869,1,8,0:2:0:0:
312,177,320041,5,2,1:2:0:0:
481,223,320212,1,0,1:2:0:0:
438,53,320383,1,8,0:2:0:0:
312,177,320555,5,0,1:2:0:0:
281,191,320640,1,0,1:2:0:0:
247,194,320726,1,0,1:2:0:0:
215,183,320812,1,0,1:2:0:0:
188,162,320898,6,0,P|145:129|26:138,1,165.599994440918,4|8,1:1|0:2,0:2:0:0:
153,337,321412,2,0,P|72:347|2:306,1,165.599994440918,2|0,0:2|1:2,0:2:0:0:
262,287,321926,2,0,L|274:379,1,82.7999972204591,8|0,0:2|0:2,0:2:0:0:
469,236,322269,2,0,L|481:328,1,82.7999972204591,2|0,1:2|0:2,0:2:0:0:
356,205,322612,1,8,0:2:0:0:
356,205,322783,2,0,L|334:40,1,165.599994440918,2|0,1:2|1:2,0:2:0:0:
234,12,323298,1,8,0:2:0:0:
234,12,323383,1,8,0:2:0:0:
234,12,323469,1,0,1:2:0:0:
163,135,323641,6,0,P|82:145|12:104,1,165.599994440918,2|8,1:2|0:2,0:2:0:0:
169,307,324155,2,0,P|98:265|18:276,1,165.599994440918,2|0,0:2|1:2,0:2:0:0:
257,179,324669,2,0,P|257:215|272:270,1,82.7999972204591,8|0,0:2|0:2,0:2:0:0:
451,157,325012,1,2,1:2:0:0:
451,157,325183,2,0,P|451:121|436:66,1,82.7999972204591,0|8,0:2|0:2,0:2:0:0:
512,233,325526,2,0,P|441:191|361:202,1,165.599994440918,2|0,1:2|1:2,0:2:0:0:
275,268,326041,1,8,0:2:0:0:
275,268,326126,1,8,0:2:0:0:
275,268,326212,1,0,1:2:0:0:
129,170,326383,6,0,L|158:5,1,165.599994440918,2|8,1:2|0:2,0:2:0:0:
303,104,326898,2,0,L|274:267,1,165.599994440918,2|0,0:2|1:2,0:2:0:0:
82,380,327412,2,0,P|120:366|162:363,1,82.7999972204591,8|0,0:2|0:2,0:2:0:0:
129,170,327755,2,0,P|90:183|48:186,1,82.7999972204591,2|0,1:2|0:2,0:2:0:0:
278,271,328098,1,8,0:2:0:0:
278,271,328269,2,0,P|356:278|432:241,1,165.599994440918,2|0,1:2|1:2,0:2:0:0:
512,162,328783,1,8,0:2:0:0:
512,162,328869,1,8,0:2:0:0:
512,162,328955,1,0,1:2:0:0:
409,11,329126,5,2,1:2:0:0:
409,11,329298,2,0,P|450:13|500:23,1,82.7999972204591,0|8,0:2|0:2,0:2:0:0:
281,122,329641,2,0,P|283:81|293:31,1,82.7999972204591,2|0,0:2|0:2,0:2:0:0:
392,250,329983,2,0,P|351:248|301:238,1,82.7999972204591,0|8,1:2|0:2,0:2:0:0:
59,122,330326,5,2,0:2:0:0:
161,83,330498,1,0,1:2:0:0:
86,37,330669,1,0,1:2:0:0:
134,168,330841,1,8,0:2:0:0:
267,49,331012,5,2,1:2:0:0:
59,122,331183,1,0,1:2:0:0:
133,330,331355,1,8,0:2:0:0:
249,267,331526,5,0,1:2:0:0:
252,236,331611,1,0,1:2:0:0:
254,205,331697,1,0,1:2:0:0:
256,174,331783,1,0,1:2:0:0:
259,144,331869,6,0,B|251:98|251:98|256:68|256:68|245:7,2,135,4|0|0,0:1|0:2|0:2,0:2:0:0:
296,218,333241,2,0,B|339:234|339:234|363:253|363:253|421:274,2,135,2|0|0,0:2|0:2|0:2,0:2:0:0:
212,213,334612,2,0,B|177:243|177:243|148:254|148:254|101:294,2,135,2|0|0,0:2|0:2|0:2,0:2:0:0:
259,144,335983,5,2,0:2:0:0:
296,218,336155,1,0,0:2:0:0:
212,213,336326,1,0,0:2:0:0:
259,144,336498,1,2,0:2:0:0:
256,192,337012,5,2,0:2:0:0:
