osu file format v14

[General]
AudioFilename: audio.mp3
AudioLeadIn: 0
PreviewTime: 120237
Countdown: 1
SampleSet: Normal
StackLeniency: 0.7
Mode: 0
LetterboxInBreaks: 0
WidescreenStoryboard: 0

[Editor]
DistanceSpacing: 1
BeatDivisor: 4
GridSize: 4
TimelineZoom: 1.6

[Metadata]
Title:Soleil
TitleUnicode:Soleil
Artist:EastNewSound
ArtistUnicode:EastNewSound
Creator:ICboom
Version:Insane
Source:
Tags:touhou
BeatmapID:1033956
BeatmapSetID:484738

[Difficulty]
HPDrainRate:6
CircleSize:4
OverallDifficulty:5
ApproachRate:8.7
SliderMultiplier:1.6
SliderTickRate:1

[Events]
//Background and Video events
0,0,"bg.jpg",0,0
//Break Periods
2,60437,74487
2,120437,126987
2,127937,134018
2,180437,194592
2,240437,247092
2,247937,252717
//Storyboard Layer 0 (Background)
//Storyboard Layer 1 (Fail)
//Storyboard Layer 2 (Pass)
//Storyboard Layer 3 (Foreground)
//Storyboard Sound Samples

[TimingPoints]
237,468.75,4,1,0,100,1,0
15237,-83.3333333333333,4,1,0,100,0,0
30237,-66.6666666666667,4,1,0,100,0,0
75237,-133.333333333333,4,1,0,100,0,0
90237,-100,4,1,0,100,0,0
104768,-83.3333333333333,4,1,0,100,0,0
135237,-66.6666666666667,4,1,0,100,0,0
150237,-50,4,1,0,100,0,1
179768,-100,4,1,0,100,0,0
195237,-133.333333333333,4,1,0,100,0,0
210237,-100,4,1,0,100,0,0
225237,-83.3333333333333,4,1,0,100,0,0
255237,-66.6666666666667,4,1,0,100,0,0
270237,-50,4,1,0,100,0,1
300237,-100,4,1,0,100,0,0

[HitObjects]
96,136,237,6,0,L|192:104,1,80
288,132,705,1,0,0:0:0:0:
388,212,940,2,0,L|224:264,1,160
235,260,1643,1,0,0:0:0:0:
476,244,1877,1,0,0:0:0:0:
364,284,2112,1,0,0:0:0:0:
144,212,2580,5,0,0:0:0:0:
256,164,2815,1,0,0:0:0:0:
256,164,3283,5,0,0:0:0:0:
44,52,3752,5,0,0:0:0:0:
152,108,3987,2,0,L|252:156,1,80
332,196,4455,1,0,0:0:0:0:
212,220,4690,1,0,0:0:0:0:
476,128,5393,1,0,0:0:0:0:
240,76,5862,5,0,0:0:0:0:
124,108,6096,5,0,0:0:0:0:
212,188,6330,1,0,0:0:0:0:
240,76,6565,1,0,0:0:0:0:
268,272,6799,5,0,0:0:0:0:
312,36,7268,1,0,0:0:0:0:
316,276,7737,6,0,L|264:188,1,80
156,196,8205,1,0,0:0:0:0:
36,192,8440,1,0,0:0:0:0:
268,136,8908,5,0,0:0:0:0:
388,132,9143,1,0,0:0:0:0:
508,132,9377,1,0,0:0:0:0:
460,240,9612,1,0,0:0:0:0:
380,228,9846,5,0,0:0:0:0:
332,292,10080,1,0,0:0:0:0:
268,244,10315,1,0,0:0:0:0:
216,304,10549,1,0,0:0:0:0:
452,348,11018,1,0,0:0:0:0:
72,56,11487,6,0,L|148:116,1,80
92,172,11955,1,0,0:0:0:0:
116,248,12190,1,0,0:0:0:0:
188,216,12424,1,0,0:0:0:0:
208,140,12658,1,0,0:0:0:0:
208,140,13362,5,0,0:0:0:0:
188,216,13596,1,0,0:0:0:0:
116,248,13830,1,0,0:0:0:0:
40,360,14299,5,0,0:0:0:0:
180,284,14768,1,0,0:0:0:0:
400,108,15237,6,0,L|292:96,1,95.9999970703126
264,124,15588,1,0,0:0:0:0:
220,140,15705,2,0,L|112:128,1,95.9999970703126
76,44,16174,5,0,0:0:0:0:
100,88,16291,2,0,L|168:208,1,95.9999970703126
172,212,16643,1,0,0:0:0:0:
92,332,16877,1,0,0:0:0:0:
236,320,17112,6,0,L|368:340,1,95.9999970703126
372,312,17463,1,0,0:0:0:0:
412,284,17580,2,0,L|280:264,1,95.9999970703126
172,252,18049,5,0,0:0:0:0:
216,236,18166,1,0,0:0:0:0:
132,120,18401,5,0,0:0:0:0:
180,120,18518,1,0,0:0:0:0:
228,124,18635,1,0,0:0:0:0:
276,128,18752,1,0,0:0:0:0:
316,156,18869,1,0,0:0:0:0:
356,180,18987,1,0,0:0:0:0:
224,240,19221,5,0,0:0:0:0:
180,256,19338,1,0,0:0:0:0:
136,272,19455,2,0,L|24:312,1,95.9999970703126
80,164,19924,5,0,0:0:0:0:
124,144,20041,2,0,L|220:100,1,95.9999970703126
256,84,20393,1,0,0:0:0:0:
120,40,20627,1,0,0:0:0:0:
408,60,20862,6,0,L|448:184,1,95.9999970703126
440,200,21213,1,0,0:0:0:0:
440,248,21330,1,0,0:0:0:0:
456,152,21565,1,0,0:0:0:0:
336,228,21799,5,0,0:0:0:0:
296,256,21916,1,0,0:0:0:0:
204,368,22151,5,0,0:0:0:0:
164,340,22268,1,0,0:0:0:0:
124,316,22385,1,0,0:0:0:0:
84,288,22502,1,0,0:0:0:0:
76,240,22619,1,0,0:0:0:0:
84,96,22737,6,0,L|148:56,3,47.9999985351563
208,188,23205,2,0,L|144:148,3,47.9999985351563
276,68,23674,2,0,L|340:28,3,47.9999985351563
372,176,24143,2,0,L|308:136,3,47.9999985351563
380,288,24612,6,0,L|444:328,3,47.9999985351563
284,264,25080,2,0,L|220:304,3,47.9999985351563
188,156,25549,2,0,L|252:196,3,47.9999985351563
116,272,26018,2,0,L|52:312,3,47.9999985351563
84,152,26487,6,0,P|104:120|144:92,1,47.9999985351563
156,96,26721,1,0,0:0:0:0:
204,96,26838,1,0,0:0:0:0:
244,8,26955,6,0,P|276:27|304:68,1,47.9999985351563
300,79,27189,1,0,0:0:0:0:
299,126,27306,1,0,0:0:0:0:
388,164,27424,6,0,P|368:196|328:224,1,47.9999985351563
317,220,27658,1,0,0:0:0:0:
270,219,27775,1,0,0:0:0:0:
232,308,27893,6,0,P|200:288|172:248,1,47.9999985351563
176,237,28127,1,0,0:0:0:0:
177,190,28244,1,0,0:0:0:0:
236,112,28362,6,0,L|316:88,1,47.9999985351563
328,92,28596,1,0,0:0:0:0:
376,92,28713,1,0,0:0:0:0:
320,168,28830,6,0,L|344:248,1,47.9999985351563
340,260,29064,1,0,0:0:0:0:
340,308,29181,1,0,0:0:0:0:
176,256,29299,6,0,L|220:280,5,31.9999990234375
204,271,29768,1,0,0:0:0:0:
468,44,30237,6,0,B|452:88|428:96|428:96|432:144|416:160,1,120.000004577637
368,220,30588,2,0,B|337:184|342:159|342:159|299:138|293:116,1,120.000004577637
272,44,30940,2,0,B|318:35|337:52|337:52|376:25|398:31,1,120.000004577637
388,120,31291,1,0,0:0:0:0:
300,132,31408,2,0,L|164:144,1,120.000004577637
360,156,31877,1,0,0:0:0:0:
272,316,32112,6,0,L|192:220,1,120.000004577637
104,236,32463,2,0,L|184:332,1,120.000004577637
92,344,32815,2,0,L|15:251,1,120.000004577637
104,236,33166,1,0,0:0:0:0:
164,300,33283,2,0,L|228:188,1,120.000004577637
44,180,33752,1,0,0:0:0:0:
252,176,33987,6,0,B|172:200|172:200|112:180,1,120.000004577637
88,264,34338,2,0,B|148:321|148:321|161:383,1,120.000004577637
248,352,34690,2,0,B|267:270|267:270|314:228,1,120.000004577637
216,204,35041,1,0,0:0:0:0:
216,204,35158,1,0,0:0:0:0:
376,288,35393,5,0,0:0:0:0:
344,256,35510,1,0,0:0:0:0:
296,252,35627,1,0,0:0:0:0:
180,60,35862,6,0,P|240:60|316:104,1,120.000004577637
222,139,36213,2,0,P|276:164|336:164,1,120.000004577637
293,83,36565,2,0,P|352:83|407:108,1,120.000004577637
336,164,36916,1,0,0:0:0:0:
420,192,37033,2,0,P|384:240|304:252,1,120.000004577637
412,96,37502,1,0,0:0:0:0:
328,256,37737,6,0,P|264:244|192:272,1,120.000004577637
164,184,38088,2,0,P|206:134|218:58,1,120.000004577637
312,76,38440,2,0,P|333:137|393:185,1,120.000004577637
380,116,38791,1,0,0:0:0:0:
372,174,38908,1,0,0:0:0:0:
368,236,39026,1,0,0:0:0:0:
328,280,39143,2,0,L|244:320,1,60.0000022888184
204,248,39377,2,0,L|258:222,1,60.0000022888184
220,140,39612,6,0,B|192:92|192:92|128:68,1,120.000004577637
108,156,39963,2,0,B|80:204|80:204|91:271,1,120.000004577637
180,244,40315,2,0,B|235:243|235:243|288:200,1,120.000004577637
285,202,40783,1,0,0:0:0:0:
316,152,40901,1,0,0:0:0:0:
368,124,41018,2,0,L|504:124,1,120.000004577637
316,152,41487,6,0,L|192:160,1,120.000004577637
148,192,41838,1,0,0:0:0:0:
100,224,41955,2,0,L|260:264,1,120.000004577637
272,272,42307,1,0,0:0:0:0:
328,292,42424,1,0,0:0:0:0:
384,312,42541,1,0,0:0:0:0:
444,304,42658,1,0,0:0:0:0:
428,184,42893,5,0,0:0:0:0:
368,180,43010,1,0,0:0:0:0:
308,192,43127,1,0,0:0:0:0:
316,72,43362,5,0,0:0:0:0:
316,72,43479,1,0,0:0:0:0:
316,72,43596,2,0,L|244:48,1,60.0000022888184
232,140,43830,2,0,L|304:168,1,60.0000022888184
336,236,44065,2,0,L|368:168,1,60.0000022888184
452,172,44299,2,0,L|424:236,1,60.0000022888184
408,284,44533,1,0,0:0:0:0:
360,320,44651,1,0,0:0:0:0:
300,312,44768,1,0,0:0:0:0:
300,312,45002,1,0,0:0:0:0:
212,64,45237,5,0,0:0:0:0:
212,64,45354,1,0,0:0:0:0:
212,64,45471,2,0,L|128:112,1,60.0000022888184
216,120,45705,2,0,L|364:136,1,120.000004577637
384,172,46057,1,0,0:0:0:0:
444,184,46174,2,0,L|488:160,4,30.0000011444092
392,256,46526,5,0,0:0:0:0:
340,332,46643,2,0,L|328:376,2,40.000001525879
304,156,46877,2,0,L|314:127,3,30.0000011444092
252,188,47112,6,0,L|132:208,1,120.000004577637
92,248,47463,1,0,0:0:0:0:
112,304,47580,2,0,P|180:312|208:264,1,120.000004577637
188,216,47932,1,0,0:0:0:0:
168,160,48049,1,0,0:0:0:0:
144,104,48166,1,0,0:0:0:0:
124,48,48283,6,0,L|180:52,3,30.0000011444092
184,56,48518,1,0,0:0:0:0:
244,64,48635,1,0,0:0:0:0:
304,76,48752,1,0,0:0:0:0:
416,276,48987,6,0,B|428:172|428:172|412:32,1,240.000009155274
432,156,49690,2,0,L|416:284,1,120.000004577637
356,276,50041,1,0,0:0:0:0:
296,280,50158,2,0,L|200:284,1,60.0000022888184
151,319,50393,2,0,L|120:292,2,40.000001525879
116,144,50627,2,0,L|152:176,3,30.0000011444092
180,184,50862,5,0,0:0:0:0:
240,184,50979,1,0,0:0:0:0:
300,184,51096,1,0,0:0:0:0:
360,180,51213,1,0,0:0:0:0:
420,176,51330,2,0,L|456:112,1,60.0000022888184
424,300,51565,2,0,L|240:304,1,180.000006866455
244,303,52033,1,0,0:0:0:0:
244,303,52151,1,0,0:0:0:0:
104,312,52268,6,0,L|160:316,7,30.0000011444092
104,312,52737,6,0,L|68:168,1,120.000004577637
74,195,53088,1,0,0:0:0:0:
74,195,53205,2,0,L|168:212,1,60.0000022888184
188,132,53440,2,0,L|128:121,1,60.0000022888184
180,48,53674,2,0,L|372:88,1,180.000006866455
356,84,54143,6,0,L|392:128,2,40.000001525879
300,176,54377,2,0,L|272:200,3,30.0000011444092
376,244,54612,6,0,B|416:328|416:328|516:348,2,180.000006866455
320,264,55432,1,0,0:0:0:0:
260,252,55549,1,0,0:0:0:0:
204,268,55666,6,0,L|116:312,1,60.0000022888184
104,256,55901,1,0,0:0:0:0:
52,284,56018,2,0,L|0:296,7,30.0000011444092
16,260,56487,6,0,L|52:124,1,120.000004577637
76,196,56838,2,0,L|175:96,1,120.000004577637
159,170,57190,2,0,L|294:133,1,120.000004577637
274,138,57541,1,0,0:0:0:0:
274,138,57658,6,0,L|416:140,1,120.000004577637
136,140,58127,1,0,0:0:0:0:
408,288,58362,6,0,L|280:344,1,120.000004577637
208,180,58713,2,0,L|336:236,1,120.000004577637
416,76,59065,2,0,L|288:132,1,120.000004577637
306,124,59416,1,0,0:0:0:0:
306,124,59533,2,0,L|164:124,1,120.000004577637
186,124,60002,1,0,0:0:0:0:
256,192,60237,5,0,0:0:0:0:
256,192,75237,5,0,0:0:0:0:
256,192,76174,6,0,L|364:152,2,90.0000034332277
168,184,77112,5,0,0:0:0:0:
260,284,77463,1,0,0:0:0:0:
124,296,77815,1,0,0:0:0:0:
204,240,78049,1,0,0:0:0:0:
204,240,78518,5,0,0:0:0:0:
292,232,78752,1,0,0:0:0:0:
380,220,78987,2,0,L|368:288,1,60.0000022888184
292,232,79455,2,0,L|302:172,1,60.0000022888184
320,84,79924,2,0,L|192:96,1,120.000004577637
200,95,80627,1,0,0:0:0:0:
200,95,80862,5,0,0:0:0:0:
116,200,81213,1,0,0:0:0:0:
268,104,81565,1,0,0:0:0:0:
208,172,81799,1,0,0:0:0:0:
300,328,82268,1,0,0:0:0:0:
300,328,82737,5,0,0:0:0:0:
212,320,82971,1,0,0:0:0:0:
124,308,83205,1,0,0:0:0:0:
300,328,83440,1,0,0:0:0:0:
124,308,83674,6,0,L|192:232,2,90.0000034332277
184,240,84612,5,0,0:0:0:0:
320,256,84963,1,0,0:0:0:0:
264,132,85315,1,0,0:0:0:0:
344,168,85549,1,0,0:0:0:0:
96,108,86018,6,0,L|120:240,1,120.000004577637
117,226,86955,1,0,0:0:0:0:
180,160,87190,1,0,0:0:0:0:
268,128,87424,1,0,0:0:0:0:
117,226,87893,1,0,0:0:0:0:
204,248,88127,1,0,0:0:0:0:
292,224,88362,2,0,P|356:240|344:304,1,120.000004577637
308,360,89065,1,0,0:0:0:0:
360,288,89299,1,0,0:0:0:0:
360,288,89768,5,0,0:0:0:0:
432,60,90237,6,0,L|316:60,1,80
320,84,90588,1,0,0:0:0:0:
288,108,90705,2,0,L|208:108,1,80
260,216,91174,2,0,L|340:216,1,80
428,296,91643,1,0,0:0:0:0:
308,300,91877,1,0,0:0:0:0:
188,312,92112,5,0,0:0:0:0:
160,196,92346,1,0,0:0:0:0:
88,292,92580,1,0,0:0:0:0:
72,172,92815,1,0,0:0:0:0:
164,96,93049,1,0,0:0:0:0:
200,212,93283,1,0,0:0:0:0:
72,172,93518,5,0,0:0:0:0:
112,164,93635,1,0,0:0:0:0:
152,156,93752,1,0,0:0:0:0:
192,148,93869,1,0,0:0:0:0:
232,148,93987,2,0,L|328:148,1,80
364,256,94455,2,0,L|256:256,1,80
288,44,94924,2,0,L|368:44,1,80
444,136,95393,2,0,L|444:248,1,80
444,336,95862,5,0,0:0:0:0:
340,280,96096,1,0,0:0:0:0:
440,216,96330,1,0,0:0:0:0:
320,196,96565,1,0,0:0:0:0:
232,276,96799,2,0,B|200:304|200:304|148:304,1,80
276,344,97268,5,0,0:0:0:0:
308,324,97385,1,0,0:0:0:0:
340,304,97502,1,0,0:0:0:0:
372,284,97619,1,0,0:0:0:0:
408,264,97737,2,0,L|408:152,1,80
412,64,98205,6,0,L|328:100,1,80
300,96,98557,1,0,0:0:0:0:
260,96,98674,2,0,L|186:64,1,80
176,184,99143,2,0,L|249:215,1,80
360,268,99612,5,0,0:0:0:0:
244,300,99846,1,0,0:0:0:0:
132,260,100080,1,0,0:0:0:0:
136,380,100315,1,0,0:0:0:0:
244,300,100549,6,0,L|336:284,1,80
252,188,101018,1,0,0:0:0:0:
212,180,101135,1,0,0:0:0:0:
172,172,101252,1,0,0:0:0:0:
132,164,101369,1,0,0:0:0:0:
92,156,101487,2,0,P|84:104|92:52,1,80
100,40,101838,1,0,0:0:0:0:
140,28,101955,2,0,P|180:24|252:40,1,80
188,144,102424,6,0,P|196:196|188:248,1,80
180,260,102775,1,0,0:0:0:0:
140,272,102892,2,0,P|100:276|28:260,1,80
312,204,103362,6,0,P|304:256|312:308,1,80
320,320,103713,1,0,0:0:0:0:
360,332,103830,2,0,P|400:336|472:320,1,80
476,312,104182,1,0,0:0:0:0:
504,284,104299,2,0,P|488:232|488:184,1,80
432,100,104768,5,0,0:0:0:0:
392,108,104885,1,0,0:0:0:0:
352,112,105002,1,0,0:0:0:0:
312,112,105119,1,0,0:0:0:0:
272,104,105237,2,0,P|228:92|152:96,1,95.9999970703126
136,116,105588,1,0,0:0:0:0:
116,160,105705,6,0,L|168:192,1,47.9999985351563
140,280,105940,2,0,L|99:254,1,47.9999985351563
232,244,106174,2,0,L|268:196,1,47.9999985351563
328,276,106408,2,0,L|299:314,1,47.9999985351563
208,340,106643,5,0,0:0:0:0:
160,352,106760,1,0,0:0:0:0:
112,348,106877,1,0,0:0:0:0:
72,320,106994,1,0,0:0:0:0:
64,272,107112,2,0,L|76:160,1,95.9999970703126
312,52,107580,2,0,L|301:147,1,95.9999970703126
301,147,108049,5,0,0:0:0:0:
172,88,108283,1,0,0:0:0:0:
212,228,108518,1,0,0:0:0:0:
448,200,108752,1,0,0:0:0:0:
340,252,108987,1,0,0:0:0:0:
464,324,109221,5,0,0:0:0:0:
420,340,109338,1,0,0:0:0:0:
372,344,109455,1,0,0:0:0:0:
276,340,109690,2,0,B|224:328|224:328|168:336,1,95.9999970703126
136,348,110041,1,0,0:0:0:0:
92,336,110158,2,0,B|72:292|72:292|92:240,1,95.9999970703126
89,247,110627,1,0,0:0:0:0:
232,264,110862,5,0,0:0:0:0:
175,147,111096,1,0,0:0:0:0:
291,90,111330,1,0,0:0:0:0:
348,207,111565,1,0,0:0:0:0:
212,256,111799,5,0,0:0:0:0:
392,277,112033,1,0,0:0:0:0:
415,96,112268,1,0,0:0:0:0:
233,74,112502,1,0,0:0:0:0:
100,132,112737,6,0,P|76:180|64:256,1,95.9999970703126
68,268,113088,1,0,0:0:0:0:
88,312,113205,2,0,P|168:308|284:320,1,191.999994140625
279,319,113908,1,0,0:0:0:0:
348,252,114143,1,0,0:0:0:0:
284,180,114377,1,0,0:0:0:0:
216,248,114612,1,0,0:0:0:0:
284,180,114846,1,0,0:0:0:0:
220,112,115080,1,0,0:0:0:0:
152,180,115315,1,0,0:0:0:0:
128,88,115549,6,0,P|152:44|208:20,1,95.9999970703126
208,208,116018,5,0,0:0:0:0:
232,248,116135,1,0,0:0:0:0:
268,280,116253,1,0,0:0:0:0:
312,300,116370,1,0,0:0:0:0:
360,304,116487,2,0,L|464:304,1,95.9999970703126
456,32,116955,5,0,0:0:0:0:
432,72,117072,1,0,0:0:0:0:
396,104,117190,1,0,0:0:0:0:
352,124,117307,1,0,0:0:0:0:
304,128,117424,2,0,L|200:128,1,95.9999970703126
164,152,117776,1,0,0:0:0:0:
148,196,117893,1,0,0:0:0:0:
180,232,118010,1,0,0:0:0:0:
228,232,118127,1,0,0:0:0:0:
276,236,118244,1,0,0:0:0:0:
312,268,118362,6,0,L|344:248,1,23.9999992675781
324,312,118479,2,0,L|356:312,1,23.9999992675781
296,352,118596,2,0,L|320:372,1,23.9999992675781
248,356,118713,2,0,L|248:388,1,23.9999992675781
204,336,118830,2,0,L|216:304,1,23.9999992675781
156,336,118947,2,0,L|144:368,1,23.9999992675781
120,304,119065,2,0,L|88:332,1,23.9999992675781
108,256,119182,2,0,L|64:260,1,23.9999992675781
120,164,119299,6,0,L|124:132,7,23.9999992675781
120,164,119768,1,0,0:0:0:0:
120,164,120237,5,0,0:0:0:0:
256,192,127737,5,0,0:0:0:0:
256,192,134768,5,0,0:0:0:0:
96,92,135237,6,0,L|220:68,1,120.000004577637
260,108,135588,1,0,0:0:0:0:
312,140,135705,2,0,L|436:116,1,120.000004577637
420,236,136174,2,0,L|320:256,1,60.0000022888184
302,258,136526,1,0,0:0:0:0:
302,258,136643,1,0,0:0:0:0:
420,236,136877,1,0,0:0:0:0:
76,236,137112,6,0,L|192:204,1,120.000004577637
191,204,137463,1,0,0:0:0:0:
191,204,137580,1,0,0:0:0:0:
76,236,137815,1,0,0:0:0:0:
160,324,138049,1,0,0:0:0:0:
204,364,138166,1,0,0:0:0:0:
312,312,138401,6,0,L|264:264,1,60.0000022888184
224,232,138635,1,0,0:0:0:0:
176,196,138752,1,0,0:0:0:0:
232,176,138869,1,0,0:0:0:0:
188,136,138987,2,0,L|96:52,1,120.000004577637
160,48,139338,1,0,0:0:0:0:
220,44,139455,2,0,L|360:40,1,120.000004577637
339,40,139924,5,0,0:0:0:0:
380,84,140041,1,0,0:0:0:0:
292,164,140276,1,0,0:0:0:0:
272,220,140393,1,0,0:0:0:0:
252,272,140627,1,0,0:0:0:0:
136,300,140862,6,0,L|184:176,1,120.000004577637
179,188,141213,1,0,0:0:0:0:
179,188,141330,1,0,0:0:0:0:
60,188,141565,1,0,0:0:0:0:
120,84,141799,1,0,0:0:0:0:
180,80,141916,1,0,0:0:0:0:
300,80,142151,6,0,L|364:84,1,60.0000022888184
416,108,142385,1,0,0:0:0:0:
444,160,142502,1,0,0:0:0:0:
436,220,142619,1,0,0:0:0:0:
352,304,142737,6,0,L|280:320,3,60.0000022888184
216,224,143205,2,0,L|274:210,3,60.0000022888184
336,108,143674,2,0,L|349:166,3,60.0000022888184
236,124,144143,2,0,L|222:65,3,60.0000022888184
152,164,144612,6,0,P|120:188|100:232,1,60.0000022888184
100,264,144846,1,0,0:0:0:0:
132,312,144963,1,0,0:0:0:0:
224,236,145080,6,0,P|228:275|256:315,1,60.0000022888184
284,331,145314,1,0,0:0:0:0:
342,327,145431,1,0,0:0:0:0:
344,208,145549,6,0,P|380:223|428:219,1,60.0000022888184
456,203,145783,1,0,0:0:0:0:
481,151,145900,1,0,0:0:0:0:
380,88,146018,6,0,P|343:72|295:76,1,60.0000022888184
268,93,146252,1,0,0:0:0:0:
243,145,146369,1,0,0:0:0:0:
324,232,146487,5,4,0:0:0:0:
268,256,146604,1,0,0:0:0:0:
208,260,146721,1,0,0:0:0:0:
156,228,146838,1,0,0:0:0:0:
128,176,146955,1,4,0:0:0:0:
68,168,147072,1,0,0:0:0:0:
20,204,147190,1,0,0:0:0:0:
20,264,147307,1,0,0:0:0:0:
72,292,147424,5,4,0:0:0:0:
132,284,147541,1,0,0:0:0:0:
188,304,147658,1,0,0:0:0:0:
224,352,147776,1,0,0:0:0:0:
284,360,147893,1,4,0:0:0:0:
340,336,148010,1,0,0:0:0:0:
372,284,148127,1,0,0:0:0:0:
364,224,148244,1,0,0:0:0:0:
328,176,148362,6,0,L|292:148,5,40.000001525879
304,112,148830,2,0,L|312:52,5,40.000001525879
276,48,149299,2,0,L|232:28,7,30.0000011444092
248,35,149768,5,0,0:0:0:0:
184,192,150237,6,0,B|152:148|164:104|164:104|124:84|44:112,1,160
256,116,150588,2,0,B|310:110|342:142|342:142|379:118|395:34,1,160
292,224,150940,2,0,B|269:273|225:285|225:285|228:329|292:385,1,160
292,348,151291,1,0,0:0:0:0:
336,360,151408,6,0,L|380:308,1,40
388,212,151643,2,0,L|432:160,1,40
376,68,151877,1,0,0:0:0:0:
316,48,151994,1,0,0:0:0:0:
256,68,152112,6,0,P|168:84|96:64,1,160
72,140,152463,2,0,P|129:208|148:280,1,160
228,272,152815,2,0,P|258:187|311:135,1,160
368,128,153166,1,0,0:0:0:0:
432,128,153283,6,0,L|448:172,1,40
416,256,153518,2,0,L|432:300,1,40
312,312,153752,1,0,0:0:0:0:
88,96,153987,6,0,B|100:116|100:116|112:120|112:120|104:136|104:136|120:136|120:136|120:156|120:156|132:160|132:160|136:176|136:176|156:176|156:176|156:192|156:192|176:212,1,160
304,264,154338,2,0,B|280:264|280:264|271:272|271:272|261:257|261:257|253:271|253:271|236:261|236:261|226:270|226:270|210:265|210:265|200:282|200:282|186:274|186:274|159:282,1,160
48,368,154690,2,0,B|59:347|59:347|56:335|56:335|74:334|74:334|66:320|66:320|83:310|83:310|81:297|81:297|93:286|93:286|83:269|83:269|97:261|97:261|104:233,1,160
148,216,155041,1,0,0:0:0:0:
212,204,155158,6,0,L|260:204,1,40
316,100,155393,2,0,L|276:100,1,40
192,16,155627,1,0,0:0:0:0:
128,24,155744,1,0,0:0:0:0:
72,52,155862,6,0,P|80:140|32:216,1,160
104,260,156213,2,0,P|176:209|266:212,1,160
276,132,156565,2,0,P|195:94|153:15,1,160
220,20,156916,1,0,0:0:0:0:
284,24,157033,2,0,L|436:44,1,120
420,104,157268,6,0,L|396:160,6,40
416,224,157737,6,0,B|424:312|424:312|320:324,1,160
308,256,158088,2,0,B|227:218|227:218|269:122,1,160
336,148,158440,2,0,B|408:97|408:97|470:181,1,160
472,216,158791,1,0,0:0:0:0:
452,276,158908,6,0,L|432:320,1,40
316,284,159143,2,0,L|296:328,1,40
180,300,159377,6,0,L|64:324,1,80
61,319,159612,6,0,P|80:248|80:140,1,160
140,104,159963,2,0,P|192:155|285:209,1,160
292,276,160315,2,0,P|221:295|127:349,1,160
145,336,160666,1,0,0:0:0:0:
145,336,160783,6,0,L|216:356,1,40
304,324,161018,2,0,L|374:343,1,40
460,308,161252,1,0,0:0:0:0:
444,248,161369,1,0,0:0:0:0:
424,188,161487,6,0,L|264:156,1,160
120,92,161838,2,0,L|280:60,1,160
424,188,162190,2,0,L|264:156,1,160
172,284,162541,2,0,L|332:252,1,160
456,348,162893,2,0,L|352:324,1,80
172,284,163127,2,0,L|276:260,1,80
406,297,163362,6,0,L|246:265,1,160
108,192,163713,2,0,L|268:160,1,160
180,300,164065,2,0,L|20:268,1,160
108,192,164416,2,0,L|268:160,1,160
136,60,164768,2,0,L|40:80,1,80
108,192,165002,2,0,L|192:176,1,80
296,56,165237,5,0,0:0:0:0:
296,56,165354,1,0,0:0:0:0:
296,56,165471,1,0,0:0:0:0:
296,56,165588,1,0,0:0:0:0:
296,56,165705,1,0,0:0:0:0:
296,56,165822,1,0,0:0:0:0:
296,56,165940,6,0,L|444:140,1,160
436,256,166291,2,0,L|292:172,1,160
236,188,166643,2,0,L|228:260,2,53.3333333333333
264,156,166877,2,0,L|272:108,3,40
216,68,167112,6,0,L|160:76,4,40
192,144,167463,2,0,P|152:200|80:256,1,160
136,316,167815,2,0,P|204:322|288:356,1,160
348,332,168166,1,0,0:0:0:0:
412,332,168283,1,0,0:0:0:0:
412,332,168518,6,0,L|464:320,7,40
452,284,168987,6,0,P|440:192|456:88,1,160
380,80,169338,2,0,P|306:136|208:174,1,160
240,244,169690,2,0,P|325:279|407:345,1,160
452,284,170041,1,0,0:0:0:0:
452,204,170158,2,0,P|424:152|328:168,1,160
256,184,170510,1,0,0:0:0:0:
192,236,170627,2,0,P|220:288|272:300,1,80
312,276,170862,6,0,P|368:232|320:156,1,160
260,180,171213,2,0,P|193:153|152:233,1,160
216,264,171565,2,0,P|226:334|315:330,1,160
372,300,171916,1,0,0:0:0:0:
392,224,172033,1,0,0:0:0:0:
364,64,172268,2,0,L|348:128,2,53.3333333333333
392,224,172502,2,0,L|404:180,3,40
368,164,172737,5,0,0:0:0:0:
332,152,172854,1,0,0:0:0:0:
296,136,172971,1,0,0:0:0:0:
260,120,173088,1,0,0:0:0:0:
220,100,173205,2,0,P|180:104|132:140,1,80
168,200,173440,6,0,B|240:240|240:240|160:264,1,160
84,176,173791,2,0,B|13:218|13:218|32:137,1,160
92,88,174143,2,0,L|168:56,2,53.3333333333333
196,72,174377,2,0,L|240:84,3,40
316,80,174612,6,0,P|372:124|328:200,1,160
188,240,174963,2,0,P|198:169|285:169,1,160
392,272,175315,2,0,P|325:298|282:222,1,160
344,192,175666,6,0,B|420:164|420:164|472:232,1,160
464,308,176018,6,0,L|452:352,7,40
372,344,176487,6,0,B|288:360|288:360|200:328,1,160
184,264,176838,2,0,B|268:248|268:248|356:280,1,160
344,192,177190,2,0,B|273:166|273:166|189:182,1,160
122,282,177541,2,0,B|106:198|106:198|132:128,1,160
344,192,177893,2,0,L|256:160,1,80
124,284,178127,2,0,L|104:200,1,80
128,128,178362,6,0,B|208:52|208:52|220:92|252:108,1,160
300,140,178713,2,0,B|220:216|220:216|208:176|176:160,1,160
168,48,179065,2,0,B|180:50|192:90|192:90|272:14,1,160
332,68,179416,2,0,P|376:116|360:208,1,160
362,204,179768,1,0,0:0:0:0:
362,204,180002,1,0,0:0:0:0:
256,192,180237,5,0,0:0:0:0:
256,192,195237,5,0,0:0:0:0:
256,192,196174,6,0,L|148:152,2,90.0000034332277
344,184,197112,5,0,0:0:0:0:
252,284,197463,1,0,0:0:0:0:
388,296,197815,1,0,0:0:0:0:
308,240,198049,1,0,0:0:0:0:
308,240,198518,5,0,0:0:0:0:
220,232,198752,1,0,0:0:0:0:
132,220,198987,2,0,L|144:288,1,60.0000022888184
220,232,199455,2,0,L|210:172,1,60.0000022888184
192,84,199924,2,0,L|320:96,1,120.000004577637
312,95,200627,1,0,0:0:0:0:
312,95,200862,5,0,0:0:0:0:
396,200,201213,1,0,0:0:0:0:
244,104,201565,1,0,0:0:0:0:
304,172,201799,1,0,0:0:0:0:
212,328,202268,1,0,0:0:0:0:
212,328,202737,5,0,0:0:0:0:
300,320,202971,1,0,0:0:0:0:
388,308,203205,1,0,0:0:0:0:
212,328,203440,1,0,0:0:0:0:
388,308,203674,6,0,L|320:232,2,90.0000034332277
328,240,204612,5,0,0:0:0:0:
192,256,204963,1,0,0:0:0:0:
248,132,205315,1,0,0:0:0:0:
168,168,205549,1,0,0:0:0:0:
416,108,206018,6,0,L|392:240,1,120.000004577637
395,226,206955,1,0,0:0:0:0:
332,160,207190,1,0,0:0:0:0:
244,128,207424,1,0,0:0:0:0:
395,226,207893,1,0,0:0:0:0:
308,248,208127,1,0,0:0:0:0:
220,224,208362,2,0,P|156:240|168:304,1,120.000004577637
204,360,209065,1,0,0:0:0:0:
152,288,209299,1,0,0:0:0:0:
152,288,209768,5,0,0:0:0:0:
80,60,210237,6,0,L|196:60,1,80
192,84,210588,1,0,0:0:0:0:
224,108,210705,2,0,L|304:108,1,80
252,216,211174,2,0,L|172:216,1,80
84,296,211643,1,0,0:0:0:0:
204,300,211877,1,0,0:0:0:0:
324,312,212112,5,0,0:0:0:0:
352,196,212346,1,0,0:0:0:0:
424,292,212580,1,0,0:0:0:0:
440,172,212815,1,0,0:0:0:0:
348,96,213049,1,0,0:0:0:0:
312,212,213283,1,0,0:0:0:0:
440,172,213518,5,0,0:0:0:0:
400,164,213635,1,0,0:0:0:0:
360,156,213752,1,0,0:0:0:0:
320,148,213869,1,0,0:0:0:0:
280,148,213987,2,0,L|184:148,1,80
148,256,214455,2,0,L|256:256,1,80
224,44,214924,2,0,L|144:44,1,80
68,136,215393,2,0,L|68:248,1,80
68,336,215862,5,0,0:0:0:0:
172,280,216096,1,0,0:0:0:0:
72,216,216330,1,0,0:0:0:0:
192,196,216565,1,0,0:0:0:0:
280,276,216799,2,0,B|312:304|312:304|364:304,1,80
236,344,217268,5,0,0:0:0:0:
204,324,217385,1,0,0:0:0:0:
172,304,217502,1,0,0:0:0:0:
140,284,217619,1,0,0:0:0:0:
104,264,217737,2,0,L|104:152,1,80
100,64,218205,6,0,L|184:100,1,80
212,96,218557,1,0,0:0:0:0:
252,96,218674,2,0,L|326:64,1,80
336,184,219143,2,0,L|263:215,1,80
152,268,219612,5,0,0:0:0:0:
268,300,219846,1,0,0:0:0:0:
380,260,220080,1,0,0:0:0:0:
376,380,220315,1,0,0:0:0:0:
268,300,220549,6,0,L|176:284,1,80
260,188,221018,1,0,0:0:0:0:
300,180,221135,1,0,0:0:0:0:
340,172,221252,1,0,0:0:0:0:
380,164,221369,1,0,0:0:0:0:
420,156,221487,2,0,P|428:104|420:52,1,80
412,40,221838,1,0,0:0:0:0:
372,28,221955,2,0,P|332:24|260:40,1,80
324,144,222424,6,0,P|316:196|324:248,1,80
332,260,222775,1,0,0:0:0:0:
372,272,222892,2,0,P|412:276|484:260,1,80
200,204,223362,6,0,P|208:256|200:308,1,80
192,320,223713,1,0,0:0:0:0:
152,332,223830,2,0,P|112:336|40:320,1,80
36,312,224182,1,0,0:0:0:0:
8,284,224299,2,0,P|24:232|24:184,1,80
80,100,224768,5,0,0:0:0:0:
120,108,224885,1,0,0:0:0:0:
160,112,225002,1,0,0:0:0:0:
200,112,225119,1,0,0:0:0:0:
240,104,225237,2,0,P|284:92|360:96,1,95.9999970703126
376,116,225588,1,0,0:0:0:0:
396,160,225705,6,0,L|344:192,1,47.9999985351563
372,280,225940,2,0,L|413:254,1,47.9999985351563
280,244,226174,2,0,L|244:196,1,47.9999985351563
184,276,226408,2,0,L|213:314,1,47.9999985351563
304,340,226643,5,0,0:0:0:0:
352,352,226760,1,0,0:0:0:0:
400,348,226877,1,0,0:0:0:0:
440,320,226994,1,0,0:0:0:0:
448,272,227112,2,0,L|436:160,1,95.9999970703126
200,52,227580,2,0,L|211:147,1,95.9999970703126
211,147,228049,5,0,0:0:0:0:
340,88,228283,1,0,0:0:0:0:
300,228,228518,1,0,0:0:0:0:
64,200,228752,1,0,0:0:0:0:
172,252,228987,1,0,0:0:0:0:
48,324,229221,5,0,0:0:0:0:
92,340,229338,1,0,0:0:0:0:
140,344,229455,1,0,0:0:0:0:
236,340,229690,2,0,B|288:328|288:328|344:336,1,95.9999970703126
376,348,230041,1,0,0:0:0:0:
420,336,230158,2,0,B|440:292|440:292|420:240,1,95.9999970703126
423,247,230627,1,0,0:0:0:0:
280,264,230862,5,0,0:0:0:0:
337,147,231096,1,0,0:0:0:0:
221,90,231330,1,0,0:0:0:0:
164,207,231565,1,0,0:0:0:0:
300,256,231799,5,0,0:0:0:0:
120,277,232033,1,0,0:0:0:0:
97,96,232268,1,0,0:0:0:0:
279,74,232502,1,0,0:0:0:0:
412,132,232737,6,0,P|436:180|448:256,1,95.9999970703126
444,268,233088,1,0,0:0:0:0:
424,312,233205,2,0,P|344:308|228:320,1,191.999994140625
233,319,233908,1,0,0:0:0:0:
164,252,234143,1,0,0:0:0:0:
228,180,234377,1,0,0:0:0:0:
296,248,234612,1,0,0:0:0:0:
228,180,234846,1,0,0:0:0:0:
292,112,235080,1,0,0:0:0:0:
360,180,235315,1,0,0:0:0:0:
384,88,235549,6,0,P|360:44|304:20,1,95.9999970703126
304,208,236018,5,0,0:0:0:0:
280,248,236135,1,0,0:0:0:0:
244,280,236253,1,0,0:0:0:0:
200,300,236370,1,0,0:0:0:0:
152,304,236487,2,0,L|48:304,1,95.9999970703126
56,32,236955,5,0,0:0:0:0:
80,72,237072,1,0,0:0:0:0:
116,104,237190,1,0,0:0:0:0:
160,124,237307,1,0,0:0:0:0:
208,128,237424,2,0,L|312:128,1,95.9999970703126
348,152,237776,1,0,0:0:0:0:
364,196,237893,1,0,0:0:0:0:
332,232,238010,1,0,0:0:0:0:
284,232,238127,1,0,0:0:0:0:
236,236,238244,1,0,0:0:0:0:
200,268,238362,6,0,L|168:248,1,23.9999992675781
188,312,238479,2,0,L|156:312,1,23.9999992675781
216,352,238596,2,0,L|192:372,1,23.9999992675781
264,356,238713,2,0,L|264:388,1,23.9999992675781
308,336,238830,2,0,L|296:304,1,23.9999992675781
356,336,238947,2,0,L|368:368,1,23.9999992675781
392,304,239065,2,0,L|424:332,1,23.9999992675781
404,256,239182,2,0,L|448:260,1,23.9999992675781
392,164,239299,6,0,L|388:132,7,23.9999992675781
392,164,239768,1,0,0:0:0:0:
392,164,240237,5,0,0:0:0:0:
256,192,247737,5,0,0:0:0:0:
256,192,253362,12,0,254768,0:0:0:0:
416,292,255237,6,0,L|292:316,1,120.000004577637
252,276,255588,1,0,0:0:0:0:
200,244,255705,2,0,L|76:268,1,120.000004577637
92,148,256174,2,0,L|192:128,1,60.0000022888184
210,126,256526,1,0,0:0:0:0:
210,126,256643,1,0,0:0:0:0:
92,148,256877,1,0,0:0:0:0:
436,148,257112,6,0,L|320:180,1,120.000004577637
321,180,257463,1,0,0:0:0:0:
321,180,257580,1,0,0:0:0:0:
436,148,257815,1,0,0:0:0:0:
352,60,258049,1,0,0:0:0:0:
308,20,258166,1,0,0:0:0:0:
200,72,258401,6,0,L|248:120,1,60.0000022888184
288,152,258635,1,0,0:0:0:0:
336,188,258752,1,0,0:0:0:0:
280,208,258869,1,0,0:0:0:0:
324,248,258987,2,0,L|416:332,1,120.000004577637
352,336,259338,1,0,0:0:0:0:
292,340,259455,2,0,L|152:344,1,120.000004577637
173,344,259924,5,0,0:0:0:0:
132,300,260041,1,0,0:0:0:0:
220,220,260276,1,0,0:0:0:0:
240,164,260393,1,0,0:0:0:0:
260,112,260627,1,0,0:0:0:0:
376,84,260862,6,0,L|328:208,1,120.000004577637
333,196,261213,1,0,0:0:0:0:
333,196,261330,1,0,0:0:0:0:
452,196,261565,1,0,0:0:0:0:
392,300,261799,1,0,0:0:0:0:
332,304,261916,1,0,0:0:0:0:
212,304,262151,6,0,L|148:300,1,60.0000022888184
96,276,262385,1,0,0:0:0:0:
68,224,262502,1,0,0:0:0:0:
76,164,262619,1,0,0:0:0:0:
160,80,262737,6,0,L|232:64,3,60.0000022888184
296,160,263205,2,0,L|238:174,3,60.0000022888184
176,276,263674,2,0,L|163:218,3,60.0000022888184
276,260,264143,2,0,L|290:319,3,60.0000022888184
360,220,264612,6,0,P|392:196|412:152,1,60.0000022888184
412,120,264846,1,0,0:0:0:0:
380,72,264963,1,0,0:0:0:0:
288,148,265080,6,0,P|284:109|256:69,1,60.0000022888184
228,53,265314,1,0,0:0:0:0:
170,57,265431,1,0,0:0:0:0:
168,176,265549,6,0,P|132:161|84:165,1,60.0000022888184
56,181,265783,1,0,0:0:0:0:
31,233,265900,1,0,0:0:0:0:
132,296,266018,6,0,P|169:312|217:308,1,60.0000022888184
244,291,266252,1,0,0:0:0:0:
269,239,266369,1,0,0:0:0:0:
188,152,266487,5,4,0:0:0:0:
244,128,266604,1,0,0:0:0:0:
304,124,266721,1,0,0:0:0:0:
356,156,266838,1,0,0:0:0:0:
384,208,266955,1,4,0:0:0:0:
444,216,267072,1,0,0:0:0:0:
492,180,267190,1,0,0:0:0:0:
492,120,267307,1,0,0:0:0:0:
440,92,267424,5,4,0:0:0:0:
380,100,267541,1,0,0:0:0:0:
324,80,267658,1,0,0:0:0:0:
288,32,267776,1,0,0:0:0:0:
228,24,267893,1,4,0:0:0:0:
172,48,268010,1,0,0:0:0:0:
140,100,268127,1,0,0:0:0:0:
148,160,268244,1,0,0:0:0:0:
184,208,268362,6,0,L|220:236,5,40.000001525879
208,272,268830,2,0,L|200:332,5,40.000001525879
236,336,269299,2,0,L|280:356,7,30.0000011444092
264,349,269768,5,0,0:0:0:0:
328,192,270237,6,0,B|360:236|348:280|348:280|388:300|468:272,1,160
256,268,270588,2,0,B|202:274|170:242|170:242|133:266|117:350,1,160
220,160,270940,2,0,B|243:111|287:99|287:99|284:55|220:-1,1,160
220,36,271291,1,0,0:0:0:0:
176,24,271408,6,0,L|132:76,1,40
124,172,271643,2,0,L|80:224,1,40
136,316,271877,1,0,0:0:0:0:
196,336,271994,1,0,0:0:0:0:
256,316,272112,6,0,P|344:300|416:320,1,160
440,244,272463,2,0,P|383:176|364:104,1,160
284,112,272815,2,0,P|254:197|201:249,1,160
144,256,273166,1,0,0:0:0:0:
80,256,273283,6,0,L|64:212,1,40
96,128,273518,2,0,L|80:84,1,40
200,72,273752,1,0,0:0:0:0:
424,288,273987,6,0,B|412:268|412:268|400:264|400:264|408:248|408:248|392:248|392:248|392:228|392:228|380:224|380:224|376:208|376:208|356:208|356:208|356:192|356:192|336:172,1,160
208,120,274338,2,0,B|232:120|232:120|241:112|241:112|251:127|251:127|259:113|259:113|276:123|276:123|286:114|286:114|302:119|302:119|312:102|312:102|326:110|326:110|353:102,1,160
464,16,274690,2,0,B|453:37|453:37|456:49|456:49|438:50|438:50|446:64|446:64|429:74|429:74|431:87|431:87|419:98|419:98|429:115|429:115|415:123|415:123|408:151,1,160
364,168,275041,1,0,0:0:0:0:
300,180,275158,6,0,L|252:180,1,40
196,284,275393,2,0,L|236:284,1,40
320,368,275627,1,0,0:0:0:0:
384,360,275744,1,0,0:0:0:0:
440,332,275862,6,0,P|432:244|480:168,1,160
408,124,276213,2,0,P|336:175|246:172,1,160
236,252,276565,2,0,P|317:290|359:369,1,160
292,364,276916,1,0,0:0:0:0:
228,360,277033,2,0,L|76:340,1,120
92,280,277268,6,0,L|116:224,6,40
96,160,277737,6,0,B|88:72|88:72|192:60,1,160
204,128,278088,2,0,B|285:166|285:166|243:262,1,160
176,236,278440,2,0,B|104:287|104:287|42:203,1,160
40,168,278791,1,0,0:0:0:0:
60,108,278908,6,0,L|80:64,1,40
196,100,279143,2,0,L|216:56,1,40
332,84,279377,6,0,L|448:60,1,80
451,65,279612,6,0,P|432:136|432:244,1,160
372,280,279963,2,0,P|320:229|227:175,1,160
220,108,280315,2,0,P|291:89|385:35,1,160
367,48,280666,1,0,0:0:0:0:
367,48,280783,6,0,L|296:28,1,40
208,60,281018,2,0,L|138:41,1,40
52,76,281252,1,0,0:0:0:0:
68,136,281369,1,0,0:0:0:0:
88,196,281487,6,0,L|248:228,1,160
392,292,281838,2,0,L|232:324,1,160
88,196,282190,2,0,L|248:228,1,160
340,100,282541,2,0,L|180:132,1,160
56,36,282893,2,0,L|160:60,1,80
340,100,283127,2,0,L|236:124,1,80
106,87,283362,6,0,L|266:119,1,160
404,192,283713,2,0,L|244:224,1,160
332,84,284065,2,0,L|492:116,1,160
404,192,284416,2,0,L|244:224,1,160
376,324,284768,2,0,L|472:304,1,80
404,192,285002,2,0,L|320:208,1,80
216,328,285237,5,0,0:0:0:0:
216,328,285354,1,0,0:0:0:0:
216,328,285471,1,0,0:0:0:0:
216,328,285588,1,0,0:0:0:0:
216,328,285705,1,0,0:0:0:0:
216,328,285822,1,0,0:0:0:0:
216,328,285940,6,0,L|68:244,1,160
76,128,286291,2,0,L|220:212,1,160
276,196,286643,2,0,L|284:124,2,53.3333333333333
248,228,286877,2,0,L|240:276,3,40
296,316,287112,6,0,L|352:308,4,40
320,240,287463,2,0,P|360:184|432:128,1,160
376,68,287815,2,0,P|308:62|224:28,1,160
164,52,288166,1,0,0:0:0:0:
100,52,288283,1,0,0:0:0:0:
100,52,288518,6,0,L|48:64,7,40
60,100,288987,6,0,P|72:192|56:296,1,160
132,304,289338,2,0,P|206:248|304:210,1,160
272,140,289690,2,0,P|187:105|105:39,1,160
60,100,290041,1,0,0:0:0:0:
60,180,290158,2,0,P|88:232|184:216,1,160
256,200,290510,1,0,0:0:0:0:
320,148,290627,2,0,P|292:96|240:84,1,80
200,108,290862,6,0,P|144:152|192:228,1,160
252,204,291213,2,0,P|319:231|360:151,1,160
296,120,291565,2,0,P|286:50|197:54,1,160
140,84,291916,1,0,0:0:0:0:
120,160,292033,1,0,0:0:0:0:
148,320,292268,2,0,L|164:256,2,53.3333333333333
120,160,292502,2,0,L|108:204,3,40
144,220,292737,5,0,0:0:0:0:
180,232,292854,1,0,0:0:0:0:
216,248,292971,1,0,0:0:0:0:
252,264,293088,1,0,0:0:0:0:
292,284,293205,2,0,P|332:280|380:244,1,80
344,184,293440,6,0,B|272:144|272:144|352:120,1,160
428,208,293791,2,0,B|499:166|499:166|480:247,1,160
420,296,294143,2,0,L|344:328,2,53.3333333333333
316,312,294377,2,0,L|272:300,3,40
196,304,294612,6,0,P|140:260|184:184,1,160
324,144,294963,2,0,P|314:215|227:215,1,160
120,112,295315,2,0,P|187:86|230:162,1,160
168,192,295666,6,0,B|92:220|92:220|40:152,1,160
48,76,296018,6,0,L|60:32,7,40
140,40,296487,6,0,B|224:24|224:24|312:56,1,160
328,120,296838,2,0,B|244:136|244:136|156:104,1,160
168,192,297190,2,0,B|239:218|239:218|323:202,1,160
390,102,297541,2,0,B|406:186|406:186|380:256,1,160
168,192,297893,2,0,L|256:224,1,80
388,100,298127,2,0,L|408:184,1,80
384,256,298362,6,0,B|304:332|304:332|292:292|260:276,1,160
212,244,298713,2,0,B|292:168|292:168|304:208|336:224,1,160
344,336,299065,2,0,B|332:334|320:294|320:294|240:370,1,160
180,316,299416,2,0,P|136:268|152:176,1,160
150,180,299768,1,0,0:0:0:0:
150,180,300002,1,0,0:0:0:0:
412,248,300237,6,0,L|316:280,1,80
220,252,300705,1,0,0:0:0:0:
120,172,300940,2,0,L|284:120,1,160
273,124,301643,1,0,0:0:0:0:
32,140,301877,1,0,0:0:0:0:
144,100,302112,1,0,0:0:0:0:
364,172,302580,5,0,0:0:0:0:
252,220,302815,1,0,0:0:0:0:
252,220,303283,5,0,0:0:0:0:
464,332,303752,5,0,0:0:0:0:
356,276,303987,2,0,L|256:228,1,80
176,188,304455,1,0,0:0:0:0:
296,164,304690,1,0,0:0:0:0:
32,256,305393,1,0,0:0:0:0:
268,308,305862,5,0,0:0:0:0:
384,276,306096,5,0,0:0:0:0:
296,196,306330,1,0,0:0:0:0:
268,308,306565,1,0,0:0:0:0:
240,112,306799,5,0,0:0:0:0:
196,348,307268,1,0,0:0:0:0:
192,108,307737,6,0,L|244:196,1,80
352,188,308205,1,0,0:0:0:0:
472,192,308440,1,0,0:0:0:0:
240,248,308908,5,0,0:0:0:0:
120,252,309143,1,0,0:0:0:0:
0,252,309377,1,0,0:0:0:0:
48,144,309612,1,0,0:0:0:0:
128,156,309846,5,0,0:0:0:0:
176,92,310080,1,0,0:0:0:0:
240,140,310315,1,0,0:0:0:0:
292,80,310549,1,0,0:0:0:0:
56,36,311018,1,0,0:0:0:0:
436,328,311487,6,0,L|360:268,1,80
416,212,311955,1,0,0:0:0:0:
392,136,312190,1,0,0:0:0:0:
320,168,312424,1,0,0:0:0:0:
300,244,312658,1,0,0:0:0:0:
256,192,313362,1,0,0:0:0:0:
