osu file format v12

[General]
AudioFilename: Loop Vision_Short.mp3
AudioLeadIn: 0
PreviewTime: 176507
Countdown: 0
SampleSet: Soft
StackLeniency: 0.7
Mode: 3
LetterboxInBreaks: 0
SpecialStyle: 0
WidescreenStoryboard: 1

[Editor]
DistanceSpacing: 0.8
BeatDivisor: 4
GridSize: 16
TimelineZoom: 1

[Metadata]
Title:Loop Vision
TitleUnicode:Loop Vision
Artist:EastNewSound
ArtistUnicode:EastNewSound
Creator:Entozer
Version:Normal
Source:
Tags:touhou 東方 tracy
BeatmapID:387835
BeatmapSetID:158172

[Difficulty]
HPDrainRate:7
CircleSize:7
OverallDifficulty:8
ApproachRate:5
SliderMultiplier:1.4
SliderTickRate:1

[Events]
//Background and Video events
0,0,"Mamizou_Futatsuiwa00.jpg",0,0
//Break Periods
//Storyboard Layer 0 (Background)
//Storyboard Layer 1 (Fail)
//Storyboard Layer 2 (Pass)
//Storyboard Layer 3 (Foreground)
//Storyboard Sound Samples
//Background Colour Transformations
3,100,163,162,255

[TimingPoints]
1488,413.758861335614,4,2,0,10,1,0
27968,-100,4,2,0,40,0,0
107410,-100,4,2,0,20,0,0
120650,-200,4,2,0,20,0,0
148786,-100,4,2,0,20,0,0
176921,-100,4,2,0,40,0,0

[HitObjects]
36,192,1488,5,0,0:0:0:0:
182,192,1694,1,0,0:0:0:0:
329,192,1901,1,0,0:0:0:0:
182,192,2315,1,0,0:0:0:0:
329,192,2522,1,0,0:0:0:0:
182,192,2936,1,0,0:0:0:0:
329,192,3039,1,0,0:0:0:0:
109,192,3143,1,0,0:0:0:0:
256,192,3349,1,0,0:0:0:0:
402,192,3556,1,0,0:0:0:0:
256,192,3970,1,0,0:0:0:0:
402,192,4177,1,0,0:0:0:0:
256,192,4591,1,0,0:0:0:0:
402,192,4694,1,0,0:0:0:0:
182,192,4798,1,0,0:0:0:0:
329,192,5004,1,0,0:0:0:0:
475,192,5211,1,0,0:0:0:0:
329,192,5625,1,0,0:0:0:0:
475,192,5832,1,0,0:0:0:0:
329,192,6246,1,0,0:0:0:0:
475,192,6349,1,0,0:0:0:0:
109,192,6453,1,0,0:0:0:0:
256,192,6659,1,0,0:0:0:0:
402,192,6866,1,0,0:0:0:0:
182,192,7280,1,0,0:0:0:0:
475,192,7487,1,0,0:0:0:0:
329,192,7901,1,0,0:0:0:0:
182,192,8004,1,0,0:0:0:0:
36,192,8108,1,0,0:0:0:0:
182,192,8315,1,0,0:0:0:0:
329,192,8521,1,0,0:0:0:0:
182,192,8935,1,0,0:0:0:0:
329,192,9142,1,0,0:0:0:0:
182,192,9556,1,0,0:0:0:0:
329,192,9659,1,0,0:0:0:0:
109,192,9763,1,0,0:0:0:0:
256,192,9970,1,0,0:0:0:0:
402,192,10176,1,0,0:0:0:0:
256,192,10590,1,0,0:0:0:0:
402,192,10797,1,0,0:0:0:0:
256,192,11211,1,0,0:0:0:0:
402,192,11314,1,0,0:0:0:0:
182,192,11418,1,0,0:0:0:0:
329,192,11625,1,0,0:0:0:0:
475,192,11831,1,0,0:0:0:0:
329,192,12245,1,0,0:0:0:0:
475,192,12452,1,0,0:0:0:0:
329,192,12866,1,0,0:0:0:0:
475,192,12969,1,0,0:0:0:0:
109,192,13073,1,0,0:0:0:0:
256,192,13280,1,0,0:0:0:0:
402,192,13487,1,0,0:0:0:0:
182,192,13900,1,0,0:0:0:0:
475,192,14107,1,0,0:0:0:0:
329,192,14521,1,0,0:0:0:0:
182,192,14624,1,0,0:0:0:0:
256,192,14728,128,0,21348:0:0:0:0:
36,192,14728,1,0,0:0:0:0:
182,192,14935,1,0,0:0:0:0:
329,192,15142,1,0,0:0:0:0:
182,192,15555,1,0,0:0:0:0:
329,192,15762,1,0,0:0:0:0:
182,192,16176,1,0,0:0:0:0:
329,192,16279,1,0,0:0:0:0:
109,192,16383,1,0,0:0:0:0:
329,192,16590,1,0,0:0:0:0:
402,192,16797,1,0,0:0:0:0:
329,192,17210,1,0,0:0:0:0:
402,192,17417,1,0,0:0:0:0:
329,192,17831,1,0,0:0:0:0:
402,192,17934,1,0,0:0:0:0:
182,192,18038,1,0,0:0:0:0:
402,192,18245,1,0,0:0:0:0:
475,192,18452,1,0,0:0:0:0:
402,192,18865,1,0,0:0:0:0:
475,192,19072,1,0,0:0:0:0:
402,192,19486,1,0,0:0:0:0:
475,192,19589,1,0,0:0:0:0:
109,192,19693,1,0,0:0:0:0:
329,192,19900,1,0,0:0:0:0:
402,192,20107,1,0,0:0:0:0:
182,192,20520,1,0,0:0:0:0:
475,192,20727,1,0,0:0:0:0:
402,192,21141,1,0,0:0:0:0:
329,192,21244,1,0,0:0:0:0:
36,192,21348,1,0,0:0:0:0:
182,192,21555,1,0,0:0:0:0:
256,192,21762,1,0,0:0:0:0:
182,192,22175,1,0,0:0:0:0:
256,192,22382,1,0,0:0:0:0:
182,192,22796,1,0,0:0:0:0:
256,192,22900,1,0,0:0:0:0:
109,192,23003,1,0,0:0:0:0:
256,192,23210,1,0,0:0:0:0:
329,192,23417,1,0,0:0:0:0:
256,192,23830,1,0,0:0:0:0:
329,192,24037,1,0,0:0:0:0:
256,192,24451,1,0,0:0:0:0:
329,192,24555,1,0,0:0:0:0:
182,192,24658,1,0,0:0:0:0:
329,192,24865,1,0,0:0:0:0:
402,192,25072,1,0,0:0:0:0:
329,192,25486,1,0,0:0:0:0:
402,192,25692,1,0,0:0:0:0:
329,192,26106,1,0,0:0:0:0:
402,192,26210,1,0,0:0:0:0:
182,192,26313,1,0,0:0:0:0:
329,192,26520,1,0,0:0:0:0:
402,192,26727,1,0,0:0:0:0:
256,192,27141,1,0,0:0:0:0:
475,192,27347,1,0,0:0:0:0:
402,192,27761,1,0,0:0:0:0:
329,192,27865,1,0,0:0:0:0:
109,192,27968,1,0,1:0:0:0:
36,192,27968,1,4,0:0:0:0:
402,192,28175,1,0,0:0:0:0:
182,192,28382,1,0,1:0:0:0:
256,192,28382,1,8,1:0:0:0:
402,192,28589,1,0,0:0:0:0:
109,192,28796,1,0,1:0:0:0:
402,192,29002,1,0,0:0:0:0:
182,192,29209,1,0,1:0:0:0:
256,192,29209,1,8,1:0:0:0:
402,192,29416,1,0,0:0:0:0:
329,192,29520,1,2,0:0:0:0:
36,192,29623,1,0,1:0:0:0:
475,192,29830,1,0,0:0:0:0:
182,192,30037,1,0,1:0:0:0:
256,192,30037,1,8,1:0:0:0:
475,192,30244,1,0,0:0:0:0:
36,192,30451,1,0,1:0:0:0:
475,192,30657,1,0,0:0:0:0:
182,192,30864,1,0,1:0:0:0:
256,192,30864,1,8,1:0:0:0:
475,192,31071,1,0,0:0:0:0:
402,192,31175,1,2,0:0:0:0:
109,192,31278,1,0,1:0:0:0:
402,192,31485,1,0,0:0:0:0:
256,192,31692,1,8,1:0:0:0:
182,192,31692,1,0,1:0:0:0:
402,192,31899,1,0,0:0:0:0:
109,192,32106,1,0,1:0:0:0:
402,192,32312,1,0,0:0:0:0:
182,192,32519,1,0,1:0:0:0:
256,192,32519,1,8,1:0:0:0:
402,192,32726,1,0,0:0:0:0:
329,192,32830,1,2,0:0:0:0:
36,192,32933,1,0,1:0:0:0:
475,192,33140,1,0,0:0:0:0:
182,192,33347,1,0,1:0:0:0:
256,192,33347,1,8,1:0:0:0:
475,192,33554,1,0,0:0:0:0:
36,192,33761,1,0,1:0:0:0:
475,192,33967,1,0,0:0:0:0:
182,192,34174,1,0,1:0:0:0:
256,192,34174,1,8,1:0:0:0:
475,192,34381,1,0,0:0:0:0:
329,192,34485,1,2,0:0:0:0:
402,192,34588,1,0,1:0:0:0:
109,192,34795,1,0,0:0:0:0:
256,192,35002,1,8,1:0:0:0:
329,192,35002,1,0,1:0:0:0:
109,192,35209,1,0,0:0:0:0:
402,192,35416,1,0,1:0:0:0:
109,192,35623,1,0,0:0:0:0:
329,192,35829,1,0,1:0:0:0:
256,192,35829,1,8,1:0:0:0:
109,192,36036,1,0,0:0:0:0:
182,192,36140,1,2,0:0:0:0:
475,192,36243,1,0,1:0:0:0:
36,192,36450,1,0,0:0:0:0:
256,192,36657,1,8,1:0:0:0:
329,192,36657,1,0,1:0:0:0:
36,192,36864,1,0,0:0:0:0:
475,192,37071,1,0,1:0:0:0:
36,192,37278,1,0,0:0:0:0:
329,192,37485,1,0,1:0:0:0:
256,192,37485,1,8,1:0:0:0:
36,192,37691,1,0,0:0:0:0:
109,192,37795,1,2,0:0:0:0:
402,192,37898,1,0,1:0:0:0:
109,192,38105,1,0,0:0:0:0:
329,192,38312,1,0,1:0:0:0:
256,192,38312,1,8,1:0:0:0:
109,192,38519,1,0,0:0:0:0:
402,192,38726,1,0,1:0:0:0:
109,192,38933,1,0,0:0:0:0:
329,192,39140,1,0,1:0:0:0:
256,192,39140,1,8,1:0:0:0:
109,192,39346,1,0,0:0:0:0:
182,192,39450,1,2,0:0:0:0:
475,192,39553,1,0,1:0:0:0:
36,192,39760,1,0,0:0:0:0:
256,192,39967,1,8,1:0:0:0:
329,192,39967,1,0,1:0:0:0:
36,192,40174,1,0,0:0:0:0:
475,192,40381,1,0,1:0:0:0:
36,192,40588,1,0,0:0:0:0:
256,192,40795,1,8,1:0:0:0:
329,192,40795,1,0,1:0:0:0:
36,192,41001,1,0,0:0:0:0:
329,192,41001,1,0,1:0:0:0:
182,192,41105,1,2,0:0:0:0:
109,192,41208,1,0,1:0:0:0:
329,192,41208,1,4,0:0:0:0:
402,192,41415,1,0,0:0:0:0:
36,192,41622,1,0,1:0:0:0:
256,192,41622,1,8,1:0:0:0:
402,192,41829,1,0,0:0:0:0:
109,192,42036,1,0,1:0:0:0:
402,192,42243,1,0,0:0:0:0:
36,192,42450,1,0,1:0:0:0:
256,192,42450,1,8,1:0:0:0:
402,192,42657,1,0,0:0:0:0:
329,192,42760,1,2,0:0:0:0:
109,192,42863,1,0,1:0:0:0:
475,192,43070,1,0,0:0:0:0:
182,192,43277,1,0,1:0:0:0:
256,192,43277,1,8,1:0:0:0:
475,192,43484,1,0,0:0:0:0:
109,192,43691,1,0,1:0:0:0:
475,192,43898,1,0,0:0:0:0:
182,192,44105,1,0,1:0:0:0:
256,192,44105,1,8,1:0:0:0:
475,192,44312,1,0,0:0:0:0:
329,192,44415,1,2,0:0:0:0:
109,192,44518,1,0,1:0:0:0:
402,192,44725,1,0,0:0:0:0:
36,192,44932,1,0,1:0:0:0:
256,192,44932,1,8,1:0:0:0:
402,192,45139,1,0,0:0:0:0:
109,192,45346,1,0,1:0:0:0:
402,192,45553,1,0,0:0:0:0:
36,192,45760,1,0,1:0:0:0:
256,192,45760,1,8,1:0:0:0:
402,192,45967,1,0,0:0:0:0:
329,192,46070,1,2,0:0:0:0:
109,192,46173,1,0,1:0:0:0:
475,192,46380,1,0,0:0:0:0:
182,192,46587,1,0,1:0:0:0:
256,192,46587,1,8,1:0:0:0:
475,192,46794,1,0,0:0:0:0:
109,192,47001,1,0,1:0:0:0:
475,192,47208,1,0,0:0:0:0:
182,192,47415,1,0,1:0:0:0:
256,192,47415,1,8,1:0:0:0:
475,192,47622,1,0,0:0:0:0:
329,192,47725,1,2,0:0:0:0:
182,192,47828,1,4,0:0:0:0:
402,192,47828,1,0,1:0:0:0:
109,192,48035,1,0,0:0:0:0:
475,192,48242,1,0,1:0:0:0:
256,192,48242,1,8,1:0:0:0:
109,192,48449,1,0,0:0:0:0:
402,192,48656,1,0,1:0:0:0:
109,192,48863,1,0,0:0:0:0:
256,192,49070,1,8,1:0:0:0:
475,192,49070,1,0,1:0:0:0:
109,192,49277,1,0,0:0:0:0:
182,192,49380,1,2,0:0:0:0:
402,192,49484,1,0,0:0:0:0:
475,192,49484,1,4,0:0:0:0:
36,192,49690,1,0,0:0:0:0:
329,192,49897,1,0,1:0:0:0:
256,192,49897,1,8,1:0:0:0:
36,192,50104,1,0,0:0:0:0:
402,192,50311,1,0,1:0:0:0:
36,192,50518,1,0,0:0:0:0:
329,192,50725,1,0,1:0:0:0:
256,192,50725,1,8,1:0:0:0:
36,192,50932,1,0,0:0:0:0:
182,192,51035,1,2,0:0:0:0:
402,192,51139,1,0,1:0:0:0:
329,192,51139,1,4,0:0:0:0:
109,192,51345,1,0,0:0:0:0:
475,192,51552,1,0,1:0:0:0:
256,192,51552,1,8,1:0:0:0:
109,192,51759,1,0,0:0:0:0:
402,192,51966,1,0,1:0:0:0:
329,192,51966,1,0,0:0:0:0:
109,192,52173,1,0,0:0:0:0:
475,192,52380,1,0,1:0:0:0:
256,192,52380,1,8,1:0:0:0:
109,192,52587,1,0,0:0:0:0:
182,192,52690,1,0,0:0:0:0:
329,192,52794,1,0,0:0:0:0:
475,192,52794,1,0,0:0:0:0:
36,192,53000,1,0,0:0:0:0:
256,192,53207,1,8,1:0:0:0:
475,192,53207,1,0,0:0:0:0:
36,192,53414,1,0,0:0:0:0:
475,192,53621,1,0,0:0:0:0:
36,192,53828,1,0,0:0:0:0:
256,192,54035,1,8,1:0:0:0:
475,192,54035,1,0,0:0:0:0:
36,192,54242,1,0,0:0:0:0:
109,192,54449,1,0,1:0:0:0:
329,192,54449,1,2,0:0:0:0:
256,192,54449,1,4,0:0:0:0:
402,192,54656,1,2,0:0:0:0:
329,192,54759,1,2,0:0:0:0:
36,192,54862,1,0,1:0:0:0:
182,192,54862,1,8,1:0:0:0:
402,192,54862,1,2,0:0:0:0:
329,192,55069,1,2,0:0:0:0:
109,192,55276,1,0,1:0:0:0:
402,192,55276,128,2,55690:0:0:0:0:
36,192,55690,1,0,1:0:0:0:
182,192,55690,1,8,1:0:0:0:
475,192,55690,128,2,56104:0:0:0:0:
329,192,56104,128,2,57138:0:0:0:0:
36,192,56104,1,0,1:0:0:0:
109,192,56517,1,0,1:0:0:0:
182,192,56517,1,8,1:0:0:0:
36,192,56931,1,0,1:0:0:0:
256,192,57138,1,2,0:0:0:0:
329,192,57345,1,2,0:0:0:0:
109,192,57345,1,0,1:0:0:0:
182,192,57345,1,8,1:0:0:0:
402,192,57552,1,2,0:0:0:0:
475,192,57759,1,2,0:0:0:0:
109,192,57759,1,0,1:0:0:0:
329,192,57966,128,2,58379:0:0:0:0:
182,192,58172,1,8,1:0:0:0:
36,192,58172,1,0,1:0:0:0:
475,192,58379,128,2,59000:0:0:0:0:
109,192,58586,1,0,1:0:0:0:
402,192,59000,1,2,0:0:0:0:
36,192,59000,1,0,1:0:0:0:
182,192,59000,1,8,1:0:0:0:
329,192,59207,128,2,59621:0:0:0:0:
182,192,59414,1,0,1:0:0:0:
475,192,59621,1,2,0:0:0:0:
402,192,59827,1,2,0:0:0:0:
109,192,59827,1,0,1:0:0:0:
36,192,59827,1,8,1:0:0:0:
329,192,60034,1,2,0:0:0:0:
256,192,60241,128,2,61069:0:0:0:0:
182,192,60241,1,0,1:0:0:0:
109,192,60655,1,0,1:0:0:0:
36,192,60655,1,8,1:0:0:0:
182,192,61069,1,2,0:0:0:0:
402,192,61069,1,0,1:0:0:0:
109,192,61276,1,2,0:0:0:0:
182,192,61379,1,2,0:0:0:0:
109,192,61483,1,2,0:0:0:0:
329,192,61483,1,8,1:0:0:0:
475,192,61483,1,0,1:0:0:0:
182,192,61689,1,2,0:0:0:0:
402,192,61896,1,0,1:0:0:0:
109,192,61896,128,2,62310:0:0:0:0:
329,192,62310,1,8,1:0:0:0:
475,192,62310,1,0,1:0:0:0:
36,192,62310,128,2,62724:0:0:0:0:
475,192,62724,1,0,1:0:0:0:
182,192,62724,128,2,63758:0:0:0:0:
402,192,63138,1,0,1:0:0:0:
329,192,63138,1,8,1:0:0:0:
475,192,63551,1,0,1:0:0:0:
109,192,63758,1,2,0:0:0:0:
36,192,63965,1,2,0:0:0:0:
402,192,63965,1,0,1:0:0:0:
329,192,63965,1,8,1:0:0:0:
182,192,64172,1,2,0:0:0:0:
109,192,64379,1,2,0:0:0:0:
402,192,64379,1,0,1:0:0:0:
36,192,64689,1,2,0:0:0:0:
329,192,64793,1,8,1:0:0:0:
475,192,64793,1,0,1:0:0:0:
182,192,64999,1,2,0:0:0:0:
109,192,65206,1,2,0:0:0:0:
402,192,65206,1,0,1:0:0:0:
182,192,65517,1,2,0:0:0:0:
329,192,65620,1,8,1:0:0:0:
475,192,65620,1,0,1:0:0:0:
36,192,65827,1,2,0:0:0:0:
109,192,66034,128,2,67068:0:0:0:0:
329,192,66034,1,0,1:0:0:0:
402,192,66448,1,0,1:0:0:0:
475,192,66448,1,8,1:0:0:0:
329,192,66861,1,0,1:0:0:0:
36,192,67068,1,2,0:0:0:0:
402,192,67275,1,0,1:0:0:0:
475,192,67275,1,8,1:0:0:0:
109,192,67275,1,2,0:0:0:0:
475,192,67482,1,8,1:0:0:0:
329,192,67482,1,0,1:0:0:0:
182,192,67482,1,2,0:0:0:0:
329,192,67689,1,2,0:0:0:0:
109,192,67689,1,0,1:0:0:0:
256,192,67689,1,4,0:0:0:0:
402,192,67896,1,2,0:0:0:0:
329,192,67999,1,2,0:0:0:0:
182,192,68102,1,8,1:0:0:0:
36,192,68102,1,0,1:0:0:0:
402,192,68102,1,2,0:0:0:0:
329,192,68309,1,2,0:0:0:0:
109,192,68516,1,0,1:0:0:0:
402,192,68516,128,2,68930:0:0:0:0:
36,192,68930,1,0,1:0:0:0:
182,192,68930,1,8,1:0:0:0:
475,192,68930,128,2,69344:0:0:0:0:
329,192,69344,128,2,70378:0:0:0:0:
36,192,69344,1,0,1:0:0:0:
182,192,69757,1,8,1:0:0:0:
109,192,69757,1,0,1:0:0:0:
36,192,70171,1,0,1:0:0:0:
256,192,70378,1,2,0:0:0:0:
329,192,70585,1,2,0:0:0:0:
109,192,70585,1,0,1:0:0:0:
182,192,70585,1,8,1:0:0:0:
402,192,70792,1,2,0:0:0:0:
109,192,70999,1,0,1:0:0:0:
475,192,70999,1,2,0:0:0:0:
329,192,71206,128,2,71619:0:0:0:0:
182,192,71412,1,8,1:0:0:0:
36,192,71412,1,0,1:0:0:0:
475,192,71619,128,2,72240:0:0:0:0:
109,192,71826,1,0,1:0:0:0:
182,192,72240,1,8,1:0:0:0:
402,192,72240,1,2,0:0:0:0:
36,192,72240,1,0,1:0:0:0:
329,192,72447,128,2,72861:0:0:0:0:
182,192,72654,1,0,1:0:0:0:
475,192,72861,1,2,0:0:0:0:
402,192,73067,1,2,0:0:0:0:
36,192,73067,1,8,1:0:0:0:
109,192,73067,1,0,1:0:0:0:
329,192,73274,1,2,0:0:0:0:
256,192,73481,128,2,74309:0:0:0:0:
182,192,73481,1,0,1:0:0:0:
109,192,73895,1,0,1:0:0:0:
36,192,73895,1,8,1:0:0:0:
402,192,74309,1,0,1:0:0:0:
182,192,74309,1,2,0:0:0:0:
109,192,74516,1,2,0:0:0:0:
182,192,74619,1,2,0:0:0:0:
109,192,74723,1,2,0:0:0:0:
475,192,74723,1,8,1:0:0:0:
329,192,74723,1,0,1:0:0:0:
182,192,74929,1,2,0:0:0:0:
402,192,75136,1,0,1:0:0:0:
109,192,75136,128,2,75550:0:0:0:0:
475,192,75550,1,8,1:0:0:0:
36,192,75550,128,2,75964:0:0:0:0:
329,192,75550,1,0,1:0:0:0:
475,192,75964,1,0,1:0:0:0:
182,192,75964,128,2,77205:0:0:0:0:
402,192,76378,1,0,1:0:0:0:
329,192,76378,1,8,1:0:0:0:
475,192,76791,1,0,1:0:0:0:
329,192,77205,1,8,1:0:0:0:
402,192,77205,1,0,1:0:0:0:
109,192,77205,1,2,0:0:0:0:
36,192,77412,1,2,0:0:0:0:
402,192,77619,1,0,1:0:0:0:
109,192,77619,128,2,78240:0:0:0:0:
475,192,78033,1,0,1:0:0:0:
329,192,78033,1,8,1:0:0:0:
182,192,78240,128,2,78654:0:0:0:0:
402,192,78446,1,0,1:0:0:0:
256,192,78654,128,2,79274:0:0:0:0:
475,192,78860,1,0,1:0:0:0:
329,192,78860,1,8,1:0:0:0:
109,192,79274,128,2,80309:0:0:0:0:
402,192,79688,1,8,1:0:0:0:
402,192,80515,1,8,1:0:0:0:
475,192,80929,1,2,0:0:0:0:
475,192,81136,1,2,0:0:0:0:
402,192,81343,1,2,0:0:0:0:
329,192,81446,1,2,0:0:0:0:
182,192,81653,1,2,0:0:0:0:
109,192,81757,1,2,0:0:0:0:
36,192,81964,1,2,0:0:0:0:
402,192,82170,1,2,0:0:0:0:
329,192,82274,1,2,0:0:0:0:
182,192,82377,1,2,0:0:0:0:
109,192,82481,1,2,0:0:0:0:
475,192,82584,1,2,0:0:0:0:
475,192,82791,1,2,0:0:0:0:
402,192,82998,1,2,0:0:0:0:
329,192,83101,1,2,0:0:0:0:
182,192,83205,1,2,0:0:0:0:
109,192,83308,1,2,0:0:0:0:
36,192,83412,1,2,0:0:0:0:
36,192,83619,1,2,0:0:0:0:
109,192,83826,1,2,0:0:0:0:
182,192,83929,1,2,0:0:0:0:
329,192,84136,1,2,0:0:0:0:
36,192,84239,1,2,0:0:0:0:
36,192,84446,1,2,0:0:0:0:
109,192,84653,1,2,0:0:0:0:
182,192,84756,1,2,0:0:0:0:
329,192,84963,1,2,0:0:0:0:
402,192,85067,1,2,0:0:0:0:
475,192,85274,1,2,0:0:0:0:
109,192,85481,1,2,0:0:0:0:
182,192,85584,1,2,0:0:0:0:
329,192,85687,1,2,0:0:0:0:
402,192,85791,1,2,0:0:0:0:
36,192,85894,1,2,0:0:0:0:
36,192,86101,1,2,0:0:0:0:
109,192,86308,1,2,0:0:0:0:
182,192,86412,1,2,0:0:0:0:
329,192,86618,1,2,0:0:0:0:
402,192,86722,1,2,0:0:0:0:
475,192,86929,1,2,0:0:0:0:
402,192,87136,1,2,0:0:0:0:
329,192,87239,1,2,0:0:0:0:
182,192,87446,1,2,0:0:0:0:
475,192,87549,1,2,0:0:0:0:
475,192,87756,1,2,0:0:0:0:
256,192,87963,1,8,1:0:0:0:
402,192,87963,1,2,0:0:0:0:
329,192,88067,1,2,0:0:0:0:
182,192,88273,1,2,0:0:0:0:
109,192,88377,1,2,0:0:0:0:
36,192,88584,1,2,0:0:0:0:
402,192,88790,1,2,0:0:0:0:
256,192,88791,1,8,1:0:0:0:
329,192,88894,1,2,0:0:0:0:
182,192,88997,1,2,0:0:0:0:
109,192,89101,1,2,0:0:0:0:
475,192,89204,1,2,0:0:0:0:
475,192,89411,1,2,0:0:0:0:
256,192,89618,1,8,1:0:0:0:
402,192,89618,1,2,0:0:0:0:
329,192,89721,1,2,0:0:0:0:
182,192,89825,1,2,0:0:0:0:
109,192,89928,1,2,0:0:0:0:
36,192,90032,1,2,0:0:0:0:
36,192,90239,1,2,0:0:0:0:
256,192,90446,1,8,1:0:0:0:
109,192,90446,1,2,0:0:0:0:
182,192,90549,1,2,0:0:0:0:
329,192,90756,1,2,0:0:0:0:
36,192,90859,1,2,0:0:0:0:
36,192,91066,1,2,0:0:0:0:
256,192,91273,1,8,1:0:0:0:
109,192,91273,1,2,0:0:0:0:
182,192,91377,1,2,0:0:0:0:
329,192,91583,1,2,0:0:0:0:
402,192,91687,1,2,0:0:0:0:
475,192,91894,1,2,0:0:0:0:
256,192,92101,1,8,1:0:0:0:
109,192,92101,1,2,0:0:0:0:
182,192,92204,1,2,0:0:0:0:
329,192,92307,1,2,0:0:0:0:
402,192,92411,1,2,0:0:0:0:
36,192,92514,1,2,0:0:0:0:
36,192,92721,1,2,0:0:0:0:
256,192,92928,1,8,1:0:0:0:
109,192,92928,1,2,0:0:0:0:
182,192,93032,1,2,0:0:0:0:
329,192,93238,1,2,0:0:0:0:
402,192,93342,1,2,0:0:0:0:
475,192,93549,1,2,0:0:0:0:
256,192,93756,1,8,1:0:0:0:
402,192,93756,1,2,0:0:0:0:
109,192,93756,1,4,0:0:0:0:
329,192,93859,1,2,0:0:0:0:
109,192,93963,1,4,0:0:0:0:
329,192,94066,1,2,0:0:0:0:
109,192,94169,1,4,0:0:0:0:
475,192,94169,1,2,0:0:0:0:
329,192,94376,1,2,0:0:0:0:
256,192,94583,1,8,1:0:0:0:
182,192,94583,1,2,0:0:0:0:
36,192,94687,1,2,0:0:0:0:
109,192,94894,1,2,0:0:0:0:
402,192,94997,1,2,0:0:0:0:
109,192,95204,1,2,0:0:0:0:
329,192,95411,1,2,0:0:0:0:
256,192,95411,1,8,1:0:0:0:
182,192,95514,1,2,0:0:0:0:
329,192,95618,1,2,0:0:0:0:
182,192,95721,1,2,0:0:0:0:
475,192,95825,1,2,0:0:0:0:
329,192,96031,1,2,0:0:0:0:
256,192,96238,1,8,1:0:0:0:
182,192,96238,1,2,0:0:0:0:
36,192,96342,1,2,0:0:0:0:
475,192,96445,1,2,0:0:0:0:
329,192,96549,1,2,0:0:0:0:
182,192,96652,1,2,0:0:0:0:
109,192,96859,1,2,0:0:0:0:
256,192,97066,1,8,1:0:0:0:
402,192,97066,1,2,0:0:0:0:
329,192,97169,1,2,0:0:0:0:
182,192,97376,1,2,0:0:0:0:
36,192,97479,1,2,0:0:0:0:
182,192,97686,1,2,0:0:0:0:
256,192,97893,1,8,1:0:0:0:
329,192,97893,1,2,0:0:0:0:
475,192,97997,1,2,0:0:0:0:
402,192,98204,1,2,0:0:0:0:
109,192,98307,1,2,0:0:0:0:
402,192,98514,1,2,0:0:0:0:
256,192,98721,1,8,1:0:0:0:
182,192,98721,1,2,0:0:0:0:
329,192,98824,1,2,0:0:0:0:
182,192,98928,1,2,0:0:0:0:
329,192,99031,1,2,0:0:0:0:
36,192,99135,1,2,0:0:0:0:
182,192,99341,1,2,0:0:0:0:
256,192,99548,1,8,1:0:0:0:
329,192,99548,1,2,0:0:0:0:
475,192,99652,1,2,0:0:0:0:
36,192,99859,1,2,0:0:0:0:
182,192,99962,1,2,0:0:0:0:
329,192,100169,1,2,0:0:0:0:
256,192,100376,1,8,1:0:0:0:
402,192,100376,1,2,0:0:0:0:
329,192,100479,1,2,0:0:0:0:
182,192,100686,1,2,0:0:0:0:
475,192,100790,1,2,0:0:0:0:
329,192,100997,1,2,0:0:0:0:
256,192,101203,1,8,1:0:0:0:
36,192,101203,1,2,0:0:0:0:
182,192,101307,1,2,0:0:0:0:
402,192,101514,1,2,0:0:0:0:
329,192,101618,1,2,0:0:0:0:
182,192,101824,1,2,0:0:0:0:
402,192,102031,1,2,0:0:0:0:
256,192,102031,1,8,1:0:0:0:
329,192,102135,1,2,0:0:0:0:
182,192,102238,1,2,0:0:0:0:
109,192,102342,1,2,0:0:0:0:
402,192,102445,1,2,0:0:0:0:
329,192,102652,1,2,0:0:0:0:
256,192,102858,1,8,1:0:0:0:
36,192,102858,1,2,0:0:0:0:
109,192,102962,1,2,0:0:0:0:
182,192,103066,1,2,0:0:0:0:
329,192,103169,1,2,0:0:0:0:
475,192,103272,1,2,0:0:0:0:
402,192,103479,1,2,0:0:0:0:
256,192,103686,1,8,1:0:0:0:
329,192,103686,1,2,0:0:0:0:
182,192,103789,1,2,0:0:0:0:
109,192,103997,1,2,0:0:0:0:
36,192,104100,1,2,0:0:0:0:
109,192,104307,1,2,0:0:0:0:
256,192,104513,1,8,1:0:0:0:
182,192,104513,1,2,0:0:0:0:
329,192,104617,1,2,0:0:0:0:
402,192,104824,1,2,0:0:0:0:
475,192,104927,1,2,0:0:0:0:
475,192,105134,1,2,0:0:0:0:
256,192,105341,1,8,1:0:0:0:
109,192,105342,1,2,0:0:0:0:
182,192,105445,1,2,0:0:0:0:
329,192,105548,1,2,0:0:0:0:
402,192,105652,1,2,0:0:0:0:
36,192,105755,1,2,0:0:0:0:
182,192,105962,1,2,0:0:0:0:
329,192,106168,1,2,0:0:0:0:
475,192,106272,1,2,0:0:0:0:
36,192,106479,1,2,0:0:0:0:
182,192,106582,1,2,0:0:0:0:
329,192,106789,1,2,0:0:0:0:
475,192,106997,1,2,0:0:0:0:
329,192,107099,1,2,0:0:0:0:
182,192,107306,1,2,0:0:0:0:
256,192,107410,128,4,114030:0:0:0:0:
109,192,107824,1,8,0:0:0:0:
402,192,107824,1,8,0:0:0:0:
402,192,108651,1,8,0:0:0:0:
109,192,108651,1,8,0:0:0:0:
109,192,109479,1,8,0:0:0:0:
402,192,109479,1,8,0:0:0:0:
402,192,110306,1,8,0:0:0:0:
109,192,110306,1,8,0:0:0:0:
329,192,110720,1,4,0:0:0:0:
182,192,110720,1,4,0:0:0:0:
109,192,111134,1,8,0:0:0:0:
402,192,111134,1,8,0:0:0:0:
402,192,111961,1,8,0:0:0:0:
109,192,111961,1,8,0:0:0:0:
109,192,112789,1,8,0:0:0:0:
402,192,112789,1,8,0:0:0:0:
402,192,113616,1,8,0:0:0:0:
109,192,113616,1,8,0:0:0:0:
182,192,114030,1,4,0:0:0:0:
329,192,114030,1,4,0:0:0:0:
109,192,114444,1,8,0:0:0:0:
402,192,114444,1,8,0:0:0:0:
402,192,115271,1,8,0:0:0:0:
109,192,115271,1,8,0:0:0:0:
182,192,115685,1,4,0:0:0:0:
329,192,115685,1,4,0:0:0:0:
109,192,116099,1,8,0:0:0:0:
402,192,116099,1,8,0:0:0:0:
402,192,116926,1,8,0:0:0:0:
109,192,116926,1,8,0:0:0:0:
182,192,117340,1,4,0:0:0:0:
329,192,117340,1,4,0:0:0:0:
402,192,117754,1,8,0:0:0:0:
109,192,117754,1,8,0:0:0:0:
182,192,118167,1,4,0:0:0:0:
329,192,118167,1,4,0:0:0:0:
402,192,118581,1,8,0:0:0:0:
109,192,118581,1,8,0:0:0:0:
182,192,118995,1,4,0:0:0:0:
329,192,118995,1,4,0:0:0:0:
402,192,119409,1,8,0:0:0:0:
109,192,119409,1,8,0:0:0:0:
109,192,120236,1,8,0:0:0:0:
402,192,120236,1,8,0:0:0:0:
256,192,120650,128,0,122305:0:0:0:0:
402,192,122305,128,0,123960:0:0:0:0:
36,192,122512,1,0,0:0:0:0:
182,192,122719,1,0,0:0:0:0:
36,192,123133,1,0,0:0:0:0:
182,192,123339,1,0,0:0:0:0:
36,192,123753,1,0,0:0:0:0:
109,192,123960,128,0,125615:0:0:0:0:
475,192,124167,1,0,0:0:0:0:
329,192,124374,1,0,0:0:0:0:
475,192,124788,1,0,0:0:0:0:
329,192,124995,1,0,0:0:0:0:
475,192,125408,1,0,0:0:0:0:
402,192,125615,128,0,127270:0:0:0:0:
182,192,125822,1,0,0:0:0:0:
36,192,126029,1,0,0:0:0:0:
182,192,126443,1,0,0:0:0:0:
36,192,126650,1,0,0:0:0:0:
182,192,127063,1,0,0:0:0:0:
109,192,127270,128,0,128925:0:0:0:0:
329,192,127477,1,0,0:0:0:0:
475,192,127684,1,0,0:0:0:0:
329,192,128098,1,0,0:0:0:0:
475,192,128305,1,0,0:0:0:0:
402,192,128718,1,0,0:0:0:0:
329,192,128925,128,0,130580:0:0:0:0:
182,192,129132,1,0,0:0:0:0:
36,192,129339,1,0,0:0:0:0:
182,192,129753,1,0,0:0:0:0:
36,192,129960,1,0,0:0:0:0:
182,192,130373,1,0,0:0:0:0:
475,192,130580,128,0,132235:0:0:0:0:
329,192,130787,1,0,0:0:0:0:
182,192,130994,1,0,0:0:0:0:
329,192,131408,1,0,0:0:0:0:
182,192,131615,1,0,0:0:0:0:
329,192,132028,1,0,0:0:0:0:
36,192,132235,128,0,133890:0:0:0:0:
475,192,132442,1,0,0:0:0:0:
329,192,132649,1,0,0:0:0:0:
475,192,133063,1,0,0:0:0:0:
329,192,133270,1,0,0:0:0:0:
475,192,133683,1,0,0:0:0:0:
182,192,133890,128,0,135545:0:0:0:0:
36,192,134097,1,0,0:0:0:0:
329,192,134304,1,0,0:0:0:0:
36,192,134718,1,0,0:0:0:0:
475,192,134925,1,0,0:0:0:0:
475,192,135338,1,0,0:0:0:0:
109,192,135545,128,0,137200:0:0:0:0:
182,192,135752,1,0,0:0:0:0:
329,192,135959,1,0,0:0:0:0:
182,192,136373,1,0,0:0:0:0:
329,192,136580,1,0,0:0:0:0:
182,192,136994,1,0,0:0:0:0:
402,192,137200,128,0,138855:0:0:0:0:
329,192,137407,1,0,0:0:0:0:
182,192,137614,1,0,0:0:0:0:
329,192,138028,1,0,0:0:0:0:
182,192,138235,1,0,0:0:0:0:
329,192,138649,1,0,0:0:0:0:
182,192,138855,128,0,140510:0:0:0:0:
109,192,139062,1,0,0:0:0:0:
402,192,139269,1,0,0:0:0:0:
109,192,139683,1,0,0:0:0:0:
402,192,139890,1,0,0:0:0:0:
109,192,140304,1,0,0:0:0:0:
329,192,140510,128,0,142166:0:0:0:0:
402,192,140717,1,0,0:0:0:0:
182,192,140924,1,0,0:0:0:0:
109,192,141338,1,0,0:0:0:0:
182,192,141545,1,0,0:0:0:0:
402,192,141959,1,0,0:0:0:0:
109,192,142166,128,0,148786:0:0:0:0:
402,192,143821,128,0,148786:0:0:0:0:
256,192,145476,128,0,148786:0:0:0:0:
36,192,147131,128,0,148786:0:0:0:0:
475,192,147131,128,0,148786:0:0:0:0:
329,192,148786,1,0,1:0:0:0:
182,192,148786,1,0,1:0:0:0:
109,192,149199,1,0,1:0:0:0:
402,192,149199,1,0,1:0:0:0:
182,192,149613,1,0,1:0:0:0:
329,192,149613,1,0,1:0:0:0:
402,192,150027,1,0,1:0:0:0:
109,192,150027,1,0,1:0:0:0:
182,192,150441,1,0,1:0:0:0:
329,192,150441,1,0,1:0:0:0:
36,192,150854,1,0,1:0:0:0:
475,192,150854,1,0,1:0:0:0:
182,192,151268,1,0,1:0:0:0:
329,192,151268,1,0,1:0:0:0:
36,192,151682,1,0,1:0:0:0:
475,192,151682,1,0,1:0:0:0:
182,192,152096,1,0,1:0:0:0:
329,192,152096,1,0,1:0:0:0:
109,192,152509,1,0,1:0:0:0:
402,192,152509,1,0,1:0:0:0:
329,192,152923,1,0,1:0:0:0:
182,192,152923,1,0,1:0:0:0:
402,192,153337,1,0,1:0:0:0:
109,192,153337,1,0,1:0:0:0:
475,192,153751,1,0,1:0:0:0:
36,192,153751,1,0,1:0:0:0:
182,192,154165,1,0,1:0:0:0:
329,192,154165,1,0,1:0:0:0:
36,192,154578,1,0,1:0:0:0:
475,192,154578,1,0,1:0:0:0:
182,192,154992,1,0,1:0:0:0:
329,192,154992,1,0,1:0:0:0:
109,192,155406,1,0,1:0:0:0:
402,192,155406,1,0,1:0:0:0:
182,192,155820,1,0,1:0:0:0:
475,192,155820,1,0,1:0:0:0:
402,192,156233,1,0,1:0:0:0:
109,192,156233,1,0,1:0:0:0:
36,192,156647,1,0,1:0:0:0:
329,192,156647,1,0,1:0:0:0:
109,192,157061,1,0,1:0:0:0:
402,192,157061,1,0,1:0:0:0:
36,192,157475,1,0,1:0:0:0:
329,192,157475,1,0,1:0:0:0:
109,192,157888,1,0,1:0:0:0:
402,192,157888,1,0,1:0:0:0:
182,192,158302,1,0,1:0:0:0:
475,192,158302,1,0,1:0:0:0:
36,192,158716,1,0,1:0:0:0:
329,192,158716,1,0,1:0:0:0:
109,192,159130,1,0,1:0:0:0:
402,192,159130,1,0,1:0:0:0:
182,192,159543,1,0,1:0:0:0:
475,192,159543,1,0,1:0:0:0:
109,192,159957,1,0,1:0:0:0:
402,192,159957,1,0,1:0:0:0:
475,192,160371,1,0,1:0:0:0:
182,192,160371,1,0,1:0:0:0:
402,192,160785,1,0,1:0:0:0:
109,192,160785,1,0,1:0:0:0:
329,192,161198,1,0,1:0:0:0:
36,192,161198,1,0,1:0:0:0:
109,192,161612,1,0,1:0:0:0:
402,192,161612,1,0,1:0:0:0:
36,192,162026,1,0,1:0:0:0:
256,192,162026,1,4,0:0:0:0:
475,192,162026,1,0,1:0:0:0:
182,192,162440,1,0,1:0:0:0:
329,192,162440,1,0,1:0:0:0:
402,192,162853,1,0,1:0:0:0:
109,192,162853,1,0,1:0:0:0:
182,192,163267,1,0,1:0:0:0:
329,192,163267,1,0,1:0:0:0:
36,192,163681,1,0,1:0:0:0:
475,192,163681,1,0,1:0:0:0:
182,192,164095,1,0,1:0:0:0:
329,192,164095,1,0,1:0:0:0:
109,192,164508,1,0,1:0:0:0:
402,192,164508,1,0,1:0:0:0:
182,192,164922,1,0,1:0:0:0:
329,192,164922,1,0,1:0:0:0:
256,192,165336,1,4,0:0:0:0:
109,192,165336,1,0,1:0:0:0:
402,192,165336,1,0,1:0:0:0:
329,192,165750,1,0,1:0:0:0:
182,192,166164,1,0,1:0:0:0:
329,192,166577,1,0,1:0:0:0:
256,192,166991,1,0,1:0:0:0:
256,192,167405,1,0,1:0:0:0:
256,192,167819,1,0,1:0:0:0:
256,192,168232,1,0,1:0:0:0:
329,192,168646,1,0,1:0:0:0:
256,192,168646,1,4,0:0:0:0:
182,192,168853,1,0,1:0:0:0:
329,192,169060,1,0,1:0:0:0:
182,192,169267,1,0,1:0:0:0:
329,192,169474,1,0,1:0:0:0:
182,192,169680,1,0,1:0:0:0:
329,192,169887,1,0,1:0:0:0:
182,192,170094,1,0,1:0:0:0:
402,192,170301,1,0,1:0:0:0:
256,192,170301,1,4,0:0:0:0:
109,192,170508,1,0,1:0:0:0:
402,192,170715,1,0,1:0:0:0:
109,192,170922,1,0,1:0:0:0:
402,192,171129,1,0,1:0:0:0:
109,192,171336,1,0,1:0:0:0:
402,192,171542,1,0,1:0:0:0:
109,192,171749,1,0,1:0:0:0:
475,192,171956,1,0,1:0:0:0:
256,192,171956,1,4,0:0:0:0:
329,192,172060,1,0,1:0:0:0:
182,192,172163,1,0,1:0:0:0:
36,192,172266,1,0,1:0:0:0:
475,192,172370,1,0,1:0:0:0:
329,192,172473,1,0,1:0:0:0:
182,192,172577,1,0,1:0:0:0:
36,192,172680,1,0,1:0:0:0:
475,192,172784,1,0,1:0:0:0:
256,192,172784,1,4,0:0:0:0:
329,192,172887,1,0,1:0:0:0:
182,192,172991,1,0,1:0:0:0:
36,192,173094,1,0,1:0:0:0:
475,192,173197,1,0,1:0:0:0:
329,192,173301,1,0,1:0:0:0:
182,192,173404,1,0,1:0:0:0:
36,192,173508,1,0,1:0:0:0:
182,192,173611,128,0,175266:1:0:0:0:
109,192,173611,128,0,175266:0:0:0:0:
329,192,173611,128,0,175266:1:0:0:0:
402,192,173611,128,0,175266:0:0:0:0:
36,192,175266,1,4,0:0:0:0:
475,192,175266,1,4,0:0:0:0:
256,192,175266,128,0,176921:1:0:0:0:
36,192,176921,1,0,1:0:0:0:
182,192,176921,1,4,0:0:0:0:
402,192,177128,1,0,0:0:0:0:
256,192,177335,1,8,1:0:0:0:
182,192,177335,1,0,1:0:0:0:
402,192,177542,1,0,0:0:0:0:
109,192,177749,1,0,1:0:0:0:
402,192,177955,1,0,0:0:0:0:
256,192,178162,1,8,1:0:0:0:
182,192,178162,1,0,1:0:0:0:
402,192,178369,1,0,0:0:0:0:
329,192,178473,1,2,0:0:0:0:
36,192,178576,1,0,1:0:0:0:
475,192,178783,1,0,0:0:0:0:
256,192,178990,1,8,1:0:0:0:
182,192,178990,1,0,1:0:0:0:
475,192,179197,1,0,0:0:0:0:
36,192,179404,1,0,1:0:0:0:
475,192,179610,1,0,0:0:0:0:
182,192,179817,1,0,1:0:0:0:
256,192,179817,1,8,1:0:0:0:
475,192,180024,1,0,0:0:0:0:
402,192,180128,1,2,0:0:0:0:
109,192,180231,1,0,1:0:0:0:
402,192,180438,1,0,0:0:0:0:
256,192,180645,1,8,1:0:0:0:
182,192,180645,1,0,1:0:0:0:
402,192,180852,1,0,0:0:0:0:
109,192,181059,1,0,1:0:0:0:
402,192,181265,1,0,0:0:0:0:
256,192,181472,1,8,1:0:0:0:
182,192,181472,1,0,1:0:0:0:
402,192,181679,1,0,0:0:0:0:
329,192,181783,1,2,0:0:0:0:
36,192,181886,1,0,1:0:0:0:
475,192,182093,1,0,0:0:0:0:
256,192,182300,1,8,1:0:0:0:
182,192,182300,1,0,1:0:0:0:
475,192,182507,1,0,0:0:0:0:
36,192,182714,1,0,1:0:0:0:
475,192,182920,1,0,0:0:0:0:
182,192,183127,1,0,1:0:0:0:
256,192,183127,1,8,1:0:0:0:
475,192,183334,1,0,0:0:0:0:
329,192,183438,1,2,0:0:0:0:
402,192,183541,1,0,1:0:0:0:
109,192,183748,1,0,0:0:0:0:
256,192,183955,1,8,1:0:0:0:
329,192,183955,1,0,1:0:0:0:
109,192,184162,1,0,0:0:0:0:
402,192,184369,1,0,1:0:0:0:
109,192,184576,1,0,0:0:0:0:
256,192,184782,1,8,1:0:0:0:
329,192,184782,1,0,1:0:0:0:
109,192,184989,1,0,0:0:0:0:
182,192,185093,1,2,0:0:0:0:
475,192,185196,1,0,1:0:0:0:
36,192,185403,1,0,0:0:0:0:
256,192,185610,1,8,1:0:0:0:
329,192,185610,1,0,1:0:0:0:
36,192,185817,1,0,0:0:0:0:
475,192,186024,1,0,1:0:0:0:
36,192,186231,1,0,0:0:0:0:
329,192,186438,1,0,1:0:0:0:
256,192,186438,1,8,1:0:0:0:
36,192,186644,1,0,0:0:0:0:
109,192,186748,1,2,0:0:0:0:
402,192,186851,1,0,1:0:0:0:
109,192,187058,1,0,0:0:0:0:
329,192,187265,1,0,1:0:0:0:
256,192,187265,1,8,1:0:0:0:
109,192,187472,1,0,0:0:0:0:
402,192,187679,1,0,1:0:0:0:
109,192,187886,1,0,0:0:0:0:
256,192,188093,1,8,1:0:0:0:
329,192,188093,1,0,1:0:0:0:
109,192,188299,1,0,0:0:0:0:
182,192,188403,1,2,0:0:0:0:
475,192,188506,1,0,1:0:0:0:
36,192,188713,1,0,0:0:0:0:
256,192,188920,1,8,1:0:0:0:
329,192,188920,1,0,1:0:0:0:
36,192,189127,1,0,0:0:0:0:
475,192,189334,1,0,1:0:0:0:
36,192,189541,1,0,0:0:0:0:
256,192,189748,1,8,1:0:0:0:
329,192,189748,1,0,1:0:0:0:
329,192,189954,1,0,1:0:0:0:
36,192,189954,1,0,0:0:0:0:
182,192,190058,1,2,0:0:0:0:
109,192,190161,1,0,1:0:0:0:
329,192,190161,1,4,0:0:0:0:
402,192,190368,1,0,0:0:0:0:
256,192,190575,1,8,1:0:0:0:
36,192,190575,1,0,1:0:0:0:
402,192,190782,1,0,0:0:0:0:
109,192,190989,1,0,1:0:0:0:
402,192,191196,1,0,0:0:0:0:
256,192,191403,1,8,1:0:0:0:
36,192,191403,1,0,1:0:0:0:
402,192,191610,1,0,0:0:0:0:
329,192,191713,1,2,0:0:0:0:
109,192,191816,1,0,1:0:0:0:
475,192,192023,1,0,0:0:0:0:
182,192,192230,1,0,1:0:0:0:
256,192,192230,1,8,1:0:0:0:
475,192,192437,1,0,0:0:0:0:
109,192,192644,1,0,1:0:0:0:
475,192,192851,1,0,0:0:0:0:
256,192,193058,1,8,1:0:0:0:
182,192,193058,1,0,1:0:0:0:
475,192,193265,1,0,0:0:0:0:
329,192,193368,1,2,0:0:0:0:
109,192,193471,1,0,1:0:0:0:
402,192,193678,1,0,0:0:0:0:
256,192,193885,1,8,1:0:0:0:
36,192,193885,1,0,1:0:0:0:
402,192,194092,1,0,0:0:0:0:
109,192,194299,1,0,1:0:0:0:
402,192,194506,1,0,0:0:0:0:
36,192,194713,1,0,1:0:0:0:
256,192,194713,1,8,1:0:0:0:
402,192,194920,1,0,0:0:0:0:
329,192,195023,1,2,0:0:0:0:
109,192,195126,1,0,1:0:0:0:
475,192,195333,1,0,0:0:0:0:
256,192,195540,1,8,1:0:0:0:
182,192,195540,1,0,1:0:0:0:
475,192,195747,1,0,0:0:0:0:
109,192,195954,1,0,1:0:0:0:
475,192,196161,1,0,0:0:0:0:
182,192,196368,1,0,1:0:0:0:
256,192,196368,1,8,1:0:0:0:
475,192,196575,1,0,0:0:0:0:
329,192,196678,1,2,0:0:0:0:
402,192,196782,1,0,1:0:0:0:
109,192,196989,1,0,0:0:0:0:
256,192,197195,1,8,1:0:0:0:
475,192,197195,1,0,1:0:0:0:
109,192,197402,1,0,0:0:0:0:
402,192,197609,1,0,1:0:0:0:
109,192,197816,1,0,0:0:0:0:
475,192,198023,1,0,1:0:0:0:
256,192,198023,1,8,1:0:0:0:
109,192,198230,1,0,0:0:0:0:
182,192,198333,1,2,0:0:0:0:
402,192,198437,1,0,1:0:0:0:
36,192,198644,1,0,0:0:0:0:
329,192,198850,1,0,1:0:0:0:
256,192,198850,1,8,1:0:0:0:
36,192,199057,1,0,0:0:0:0:
402,192,199264,1,0,1:0:0:0:
36,192,199471,1,0,0:0:0:0:
256,192,199678,1,8,1:0:0:0:
329,192,199678,1,0,1:0:0:0:
36,192,199885,1,0,0:0:0:0:
182,192,199988,1,2,0:0:0:0:
402,192,200092,1,0,1:0:0:0:
109,192,200299,1,0,0:0:0:0:
256,192,200506,1,8,1:0:0:0:
475,192,200506,1,0,1:0:0:0:
109,192,200712,1,0,0:0:0:0:
402,192,200919,1,0,1:0:0:0:
109,192,201126,1,0,0:0:0:0:
475,192,201333,1,0,1:0:0:0:
256,192,201333,1,8,1:0:0:0:
109,192,201540,1,0,0:0:0:0:
182,192,201643,1,2,0:0:0:0:
475,192,201747,1,0,0:0:0:0:
36,192,201954,1,0,0:0:0:0:
475,192,202161,1,0,0:0:0:0:
256,192,202161,1,8,1:0:0:0:
36,192,202367,1,0,0:0:0:0:
475,192,202574,1,0,0:0:0:0:
36,192,202781,1,0,0:0:0:0:
256,192,202988,1,8,1:0:0:0:
475,192,202988,1,0,0:0:0:0:
36,192,203195,1,0,0:0:0:0:
109,192,203402,1,0,1:0:0:0:
256,192,203402,1,0,0:0:0:0:
329,192,203402,1,2,0:0:0:0:
402,192,203609,1,2,0:0:0:0:
329,192,203712,1,2,0:0:0:0:
402,192,203815,1,2,0:0:0:0:
36,192,203815,1,0,1:0:0:0:
182,192,203815,1,8,1:0:0:0:
329,192,204022,1,2,0:0:0:0:
109,192,204229,1,0,1:0:0:0:
402,192,204229,128,2,204643:0:0:0:0:
475,192,204643,128,2,205057:0:0:0:0:
182,192,204643,1,8,1:0:0:0:
36,192,204643,1,0,1:0:0:0:
329,192,205057,128,2,206091:0:0:0:0:
36,192,205057,1,0,1:0:0:0:
182,192,205470,1,8,1:0:0:0:
109,192,205470,1,0,1:0:0:0:
36,192,205884,1,0,1:0:0:0:
256,192,206091,1,2,0:0:0:0:
329,192,206298,1,2,0:0:0:0:
109,192,206298,1,0,1:0:0:0:
182,192,206298,1,8,1:0:0:0:
402,192,206505,1,2,0:0:0:0:
475,192,206712,1,2,0:0:0:0:
109,192,206712,1,0,1:0:0:0:
329,192,206919,128,2,207332:0:0:0:0:
36,192,207125,1,0,1:0:0:0:
182,192,207125,1,8,1:0:0:0:
475,192,207332,128,2,207953:0:0:0:0:
109,192,207539,1,0,1:0:0:0:
36,192,207953,1,0,1:0:0:0:
182,192,207953,1,8,1:0:0:0:
402,192,207953,1,2,0:0:0:0:
329,192,208160,128,2,208574:0:0:0:0:
182,192,208367,1,0,1:0:0:0:
475,192,208574,1,2,0:0:0:0:
109,192,208780,1,0,1:0:0:0:
402,192,208780,1,2,0:0:0:0:
36,192,208780,1,8,1:0:0:0:
329,192,208987,1,2,0:0:0:0:
256,192,209194,128,2,210022:0:0:0:0:
182,192,209194,1,0,1:0:0:0:
36,192,209608,1,8,1:0:0:0:
109,192,209608,1,0,1:0:0:0:
402,192,210022,1,0,1:0:0:0:
182,192,210022,1,2,0:0:0:0:
109,192,210229,1,2,0:0:0:0:
182,192,210332,1,2,0:0:0:0:
109,192,210436,1,2,0:0:0:0:
475,192,210436,1,8,1:0:0:0:
329,192,210436,1,0,1:0:0:0:
182,192,210642,1,2,0:0:0:0:
109,192,210849,128,2,211263:0:0:0:0:
402,192,210849,1,0,1:0:0:0:
329,192,211263,1,0,1:0:0:0:
475,192,211263,1,8,1:0:0:0:
36,192,211263,128,2,211677:0:0:0:0:
182,192,211677,128,2,212711:0:0:0:0:
475,192,211677,1,0,1:0:0:0:
329,192,212091,1,8,1:0:0:0:
402,192,212091,1,0,1:0:0:0:
475,192,212504,1,0,1:0:0:0:
109,192,212711,1,2,0:0:0:0:
402,192,212918,1,0,1:0:0:0:
36,192,212918,1,2,0:0:0:0:
329,192,212918,1,8,1:0:0:0:
182,192,213125,1,2,0:0:0:0:
109,192,213332,1,2,0:0:0:0:
402,192,213332,1,0,1:0:0:0:
36,192,213642,1,2,0:0:0:0:
329,192,213746,1,8,1:0:0:0:
475,192,213746,1,0,1:0:0:0:
182,192,213952,1,2,0:0:0:0:
402,192,214159,1,0,1:0:0:0:
109,192,214159,1,2,0:0:0:0:
182,192,214470,1,2,0:0:0:0:
475,192,214573,1,0,1:0:0:0:
329,192,214573,1,8,1:0:0:0:
36,192,214780,1,2,0:0:0:0:
109,192,214987,128,2,216021:0:0:0:0:
329,192,214987,1,0,1:0:0:0:
475,192,215401,1,8,1:0:0:0:
402,192,215401,1,0,1:0:0:0:
329,192,215814,1,0,1:0:0:0:
36,192,216021,1,2,0:0:0:0:
475,192,216228,1,8,1:0:0:0:
402,192,216228,1,0,1:0:0:0:
109,192,216228,1,2,0:0:0:0:
329,192,216435,1,0,1:0:0:0:
475,192,216435,1,8,1:0:0:0:
182,192,216435,1,2,0:0:0:0:
329,192,216642,1,2,0:0:0:0:
256,192,216642,1,4,0:0:0:0:
109,192,216642,1,0,1:0:0:0:
402,192,216849,1,2,0:0:0:0:
329,192,216952,1,2,0:0:0:0:
402,192,217055,1,2,0:0:0:0:
182,192,217055,1,8,1:0:0:0:
36,192,217055,1,0,1:0:0:0:
329,192,217262,1,2,0:0:0:0:
402,192,217469,128,2,217883:0:0:0:0:
109,192,217469,1,0,1:0:0:0:
475,192,217883,128,2,218297:0:0:0:0:
36,192,217883,1,0,1:0:0:0:
182,192,217883,1,8,1:0:0:0:
36,192,218297,1,0,1:0:0:0:
329,192,218297,128,2,219331:0:0:0:0:
182,192,218710,1,8,1:0:0:0:
109,192,218710,1,0,1:0:0:0:
36,192,219124,1,0,1:0:0:0:
256,192,219331,1,2,0:0:0:0:
329,192,219538,1,2,0:0:0:0:
109,192,219538,1,0,1:0:0:0:
182,192,219538,1,8,1:0:0:0:
402,192,219745,1,2,0:0:0:0:
109,192,219952,1,0,1:0:0:0:
475,192,219952,1,2,0:0:0:0:
329,192,220159,128,2,220572:0:0:0:0:
36,192,220365,1,0,1:0:0:0:
182,192,220365,1,8,1:0:0:0:
475,192,220572,128,2,221193:0:0:0:0:
109,192,220779,1,0,1:0:0:0:
402,192,221193,1,2,0:0:0:0:
36,192,221193,1,0,1:0:0:0:
182,192,221193,1,8,1:0:0:0:
329,192,221400,128,2,221814:0:0:0:0:
182,192,221607,1,0,1:0:0:0:
475,192,221814,1,2,0:0:0:0:
109,192,222020,1,0,1:0:0:0:
36,192,222020,1,8,1:0:0:0:
402,192,222020,1,2,0:0:0:0:
329,192,222227,1,2,0:0:0:0:
182,192,222434,1,0,1:0:0:0:
256,192,222435,128,2,223262:0:0:0:0:
109,192,222848,1,0,1:0:0:0:
36,192,222848,1,8,1:0:0:0:
329,192,223262,1,2,0:0:0:0:
109,192,223262,1,0,1:0:0:0:
475,192,223262,1,0,0:0:0:0:
402,192,223469,1,2,0:0:0:0:
329,192,223572,1,2,0:0:0:0:
182,192,223675,1,8,0:0:0:0:
36,192,223675,1,8,1:0:0:0:
402,192,223675,1,2,0:0:0:0:
329,192,223882,1,2,0:0:0:0:
402,192,224089,128,2,224503:0:0:0:0:
36,192,224503,1,8,1:0:0:0:
475,192,224503,128,2,224917:0:0:0:0:
109,192,224917,1,0,1:0:0:0:
329,192,224917,128,2,226159:0:0:0:0:
256,192,224917,1,4,0:0:0:0:
36,192,225331,1,8,1:0:0:0:
402,192,226159,1,2,0:0:0:0:
36,192,226159,1,8,1:0:0:0:
475,192,226365,1,2,0:0:0:0:
109,192,226572,1,0,1:0:0:0:
256,192,226572,1,4,0:0:0:0:
402,192,226572,128,2,227193:0:0:0:0:
36,192,226985,1,8,1:0:0:0:
329,192,227193,128,2,227607:0:0:0:0:
109,192,227399,1,0,1:0:0:0:
256,192,227400,1,4,0:0:0:0:
402,192,227607,128,2,228227:0:0:0:0:
36,192,227813,1,8,1:0:0:0:
109,192,228227,1,0,1:0:0:0:
256,192,228227,1,4,0:0:0:0:
475,192,228227,128,2,229469:0:0:0:0:
36,192,228640,1,8,1:0:0:0:
36,192,229468,1,8,0:0:0:0:
109,192,229882,1,0,1:0:0:0:
402,192,229882,1,0,1:0:0:0:
256,192,229882,1,4,0:0:0:0:
