osu file format v14

[General]
AudioFilename: Loop Vision_Short.mp3
AudioLeadIn: 0
PreviewTime: 176507
Countdown: 0
SampleSet: Soft
StackLeniency: 0.7
Mode: 3
LetterboxInBreaks: 0
SpecialStyle: 0
WidescreenStoryboard: 1

[Editor]
DistanceSpacing: 0.8
BeatDivisor: 4
GridSize: 16
TimelineZoom: 2.3

[Metadata]
Title:Loop Vision
TitleUnicode:Loop Vision
Artist:EastNewSound
ArtistUnicode:EastNewSound
Creator:Entozer
Version:Insane
Source:
Tags:touhou 東方 tracy
BeatmapID:387138
BeatmapSetID:158172

[Difficulty]
HPDrainRate:8
CircleSize:7
OverallDifficulty:8
ApproachRate:5
SliderMultiplier:1.4
SliderTickRate:1

[Events]
//Background and Video events
0,0,"Mamizou_Futatsuiwa00.jpg",0,0
//Break Periods
//Storyboard Layer 0 (Background)
//Storyboard Layer 1 (Fail)
//Storyboard Layer 2 (Pass)
//Storyboard Layer 3 (Foreground)
//Storyboard Sound Samples

[TimingPoints]
1488,413.758861335614,4,2,0,10,1,0
27968,-100,4,2,0,40,0,0
107410,-100,4,2,0,20,0,0
120650,-200,4,2,0,10,0,0
148786,-100,4,2,0,20,0,0
176921,-100,4,2,0,40,0,0

[HitObjects]
182,192,1488,128,0,3143:0:0:0:0:
329,192,1488,128,0,3143:0:0:0:0:
109,192,3143,128,0,4798:0:0:0:0:
402,192,3143,128,0,4798:0:0:0:0:
182,192,4798,128,0,6453:0:0:0:0:
329,192,4798,128,0,6453:0:0:0:0:
36,192,6453,128,0,8108:0:0:0:0:
475,192,6453,128,0,8108:0:0:0:0:
182,192,8108,128,0,9763:0:0:0:0:
329,192,8108,128,0,9763:0:0:0:0:
36,192,9763,128,0,11418:0:0:0:0:
475,192,9763,128,0,11418:0:0:0:0:
182,192,11418,128,0,13073:0:0:0:0:
329,192,11418,128,0,13073:0:0:0:0:
109,192,13073,128,0,14728:0:0:0:0:
402,192,13073,128,0,14728:0:0:0:0:
36,192,14728,1,0,0:0:0:0:
475,192,14728,1,0,0:0:0:0:
256,192,14728,128,0,21348:0:0:0:0:
182,192,14728,128,0,16383:0:0:0:0:
329,192,14728,128,0,16383:0:0:0:0:
109,192,16383,128,0,18038:0:0:0:0:
402,192,16383,128,0,18038:0:0:0:0:
182,192,18038,128,0,19693:0:0:0:0:
329,192,18038,128,0,19693:0:0:0:0:
36,192,19693,128,0,21348:0:0:0:0:
475,192,19693,128,0,21348:0:0:0:0:
182,192,21348,128,0,23003:0:0:0:0:
329,192,21348,128,0,23003:0:0:0:0:
109,192,21555,1,0,0:0:0:0:
402,192,21762,1,0,0:0:0:0:
109,192,22175,1,0,0:0:0:0:
402,192,22382,1,0,0:0:0:0:
109,192,22796,1,0,0:0:0:0:
402,192,22900,1,0,0:0:0:0:
36,192,23003,128,0,24658:0:0:0:0:
475,192,23003,128,0,24658:0:0:0:0:
256,192,23003,1,0,0:0:0:0:
109,192,23210,1,0,0:0:0:0:
402,192,23417,1,0,0:0:0:0:
109,192,23830,1,0,0:0:0:0:
402,192,24037,1,0,0:0:0:0:
109,192,24451,1,0,0:0:0:0:
402,192,24555,1,0,0:0:0:0:
256,192,24658,1,0,0:0:0:0:
182,192,24658,128,0,26313:0:0:0:0:
329,192,24658,128,0,26313:0:0:0:0:
109,192,24865,1,0,0:0:0:0:
402,192,25072,1,0,0:0:0:0:
109,192,25486,1,0,0:0:0:0:
402,192,25692,1,0,0:0:0:0:
109,192,26106,1,0,0:0:0:0:
402,192,26210,1,0,0:0:0:0:
36,192,26313,128,0,27968:0:0:0:0:
475,192,26313,128,0,27968:0:0:0:0:
256,192,26313,1,0,0:0:0:0:
109,192,26520,1,0,0:0:0:0:
402,192,26727,1,0,0:0:0:0:
109,192,27141,1,0,0:0:0:0:
402,192,27347,1,0,0:0:0:0:
329,192,27761,1,0,0:0:0:0:
182,192,27865,1,0,0:0:0:0:
109,192,27968,1,2,0:0:0:0:
329,192,27968,1,0,1:0:0:0:
256,192,27968,1,0,1:0:0:0:
402,192,27968,1,4,0:0:0:0:
182,192,28072,1,2,0:0:0:0:
36,192,28175,1,2,0:0:0:0:
402,192,28175,1,0,0:0:0:0:
182,192,28278,1,2,0:0:0:0:
109,192,28382,1,2,0:0:0:0:
329,192,28382,1,0,1:0:0:0:
475,192,28382,1,8,1:0:0:0:
182,192,28485,1,2,0:0:0:0:
36,192,28589,1,2,0:0:0:0:
402,192,28589,1,0,0:0:0:0:
182,192,28692,1,2,0:0:0:0:
109,192,28796,1,2,0:0:0:0:
329,192,28796,1,0,1:0:0:0:
256,192,28796,1,0,1:0:0:0:
36,192,28899,1,2,0:0:0:0:
182,192,29002,1,2,0:0:0:0:
402,192,29002,1,0,0:0:0:0:
36,192,29106,1,2,0:0:0:0:
182,192,29209,1,2,0:0:0:0:
329,192,29209,1,0,1:0:0:0:
475,192,29209,1,8,1:0:0:0:
109,192,29313,1,2,0:0:0:0:
182,192,29416,1,2,0:0:0:0:
402,192,29416,1,0,0:0:0:0:
109,192,29520,1,2,0:0:0:0:
475,192,29520,1,0,0:0:0:0:
402,192,29623,1,2,0:0:0:0:
182,192,29623,1,0,1:0:0:0:
256,192,29623,1,0,1:0:0:0:
329,192,29727,1,2,0:0:0:0:
475,192,29830,1,2,0:0:0:0:
109,192,29830,1,0,0:0:0:0:
329,192,29933,1,2,0:0:0:0:
36,192,30037,1,8,1:0:0:0:
402,192,30037,1,2,0:0:0:0:
182,192,30037,1,0,1:0:0:0:
329,192,30140,1,2,0:0:0:0:
109,192,30244,1,0,0:0:0:0:
475,192,30244,1,2,0:0:0:0:
329,192,30347,1,2,0:0:0:0:
402,192,30451,1,2,0:0:0:0:
256,192,30451,1,0,1:0:0:0:
182,192,30451,1,0,1:0:0:0:
475,192,30554,1,2,0:0:0:0:
329,192,30657,1,2,0:0:0:0:
109,192,30657,1,0,0:0:0:0:
475,192,30761,1,2,0:0:0:0:
329,192,30864,1,2,0:0:0:0:
182,192,30864,1,0,1:0:0:0:
36,192,30864,1,8,1:0:0:0:
402,192,30968,1,2,0:0:0:0:
109,192,31071,1,0,0:0:0:0:
329,192,31071,1,2,0:0:0:0:
402,192,31175,1,2,0:0:0:0:
36,192,31175,1,0,0:0:0:0:
256,192,31278,1,0,1:0:0:0:
109,192,31278,1,2,0:0:0:0:
329,192,31278,1,0,1:0:0:0:
182,192,31382,1,2,0:0:0:0:
402,192,31485,1,0,0:0:0:0:
36,192,31485,1,2,0:0:0:0:
182,192,31588,1,2,0:0:0:0:
109,192,31692,1,2,0:0:0:0:
475,192,31692,1,8,1:0:0:0:
329,192,31692,1,0,1:0:0:0:
182,192,31795,1,2,0:0:0:0:
402,192,31899,1,0,0:0:0:0:
36,192,31899,1,2,0:0:0:0:
182,192,32002,1,2,0:0:0:0:
256,192,32106,1,0,1:0:0:0:
329,192,32106,1,0,1:0:0:0:
109,192,32106,1,2,0:0:0:0:
36,192,32209,1,2,0:0:0:0:
402,192,32313,1,0,0:0:0:0:
182,192,32313,1,2,0:0:0:0:
36,192,32416,1,2,0:0:0:0:
182,192,32519,1,2,0:0:0:0:
475,192,32519,1,8,1:0:0:0:
329,192,32519,1,0,1:0:0:0:
109,192,32623,1,2,0:0:0:0:
402,192,32726,1,0,0:0:0:0:
182,192,32726,1,2,0:0:0:0:
475,192,32830,1,0,0:0:0:0:
109,192,32830,1,2,0:0:0:0:
182,192,32933,1,0,1:0:0:0:
402,192,32933,1,2,0:0:0:0:
256,192,32933,1,0,1:0:0:0:
329,192,33037,1,2,0:0:0:0:
109,192,33140,1,0,0:0:0:0:
475,192,33140,1,2,0:0:0:0:
329,192,33243,1,2,0:0:0:0:
182,192,33347,1,0,1:0:0:0:
36,192,33347,1,8,1:0:0:0:
402,192,33347,1,2,0:0:0:0:
329,192,33450,1,2,0:0:0:0:
109,192,33554,1,0,0:0:0:0:
475,192,33554,1,2,0:0:0:0:
329,192,33657,1,2,0:0:0:0:
182,192,33761,1,0,1:0:0:0:
402,192,33761,1,2,0:0:0:0:
256,192,33761,1,0,1:0:0:0:
475,192,33864,1,2,0:0:0:0:
109,192,33968,1,0,0:0:0:0:
329,192,33968,1,2,0:0:0:0:
475,192,34071,1,2,0:0:0:0:
36,192,34174,1,8,1:0:0:0:
182,192,34174,1,0,1:0:0:0:
329,192,34174,1,2,0:0:0:0:
402,192,34278,1,2,0:0:0:0:
329,192,34381,1,2,0:0:0:0:
109,192,34381,1,0,0:0:0:0:
36,192,34485,1,0,0:0:0:0:
402,192,34485,1,2,0:0:0:0:
182,192,34588,1,2,0:0:0:0:
256,192,34588,1,0,1:0:0:0:
475,192,34588,1,0,1:0:0:0:
109,192,34692,1,2,0:0:0:0:
36,192,34795,1,2,0:0:0:0:
402,192,34795,1,0,0:0:0:0:
109,192,34899,1,2,0:0:0:0:
36,192,35002,1,2,0:0:0:0:
475,192,35002,1,0,1:0:0:0:
329,192,35002,1,8,1:0:0:0:
182,192,35105,1,2,0:0:0:0:
36,192,35209,1,2,0:0:0:0:
402,192,35209,1,0,0:0:0:0:
182,192,35312,1,2,0:0:0:0:
109,192,35416,1,2,0:0:0:0:
256,192,35416,1,0,1:0:0:0:
475,192,35416,1,0,1:0:0:0:
182,192,35519,1,2,0:0:0:0:
109,192,35623,1,2,0:0:0:0:
402,192,35623,1,0,0:0:0:0:
36,192,35726,1,2,0:0:0:0:
182,192,35829,1,2,0:0:0:0:
475,192,35829,1,0,1:0:0:0:
329,192,35829,1,8,1:0:0:0:
109,192,35933,1,2,0:0:0:0:
36,192,36036,1,2,0:0:0:0:
402,192,36036,1,0,0:0:0:0:
182,192,36140,1,2,0:0:0:0:
475,192,36140,1,0,0:0:0:0:
36,192,36243,1,0,1:0:0:0:
329,192,36243,1,2,0:0:0:0:
256,192,36243,1,0,1:0:0:0:
402,192,36347,1,2,0:0:0:0:
475,192,36450,1,2,0:0:0:0:
109,192,36450,1,0,0:0:0:0:
402,192,36554,1,2,0:0:0:0:
182,192,36657,1,8,1:0:0:0:
475,192,36657,1,2,0:0:0:0:
36,192,36657,1,0,1:0:0:0:
329,192,36760,1,2,0:0:0:0:
475,192,36864,1,2,0:0:0:0:
109,192,36864,1,0,0:0:0:0:
329,192,36967,1,2,0:0:0:0:
402,192,37071,1,2,0:0:0:0:
256,192,37071,1,0,1:0:0:0:
36,192,37071,1,0,1:0:0:0:
329,192,37174,1,2,0:0:0:0:
402,192,37278,1,2,0:0:0:0:
109,192,37278,1,0,0:0:0:0:
475,192,37381,1,2,0:0:0:0:
36,192,37485,1,0,1:0:0:0:
182,192,37485,1,8,1:0:0:0:
329,192,37485,1,2,0:0:0:0:
402,192,37588,1,2,0:0:0:0:
109,192,37691,1,0,0:0:0:0:
475,192,37691,1,2,0:0:0:0:
329,192,37795,1,2,0:0:0:0:
36,192,37795,1,0,0:0:0:0:
256,192,37898,1,0,1:0:0:0:
182,192,37898,1,2,0:0:0:0:
475,192,37898,1,0,1:0:0:0:
109,192,38002,1,2,0:0:0:0:
36,192,38105,1,2,0:0:0:0:
402,192,38105,1,0,0:0:0:0:
109,192,38209,1,2,0:0:0:0:
329,192,38312,1,8,1:0:0:0:
475,192,38312,1,0,1:0:0:0:
36,192,38312,1,2,0:0:0:0:
182,192,38415,1,2,0:0:0:0:
36,192,38519,1,2,0:0:0:0:
402,192,38519,1,0,0:0:0:0:
182,192,38622,1,2,0:0:0:0:
475,192,38726,1,0,1:0:0:0:
109,192,38726,1,2,0:0:0:0:
256,192,38726,1,0,1:0:0:0:
182,192,38829,1,2,0:0:0:0:
109,192,38933,1,2,0:0:0:0:
402,192,38933,1,0,0:0:0:0:
36,192,39036,1,2,0:0:0:0:
182,192,39140,1,2,0:0:0:0:
329,192,39140,1,8,1:0:0:0:
475,192,39140,1,0,1:0:0:0:
109,192,39243,1,2,0:0:0:0:
36,192,39346,1,2,0:0:0:0:
402,192,39346,1,0,0:0:0:0:
182,192,39450,1,2,0:0:0:0:
475,192,39450,1,0,0:0:0:0:
256,192,39553,1,0,1:0:0:0:
329,192,39553,1,2,0:0:0:0:
36,192,39553,1,0,1:0:0:0:
402,192,39657,1,2,0:0:0:0:
475,192,39760,1,2,0:0:0:0:
109,192,39760,1,0,0:0:0:0:
402,192,39864,1,2,0:0:0:0:
36,192,39967,1,0,1:0:0:0:
475,192,39967,1,2,0:0:0:0:
182,192,39967,1,8,1:0:0:0:
329,192,40071,1,2,0:0:0:0:
475,192,40174,1,2,0:0:0:0:
109,192,40174,1,0,0:0:0:0:
329,192,40277,1,2,0:0:0:0:
256,192,40381,1,0,1:0:0:0:
36,192,40381,1,0,1:0:0:0:
402,192,40381,1,2,0:0:0:0:
329,192,40484,1,2,0:0:0:0:
109,192,40588,1,0,0:0:0:0:
402,192,40588,1,2,0:0:0:0:
475,192,40691,1,2,0:0:0:0:
36,192,40795,1,0,1:0:0:0:
329,192,40795,1,2,0:0:0:0:
182,192,40795,1,8,1:0:0:0:
402,192,40898,1,2,0:0:0:0:
109,192,41001,1,0,0:0:0:0:
475,192,41001,1,2,0:0:0:0:
182,192,41001,1,8,1:0:0:0:
329,192,41105,1,2,0:0:0:0:
36,192,41208,1,2,0:0:0:0:
402,192,41208,1,0,1:0:0:0:
256,192,41208,1,0,1:0:0:0:
109,192,41208,1,4,0:0:0:0:
182,192,41312,1,2,0:0:0:0:
36,192,41415,1,2,0:0:0:0:
329,192,41415,1,0,0:0:0:0:
182,192,41519,1,2,0:0:0:0:
109,192,41622,1,2,0:0:0:0:
475,192,41622,1,8,1:0:0:0:
402,192,41622,1,0,1:0:0:0:
182,192,41726,1,2,0:0:0:0:
36,192,41829,1,2,0:0:0:0:
329,192,41829,1,0,0:0:0:0:
109,192,41932,1,2,0:0:0:0:
36,192,42036,1,2,0:0:0:0:
256,192,42036,1,0,1:0:0:0:
402,192,42036,1,0,1:0:0:0:
109,192,42139,1,2,0:0:0:0:
182,192,42243,1,2,0:0:0:0:
329,192,42243,1,0,0:0:0:0:
36,192,42346,1,2,0:0:0:0:
182,192,42450,1,2,0:0:0:0:
402,192,42450,1,0,1:0:0:0:
475,192,42450,1,8,1:0:0:0:
36,192,42553,1,2,0:0:0:0:
109,192,42657,1,2,0:0:0:0:
329,192,42657,1,0,0:0:0:0:
182,192,42760,1,2,0:0:0:0:
402,192,42760,1,0,0:0:0:0:
475,192,42863,1,2,0:0:0:0:
256,192,42863,1,0,1:0:0:0:
109,192,42863,1,0,1:0:0:0:
329,192,42967,1,2,0:0:0:0:
475,192,43070,1,2,0:0:0:0:
182,192,43070,1,0,0:0:0:0:
329,192,43174,1,2,0:0:0:0:
402,192,43277,1,2,0:0:0:0:
36,192,43277,1,8,1:0:0:0:
109,192,43277,1,0,1:0:0:0:
329,192,43381,1,2,0:0:0:0:
475,192,43484,1,2,0:0:0:0:
182,192,43484,1,0,0:0:0:0:
402,192,43587,1,2,0:0:0:0:
475,192,43691,1,2,0:0:0:0:
256,192,43691,1,0,1:0:0:0:
109,192,43691,1,0,1:0:0:0:
402,192,43794,1,2,0:0:0:0:
329,192,43898,1,2,0:0:0:0:
182,192,43898,1,0,0:0:0:0:
475,192,44001,1,2,0:0:0:0:
36,192,44105,1,8,1:0:0:0:
329,192,44105,1,2,0:0:0:0:
109,192,44105,1,0,1:0:0:0:
475,192,44208,1,2,0:0:0:0:
402,192,44312,1,2,0:0:0:0:
182,192,44312,1,0,0:0:0:0:
329,192,44415,1,2,0:0:0:0:
109,192,44415,1,0,0:0:0:0:
402,192,44518,1,0,1:0:0:0:
36,192,44518,1,2,0:0:0:0:
256,192,44518,1,0,1:0:0:0:
182,192,44622,1,2,0:0:0:0:
36,192,44725,1,2,0:0:0:0:
329,192,44725,1,0,0:0:0:0:
182,192,44829,1,2,0:0:0:0:
402,192,44932,1,0,1:0:0:0:
475,192,44932,1,8,1:0:0:0:
109,192,44932,1,2,0:0:0:0:
182,192,45036,1,2,0:0:0:0:
36,192,45139,1,2,0:0:0:0:
329,192,45139,1,0,0:0:0:0:
109,192,45242,1,2,0:0:0:0:
402,192,45346,1,0,1:0:0:0:
36,192,45346,1,2,0:0:0:0:
256,192,45346,1,0,1:0:0:0:
109,192,45449,1,2,0:0:0:0:
182,192,45553,1,2,0:0:0:0:
329,192,45553,1,0,0:0:0:0:
36,192,45656,1,2,0:0:0:0:
182,192,45760,1,2,0:0:0:0:
475,192,45760,1,8,1:0:0:0:
402,192,45760,1,0,1:0:0:0:
36,192,45863,1,2,0:0:0:0:
109,192,45967,1,2,0:0:0:0:
329,192,45967,1,0,0:0:0:0:
182,192,46070,1,2,0:0:0:0:
402,192,46070,1,0,0:0:0:0:
109,192,46173,1,0,1:0:0:0:
256,192,46173,1,0,1:0:0:0:
475,192,46173,1,2,0:0:0:0:
329,192,46277,1,2,0:0:0:0:
475,192,46380,1,2,0:0:0:0:
182,192,46380,1,0,0:0:0:0:
329,192,46484,1,2,0:0:0:0:
109,192,46587,1,0,1:0:0:0:
36,192,46587,1,8,1:0:0:0:
402,192,46587,1,2,0:0:0:0:
329,192,46691,1,2,0:0:0:0:
475,192,46794,1,2,0:0:0:0:
182,192,46794,1,0,0:0:0:0:
402,192,46898,1,2,0:0:0:0:
256,192,47001,1,0,1:0:0:0:
109,192,47001,1,0,1:0:0:0:
475,192,47001,1,2,0:0:0:0:
402,192,47104,1,2,0:0:0:0:
182,192,47208,1,0,0:0:0:0:
329,192,47208,1,2,0:0:0:0:
475,192,47311,1,2,0:0:0:0:
36,192,47415,1,8,1:0:0:0:
109,192,47415,1,0,1:0:0:0:
329,192,47415,1,2,0:0:0:0:
475,192,47518,1,2,0:0:0:0:
402,192,47622,1,2,0:0:0:0:
182,192,47622,1,0,0:0:0:0:
329,192,47725,1,2,0:0:0:0:
109,192,47725,1,0,0:0:0:0:
256,192,47828,1,4,0:0:0:0:
402,192,47828,1,0,0:0:0:0:
475,192,47828,1,0,1:0:0:0:
182,192,47828,1,2,0:0:0:0:
36,192,47932,1,2,0:0:0:0:
329,192,48035,1,0,0:0:0:0:
182,192,48035,1,2,0:0:0:0:
36,192,48139,1,2,0:0:0:0:
475,192,48242,1,0,1:0:0:0:
256,192,48242,1,8,1:0:0:0:
182,192,48242,1,2,0:0:0:0:
109,192,48346,1,2,0:0:0:0:
329,192,48449,1,0,0:0:0:0:
182,192,48449,1,2,0:0:0:0:
109,192,48553,1,2,0:0:0:0:
402,192,48656,1,0,1:0:0:0:
475,192,48656,1,0,1:0:0:0:
36,192,48656,1,2,0:0:0:0:
182,192,48759,1,2,0:0:0:0:
329,192,48863,1,0,0:0:0:0:
36,192,48863,1,2,0:0:0:0:
182,192,48966,1,2,0:0:0:0:
256,192,49070,1,8,1:0:0:0:
475,192,49070,1,0,1:0:0:0:
36,192,49070,1,2,0:0:0:0:
109,192,49173,1,2,0:0:0:0:
329,192,49277,1,0,0:0:0:0:
36,192,49277,1,2,0:0:0:0:
182,192,49380,1,2,0:0:0:0:
402,192,49380,1,0,0:0:0:0:
256,192,49484,1,4,0:0:0:0:
109,192,49484,1,0,1:0:0:0:
36,192,49484,1,0,1:0:0:0:
329,192,49484,1,2,0:0:0:0:
475,192,49587,1,2,0:0:0:0:
182,192,49690,1,0,0:0:0:0:
329,192,49690,1,2,0:0:0:0:
475,192,49794,1,2,0:0:0:0:
36,192,49897,1,0,1:0:0:0:
256,192,49897,1,8,1:0:0:0:
329,192,49897,1,2,0:0:0:0:
402,192,50001,1,2,0:0:0:0:
182,192,50104,1,0,0:0:0:0:
329,192,50104,1,2,0:0:0:0:
402,192,50208,1,2,0:0:0:0:
109,192,50311,1,0,1:0:0:0:
36,192,50311,1,0,1:0:0:0:
475,192,50311,1,2,0:0:0:0:
329,192,50414,1,2,0:0:0:0:
182,192,50518,1,0,0:0:0:0:
475,192,50518,1,2,0:0:0:0:
329,192,50621,1,2,0:0:0:0:
36,192,50725,1,0,1:0:0:0:
256,192,50725,1,8,1:0:0:0:
475,192,50725,1,2,0:0:0:0:
402,192,50828,1,2,0:0:0:0:
182,192,50932,1,0,0:0:0:0:
475,192,50932,1,2,0:0:0:0:
329,192,51035,1,2,0:0:0:0:
109,192,51035,1,0,0:0:0:0:
256,192,51139,1,4,0:0:0:0:
36,192,51139,1,0,1:0:0:0:
182,192,51139,1,2,0:0:0:0:
109,192,51242,1,2,0:0:0:0:
329,192,51345,1,2,0:0:0:0:
402,192,51345,1,0,0:0:0:0:
182,192,51449,1,2,0:0:0:0:
36,192,51552,1,0,1:0:0:0:
475,192,51552,1,8,1:0:0:0:
109,192,51552,1,2,0:0:0:0:
329,192,51656,1,2,0:0:0:0:
182,192,51759,1,2,0:0:0:0:
402,192,51759,1,0,0:0:0:0:
109,192,51863,1,2,0:0:0:0:
256,192,51966,1,4,0:0:0:0:
36,192,51966,1,0,1:0:0:0:
329,192,51966,1,2,0:0:0:0:
182,192,52070,1,2,0:0:0:0:
109,192,52173,1,2,0:0:0:0:
402,192,52173,1,0,0:0:0:0:
329,192,52276,1,2,0:0:0:0:
475,192,52380,1,8,1:0:0:0:
36,192,52380,1,0,1:0:0:0:
182,192,52380,1,2,0:0:0:0:
109,192,52483,1,2,0:0:0:0:
329,192,52587,1,2,0:0:0:0:
402,192,52587,1,0,0:0:0:0:
182,192,52690,1,2,0:0:0:0:
256,192,52794,1,0,1:0:0:0:
402,192,53000,1,0,0:0:0:0:
182,192,53207,1,8,1:0:0:0:
475,192,53207,1,0,0:0:0:0:
402,192,53414,1,0,0:0:0:0:
109,192,53828,1,0,0:0:0:0:
36,192,54035,1,0,0:0:0:0:
329,192,54035,1,8,1:0:0:0:
109,192,54242,1,0,0:0:0:0:
182,192,54449,128,2,54656:0:0:0:0:
36,192,54449,1,0,1:0:0:0:
256,192,54449,1,0,0:0:0:0:
475,192,54449,1,0,0:0:0:0:
402,192,54552,1,0,0:0:0:0:
329,192,54656,128,2,54759:0:0:0:0:
475,192,54656,1,0,0:0:0:0:
109,192,54759,1,0,0:0:0:0:
182,192,54759,128,2,54862:0:0:0:0:
329,192,54862,128,2,55069:0:0:0:0:
36,192,54862,1,0,1:0:0:0:
256,192,54862,1,0,0:0:0:0:
475,192,54966,1,0,0:0:0:0:
182,192,55069,128,2,55276:0:0:0:0:
109,192,55069,1,0,0:0:0:0:
402,192,55173,1,0,0:0:0:0:
329,192,55276,128,2,55690:0:0:0:0:
36,192,55276,1,0,1:0:0:0:
475,192,55276,1,0,0:0:0:0:
182,192,55380,1,0,0:0:0:0:
256,192,55483,1,0,0:0:0:0:
475,192,55586,1,0,0:0:0:0:
402,192,55690,128,2,56104:0:0:0:0:
36,192,55690,1,0,1:0:0:0:
109,192,55690,1,0,0:0:0:0:
182,192,55793,1,0,0:0:0:0:
256,192,55897,1,0,0:0:0:0:
329,192,56000,1,0,0:0:0:0:
109,192,56104,128,2,57138:0:0:0:0:
475,192,56104,1,0,1:0:0:0:
256,192,56104,1,0,0:0:0:0:
182,192,56207,1,0,0:0:0:0:
36,192,56311,1,0,0:0:0:0:
402,192,56414,1,0,0:0:0:0:
475,192,56517,1,0,1:0:0:0:
256,192,56517,1,0,0:0:0:0:
182,192,56621,1,0,0:0:0:0:
329,192,56724,1,0,0:0:0:0:
256,192,56828,1,0,0:0:0:0:
475,192,56931,1,0,1:0:0:0:
36,192,56931,1,0,0:0:0:0:
402,192,57035,1,0,0:0:0:0:
182,192,57138,128,2,57345:0:0:0:0:
256,192,57138,1,0,0:0:0:0:
36,192,57242,1,0,0:0:0:0:
329,192,57345,128,2,57552:0:0:0:0:
475,192,57345,1,0,1:0:0:0:
256,192,57345,1,0,0:0:0:0:
182,192,57448,1,0,0:0:0:0:
402,192,57552,128,2,57759:0:0:0:0:
109,192,57552,1,0,0:0:0:0:
36,192,57655,1,0,0:0:0:0:
475,192,57759,128,2,57966:0:0:0:0:
109,192,57759,1,0,1:0:0:0:
182,192,57759,1,0,0:0:0:0:
256,192,57862,1,0,0:0:0:0:
36,192,57966,128,2,58379:0:0:0:0:
402,192,57966,1,0,0:0:0:0:
182,192,58069,1,0,0:0:0:0:
109,192,58172,1,0,1:0:0:0:
329,192,58172,1,0,0:0:0:0:
402,192,58276,1,0,0:0:0:0:
475,192,58379,128,2,59000:0:0:0:0:
256,192,58379,1,0,0:0:0:0:
329,192,58483,1,0,0:0:0:0:
109,192,58586,1,0,1:0:0:0:
402,192,58586,1,0,0:0:0:0:
36,192,58690,1,0,0:0:0:0:
182,192,58793,1,0,0:0:0:0:
256,192,58897,1,0,0:0:0:0:
329,192,59000,128,2,59207:0:0:0:0:
109,192,59000,1,0,1:0:0:0:
36,192,59000,1,0,0:0:0:0:
256,192,59103,1,0,0:0:0:0:
182,192,59207,128,2,59621:0:0:0:0:
402,192,59207,1,0,0:0:0:0:
475,192,59310,1,0,0:0:0:0:
329,192,59414,1,0,1:0:0:0:
402,192,59414,1,0,0:0:0:0:
109,192,59517,1,0,0:0:0:0:
475,192,59621,128,2,59827:0:0:0:0:
36,192,59621,1,0,0:0:0:0:
256,192,59724,1,0,0:0:0:0:
402,192,59827,128,2,60034:0:0:0:0:
329,192,59827,1,0,1:0:0:0:
182,192,59827,1,0,0:0:0:0:
36,192,59931,1,0,0:0:0:0:
109,192,60034,128,2,60241:0:0:0:0:
475,192,60034,1,0,0:0:0:0:
402,192,60138,1,0,0:0:0:0:
36,192,60241,128,2,61069:0:0:0:0:
329,192,60241,1,0,1:0:0:0:
182,192,60241,1,0,0:0:0:0:
475,192,60345,1,0,0:0:0:0:
256,192,60448,1,0,0:0:0:0:
109,192,60552,1,0,0:0:0:0:
329,192,60655,1,0,1:0:0:0:
475,192,60655,1,0,0:0:0:0:
402,192,60758,1,0,0:0:0:0:
256,192,60862,1,0,0:0:0:0:
182,192,60965,1,0,0:0:0:0:
109,192,61069,128,2,61276:0:0:0:0:
475,192,61069,1,0,1:0:0:0:
329,192,61069,1,0,0:0:0:0:
256,192,61172,1,0,0:0:0:0:
402,192,61276,128,2,61379:0:0:0:0:
36,192,61276,1,0,0:0:0:0:
109,192,61379,128,2,61483:0:0:0:0:
329,192,61379,1,0,0:0:0:0:
402,192,61483,128,2,61689:0:0:0:0:
475,192,61483,1,0,1:0:0:0:
182,192,61483,1,0,0:0:0:0:
36,192,61586,1,0,0:0:0:0:
109,192,61689,128,2,61896:0:0:0:0:
329,192,61689,1,0,0:0:0:0:
256,192,61793,1,0,0:0:0:0:
402,192,61896,128,2,62310:0:0:0:0:
475,192,61896,1,0,1:0:0:0:
182,192,61896,1,0,0:0:0:0:
329,192,62000,1,0,0:0:0:0:
256,192,62103,1,0,0:0:0:0:
109,192,62207,1,0,0:0:0:0:
36,192,62310,128,2,62724:0:0:0:0:
475,192,62310,1,0,1:0:0:0:
329,192,62310,1,0,0:0:0:0:
256,192,62413,1,0,0:0:0:0:
182,192,62517,1,0,0:0:0:0:
109,192,62620,1,0,0:0:0:0:
475,192,62724,128,2,63758:0:0:0:0:
402,192,62724,1,0,1:0:0:0:
182,192,62724,1,0,0:0:0:0:
256,192,62827,1,0,0:0:0:0:
329,192,62931,1,0,0:0:0:0:
109,192,63034,1,0,0:0:0:0:
402,192,63138,1,0,1:0:0:0:
256,192,63138,1,0,0:0:0:0:
329,192,63241,1,0,0:0:0:0:
36,192,63344,1,0,0:0:0:0:
182,192,63448,1,0,0:0:0:0:
402,192,63551,1,0,1:0:0:0:
256,192,63551,1,0,0:0:0:0:
36,192,63655,1,0,0:0:0:0:
329,192,63758,128,2,63965:0:0:0:0:
109,192,63758,1,0,0:0:0:0:
256,192,63862,1,0,0:0:0:0:
182,192,63965,128,2,64172:0:0:0:0:
402,192,63965,1,0,1:0:0:0:
36,192,63965,1,0,0:0:0:0:
109,192,64069,1,0,0:0:0:0:
329,192,64172,128,2,64379:0:0:0:0:
256,192,64172,1,0,0:0:0:0:
402,192,64275,1,0,0:0:0:0:
182,192,64379,128,2,64689:0:0:0:0:
36,192,64379,1,0,1:0:0:0:
475,192,64379,1,0,0:0:0:0:
329,192,64482,1,0,0:0:0:0:
256,192,64586,1,0,0:0:0:0:
109,192,64689,128,2,64999:0:0:0:0:
402,192,64689,1,0,0:0:0:0:
36,192,64793,1,0,1:0:0:0:
329,192,64793,1,0,0:0:0:0:
182,192,64896,1,0,0:0:0:0:
402,192,64999,128,2,65206:0:0:0:0:
475,192,64999,1,0,0:0:0:0:
329,192,65103,1,0,0:0:0:0:
109,192,65206,128,2,65517:0:0:0:0:
36,192,65206,1,0,1:0:0:0:
256,192,65206,1,0,0:0:0:0:
475,192,65310,1,0,0:0:0:0:
329,192,65413,1,0,0:0:0:0:
182,192,65517,128,2,65827:0:0:0:0:
256,192,65517,1,0,0:0:0:0:
36,192,65620,1,0,1:0:0:0:
402,192,65620,1,0,0:0:0:0:
329,192,65724,1,0,0:0:0:0:
402,192,65827,128,2,66034:0:0:0:0:
256,192,65827,1,0,0:0:0:0:
182,192,65930,1,0,0:0:0:0:
329,192,66034,128,2,67068:0:0:0:0:
109,192,66034,1,0,1:0:0:0:
256,192,66034,1,0,0:0:0:0:
402,192,66137,1,0,0:0:0:0:
475,192,66241,1,0,0:0:0:0:
182,192,66344,1,0,0:0:0:0:
109,192,66448,1,0,1:0:0:0:
256,192,66448,1,0,0:0:0:0:
475,192,66551,1,0,0:0:0:0:
182,192,66655,1,0,0:0:0:0:
402,192,66758,1,0,0:0:0:0:
109,192,66861,1,0,1:0:0:0:
475,192,66861,1,0,0:0:0:0:
256,192,66965,1,0,0:0:0:0:
402,192,67068,1,0,0:0:0:0:
182,192,67068,128,2,67275:0:0:0:0:
475,192,67172,1,0,0:0:0:0:
256,192,67275,128,2,67482:0:0:0:0:
36,192,67275,1,0,0:0:0:0:
402,192,67275,1,0,1:0:0:0:
109,192,67379,1,0,0:0:0:0:
329,192,67482,128,2,67689:0:0:0:0:
182,192,67482,1,0,0:0:0:0:
402,192,67482,1,0,1:0:0:0:
256,192,67585,1,0,0:0:0:0:
182,192,67689,128,2,67896:0:0:0:0:
475,192,67689,1,0,0:0:0:0:
36,192,67689,1,0,1:0:0:0:
109,192,67689,1,0,0:0:0:0:
402,192,67792,1,0,0:0:0:0:
475,192,67896,1,0,0:0:0:0:
329,192,67896,128,2,67999:0:0:0:0:
109,192,67999,1,0,0:0:0:0:
182,192,67999,128,2,68103:0:0:0:0:
256,192,68103,1,0,0:0:0:0:
36,192,68103,1,0,1:0:0:0:
329,192,68103,128,2,68310:0:0:0:0:
475,192,68206,1,0,0:0:0:0:
109,192,68310,1,0,0:0:0:0:
182,192,68310,128,2,68516:0:0:0:0:
402,192,68413,1,0,0:0:0:0:
475,192,68516,1,0,0:0:0:0:
329,192,68516,128,2,68930:0:0:0:0:
36,192,68516,1,0,1:0:0:0:
182,192,68620,1,0,0:0:0:0:
256,192,68723,1,0,0:0:0:0:
475,192,68827,1,0,0:0:0:0:
109,192,68930,1,0,0:0:0:0:
36,192,68930,1,0,1:0:0:0:
402,192,68930,128,2,69344:0:0:0:0:
182,192,69034,1,0,0:0:0:0:
256,192,69137,1,0,0:0:0:0:
329,192,69241,1,0,0:0:0:0:
109,192,69344,128,2,70378:0:0:0:0:
475,192,69344,1,0,1:0:0:0:
256,192,69344,1,0,0:0:0:0:
182,192,69447,1,0,0:0:0:0:
36,192,69551,1,0,0:0:0:0:
402,192,69654,1,0,0:0:0:0:
475,192,69758,1,0,1:0:0:0:
256,192,69758,1,0,0:0:0:0:
182,192,69861,1,0,0:0:0:0:
329,192,69965,1,0,0:0:0:0:
256,192,70068,1,0,0:0:0:0:
36,192,70171,1,0,0:0:0:0:
475,192,70171,1,0,1:0:0:0:
402,192,70275,1,0,0:0:0:0:
256,192,70378,1,0,0:0:0:0:
182,192,70378,128,2,70585:0:0:0:0:
36,192,70482,1,0,0:0:0:0:
475,192,70585,1,0,1:0:0:0:
329,192,70585,128,2,70792:0:0:0:0:
256,192,70585,1,0,0:0:0:0:
182,192,70689,1,0,0:0:0:0:
109,192,70792,1,0,0:0:0:0:
402,192,70792,128,2,70999:0:0:0:0:
36,192,70896,1,0,0:0:0:0:
475,192,70999,128,2,71206:0:0:0:0:
182,192,70999,1,0,0:0:0:0:
109,192,70999,1,0,1:0:0:0:
256,192,71102,1,0,0:0:0:0:
36,192,71206,128,2,71620:0:0:0:0:
402,192,71206,1,0,0:0:0:0:
182,192,71309,1,0,0:0:0:0:
109,192,71413,1,0,1:0:0:0:
329,192,71413,1,0,0:0:0:0:
402,192,71516,1,0,0:0:0:0:
256,192,71620,1,0,0:0:0:0:
475,192,71620,128,2,72240:0:0:0:0:
329,192,71723,1,0,0:0:0:0:
109,192,71827,1,0,1:0:0:0:
402,192,71827,1,0,0:0:0:0:
36,192,71930,1,0,0:0:0:0:
182,192,72033,1,0,0:0:0:0:
256,192,72137,1,0,0:0:0:0:
36,192,72240,1,0,0:0:0:0:
329,192,72240,128,2,72447:0:0:0:0:
109,192,72240,1,0,1:0:0:0:
256,192,72344,1,0,0:0:0:0:
182,192,72447,128,2,72861:0:0:0:0:
402,192,72447,1,0,0:0:0:0:
475,192,72551,1,0,0:0:0:0:
329,192,72654,1,0,1:0:0:0:
402,192,72654,1,0,0:0:0:0:
109,192,72757,1,0,0:0:0:0:
475,192,72861,128,2,73068:0:0:0:0:
36,192,72861,1,0,0:0:0:0:
256,192,72964,1,0,0:0:0:0:
182,192,73068,1,0,0:0:0:0:
402,192,73068,128,2,73275:0:0:0:0:
329,192,73068,1,0,1:0:0:0:
36,192,73171,1,0,0:0:0:0:
475,192,73275,1,0,0:0:0:0:
109,192,73275,128,2,73482:0:0:0:0:
402,192,73378,1,0,0:0:0:0:
329,192,73482,1,0,1:0:0:0:
36,192,73482,128,2,74309:0:0:0:0:
182,192,73482,1,0,0:0:0:0:
475,192,73585,1,0,0:0:0:0:
256,192,73688,1,0,0:0:0:0:
109,192,73792,1,0,0:0:0:0:
329,192,73895,1,0,1:0:0:0:
475,192,73895,1,0,0:0:0:0:
402,192,73999,1,0,0:0:0:0:
256,192,74102,1,0,0:0:0:0:
182,192,74206,1,0,0:0:0:0:
475,192,74309,1,0,1:0:0:0:
329,192,74309,1,0,0:0:0:0:
109,192,74309,128,2,74516:0:0:0:0:
256,192,74412,1,0,0:0:0:0:
36,192,74516,1,0,0:0:0:0:
402,192,74516,128,2,74619:0:0:0:0:
329,192,74619,1,0,0:0:0:0:
109,192,74619,128,2,74723:0:0:0:0:
182,192,74723,1,0,0:0:0:0:
475,192,74723,1,0,1:0:0:0:
402,192,74723,128,2,74930:0:0:0:0:
36,192,74826,1,0,0:0:0:0:
329,192,74930,1,0,0:0:0:0:
109,192,74930,128,2,75137:0:0:0:0:
256,192,75033,1,0,0:0:0:0:
182,192,75137,1,0,0:0:0:0:
475,192,75137,1,0,1:0:0:0:
402,192,75137,128,2,75550:0:0:0:0:
329,192,75240,1,0,0:0:0:0:
256,192,75343,1,0,0:0:0:0:
109,192,75447,1,0,0:0:0:0:
329,192,75550,1,0,0:0:0:0:
36,192,75550,128,2,75964:0:0:0:0:
475,192,75550,1,0,1:0:0:0:
256,192,75654,1,0,0:0:0:0:
182,192,75757,1,0,0:0:0:0:
109,192,75861,1,0,0:0:0:0:
475,192,75964,128,2,77205:0:0:0:0:
182,192,75964,1,0,0:0:0:0:
402,192,75964,1,0,1:0:0:0:
256,192,76068,1,0,0:0:0:0:
329,192,76171,1,0,0:0:0:0:
109,192,76274,1,0,0:0:0:0:
402,192,76378,1,0,1:0:0:0:
256,192,76378,1,0,0:0:0:0:
329,192,76481,1,0,0:0:0:0:
36,192,76585,1,0,0:0:0:0:
182,192,76688,1,0,0:0:0:0:
402,192,76792,1,0,1:0:0:0:
256,192,76792,1,0,0:0:0:0:
36,192,76895,1,0,0:0:0:0:
109,192,76998,1,0,0:0:0:0:
256,192,77102,1,0,0:0:0:0:
402,192,77205,1,0,1:0:0:0:
36,192,77205,1,0,0:0:0:0:
329,192,77205,128,2,77412:0:0:0:0:
109,192,77309,1,0,0:0:0:0:
182,192,77412,128,2,77619:0:0:0:0:
256,192,77412,1,0,0:0:0:0:
402,192,77516,1,0,0:0:0:0:
475,192,77619,1,0,0:0:0:0:
36,192,77619,1,0,1:0:0:0:
109,192,77619,128,2,78240:0:0:0:0:
329,192,77723,1,0,0:0:0:0:
256,192,77826,1,0,0:0:0:0:
402,192,77929,1,0,0:0:0:0:
36,192,78033,1,0,1:0:0:0:
329,192,78033,1,0,0:0:0:0:
182,192,78136,1,0,0:0:0:0:
475,192,78240,1,0,0:0:0:0:
402,192,78240,128,2,78654:0:0:0:0:
329,192,78343,1,0,0:0:0:0:
36,192,78447,1,0,1:0:0:0:
256,192,78447,1,0,0:0:0:0:
475,192,78550,1,0,0:0:0:0:
329,192,78654,1,0,0:0:0:0:
182,192,78654,128,2,79274:0:0:0:0:
256,192,78757,1,0,0:0:0:0:
36,192,78860,1,0,1:0:0:0:
475,192,78860,1,0,0:0:0:0:
402,192,78964,1,0,0:0:0:0:
329,192,79067,1,0,0:0:0:0:
256,192,79171,1,0,0:0:0:0:
329,192,79274,128,2,80309:0:0:0:0:
402,192,79274,1,0,0:0:0:0:
109,192,79481,1,0,0:0:0:0:
256,192,79688,1,8,1:0:0:0:
402,192,79688,1,0,0:0:0:0:
109,192,79895,1,0,0:0:0:0:
402,192,80102,1,0,0:0:0:0:
109,192,80309,1,0,0:0:0:0:
256,192,80515,1,8,1:0:0:0:
402,192,80515,1,0,0:0:0:0:
109,192,80722,1,0,0:0:0:0:
475,192,80929,1,2,0:0:0:0:
256,192,80929,1,0,1:0:0:0:
109,192,80929,1,0,1:0:0:0:
475,192,81136,1,2,0:0:0:0:
36,192,81136,1,0,0:0:0:0:
402,192,81343,1,2,0:0:0:0:
109,192,81343,1,0,1:0:0:0:
182,192,81343,1,8,1:0:0:0:
402,192,81446,1,2,0:0:0:0:
36,192,81550,1,0,0:0:0:0:
402,192,81550,1,0,0:0:0:0:
402,192,81653,1,2,0:0:0:0:
329,192,81757,1,2,0:0:0:0:
256,192,81757,1,0,1:0:0:0:
109,192,81757,1,0,1:0:0:0:
329,192,81964,1,2,0:0:0:0:
36,192,81964,1,0,0:0:0:0:
329,192,82170,1,2,0:0:0:0:
109,192,82170,1,0,1:0:0:0:
182,192,82170,1,8,1:0:0:0:
329,192,82274,1,2,0:0:0:0:
329,192,82377,1,2,0:0:0:0:
36,192,82377,1,0,0:0:0:0:
329,192,82481,1,2,0:0:0:0:
475,192,82584,1,2,0:0:0:0:
256,192,82584,1,0,1:0:0:0:
109,192,82584,1,0,1:0:0:0:
475,192,82791,1,2,0:0:0:0:
36,192,82791,1,0,0:0:0:0:
402,192,82998,1,2,0:0:0:0:
109,192,82998,1,0,1:0:0:0:
182,192,82998,1,8,1:0:0:0:
402,192,83101,1,2,0:0:0:0:
36,192,83205,1,0,0:0:0:0:
402,192,83205,1,2,0:0:0:0:
402,192,83308,1,2,0:0:0:0:
329,192,83412,1,2,0:0:0:0:
256,192,83412,1,0,1:0:0:0:
109,192,83412,1,0,1:0:0:0:
329,192,83619,1,2,0:0:0:0:
36,192,83619,1,0,0:0:0:0:
329,192,83826,1,2,0:0:0:0:
109,192,83826,1,0,1:0:0:0:
182,192,83826,1,8,1:0:0:0:
329,192,83929,1,2,0:0:0:0:
329,192,84032,1,2,0:0:0:0:
36,192,84032,1,0,0:0:0:0:
329,192,84136,1,2,0:0:0:0:
36,192,84239,1,2,0:0:0:0:
256,192,84239,1,0,1:0:0:0:
402,192,84239,1,0,1:0:0:0:
36,192,84446,1,2,0:0:0:0:
475,192,84446,1,0,0:0:0:0:
109,192,84653,1,2,0:0:0:0:
402,192,84653,1,0,1:0:0:0:
329,192,84653,1,8,1:0:0:0:
109,192,84756,1,2,0:0:0:0:
475,192,84860,1,0,0:0:0:0:
109,192,84860,1,2,0:0:0:0:
109,192,84963,1,2,0:0:0:0:
182,192,85067,1,2,0:0:0:0:
256,192,85067,1,0,1:0:0:0:
402,192,85067,1,0,1:0:0:0:
475,192,85274,1,0,0:0:0:0:
182,192,85274,1,2,0:0:0:0:
329,192,85481,1,8,1:0:0:0:
182,192,85481,1,2,0:0:0:0:
402,192,85481,1,0,1:0:0:0:
182,192,85584,1,2,0:0:0:0:
475,192,85687,1,0,0:0:0:0:
182,192,85687,1,2,0:0:0:0:
182,192,85791,1,2,0:0:0:0:
256,192,85894,1,0,1:0:0:0:
36,192,85894,1,2,0:0:0:0:
402,192,85894,1,0,1:0:0:0:
36,192,86101,1,2,0:0:0:0:
475,192,86101,1,0,0:0:0:0:
109,192,86308,1,2,0:0:0:0:
329,192,86308,1,8,1:0:0:0:
402,192,86308,1,0,1:0:0:0:
109,192,86412,1,2,0:0:0:0:
475,192,86515,1,0,0:0:0:0:
109,192,86618,1,2,0:0:0:0:
256,192,86722,1,0,1:0:0:0:
182,192,86722,1,2,0:0:0:0:
402,192,86722,1,0,1:0:0:0:
182,192,86929,1,2,0:0:0:0:
475,192,86929,1,0,0:0:0:0:
182,192,87136,1,2,0:0:0:0:
329,192,87136,1,8,1:0:0:0:
402,192,87136,1,0,1:0:0:0:
182,192,87239,1,2,0:0:0:0:
475,192,87342,1,0,0:0:0:0:
182,192,87446,1,2,0:0:0:0:
256,192,87549,1,0,1:0:0:0:
475,192,87549,1,2,0:0:0:0:
109,192,87549,1,0,1:0:0:0:
36,192,87756,1,0,0:0:0:0:
475,192,87756,1,2,0:0:0:0:
182,192,87963,1,8,1:0:0:0:
109,192,87963,1,0,1:0:0:0:
402,192,87963,1,2,0:0:0:0:
402,192,88067,1,2,0:0:0:0:
36,192,88170,1,0,0:0:0:0:
402,192,88170,1,0,0:0:0:0:
402,192,88273,1,2,0:0:0:0:
329,192,88377,1,2,0:0:0:0:
256,192,88377,1,0,1:0:0:0:
109,192,88377,1,0,1:0:0:0:
36,192,88584,1,0,0:0:0:0:
329,192,88584,1,2,0:0:0:0:
182,192,88791,1,8,1:0:0:0:
109,192,88791,1,0,1:0:0:0:
329,192,88791,1,2,0:0:0:0:
329,192,88894,1,2,0:0:0:0:
36,192,88997,1,0,0:0:0:0:
329,192,88997,1,2,0:0:0:0:
329,192,89101,1,2,0:0:0:0:
475,192,89204,1,2,0:0:0:0:
256,192,89204,1,0,1:0:0:0:
109,192,89204,1,0,1:0:0:0:
36,192,89411,1,0,0:0:0:0:
475,192,89411,1,2,0:0:0:0:
182,192,89618,1,8,1:0:0:0:
402,192,89618,1,2,0:0:0:0:
109,192,89618,1,0,1:0:0:0:
402,192,89722,1,2,0:0:0:0:
36,192,89825,1,0,0:0:0:0:
402,192,89825,1,2,0:0:0:0:
402,192,89928,1,2,0:0:0:0:
256,192,90032,1,0,1:0:0:0:
329,192,90032,1,2,0:0:0:0:
109,192,90032,1,0,1:0:0:0:
36,192,90239,1,0,0:0:0:0:
329,192,90239,1,2,0:0:0:0:
109,192,90446,1,0,1:0:0:0:
182,192,90446,1,8,1:0:0:0:
329,192,90446,1,2,0:0:0:0:
329,192,90549,1,2,0:0:0:0:
329,192,90653,1,2,0:0:0:0:
36,192,90653,1,0,0:0:0:0:
329,192,90756,1,2,0:0:0:0:
256,192,90859,1,0,1:0:0:0:
36,192,90859,1,2,0:0:0:0:
402,192,90859,1,0,1:0:0:0:
36,192,91066,1,2,0:0:0:0:
475,192,91066,1,0,0:0:0:0:
402,192,91273,1,0,1:0:0:0:
329,192,91273,1,8,1:0:0:0:
109,192,91273,1,2,0:0:0:0:
109,192,91377,1,2,0:0:0:0:
475,192,91480,1,0,0:0:0:0:
109,192,91480,1,0,0:0:0:0:
109,192,91583,1,2,0:0:0:0:
256,192,91687,1,0,1:0:0:0:
182,192,91687,1,2,0:0:0:0:
402,192,91687,1,0,1:0:0:0:
475,192,91894,1,0,0:0:0:0:
182,192,91894,1,2,0:0:0:0:
402,192,92101,1,0,1:0:0:0:
329,192,92101,1,8,1:0:0:0:
182,192,92101,1,2,0:0:0:0:
182,192,92204,1,2,0:0:0:0:
475,192,92308,1,0,0:0:0:0:
182,192,92308,1,2,0:0:0:0:
182,192,92411,1,2,0:0:0:0:
256,192,92514,1,0,1:0:0:0:
36,192,92514,1,2,0:0:0:0:
402,192,92514,1,0,1:0:0:0:
36,192,92721,1,2,0:0:0:0:
475,192,92721,1,0,0:0:0:0:
402,192,92928,1,0,1:0:0:0:
109,192,92928,1,2,0:0:0:0:
329,192,92928,1,8,1:0:0:0:
109,192,93032,1,2,0:0:0:0:
475,192,93135,1,0,0:0:0:0:
109,192,93239,1,2,0:0:0:0:
182,192,93342,1,2,0:0:0:0:
256,192,93342,1,0,1:0:0:0:
402,192,93342,1,0,1:0:0:0:
475,192,93549,1,0,0:0:0:0:
182,192,93549,1,2,0:0:0:0:
402,192,93756,1,0,1:0:0:0:
329,192,93756,1,8,1:0:0:0:
182,192,93756,1,2,0:0:0:0:
256,192,93756,1,8,1:0:0:0:
182,192,93859,1,2,0:0:0:0:
256,192,93963,1,8,1:0:0:0:
402,192,93963,1,0,1:0:0:0:
182,192,94066,1,2,0:0:0:0:
329,192,94169,1,4,0:0:0:0:
256,192,94169,1,0,1:0:0:0:
475,192,94169,1,2,0:0:0:0:
109,192,94169,1,0,1:0:0:0:
36,192,94376,1,0,0:0:0:0:
475,192,94376,1,2,0:0:0:0:
256,192,94583,1,0,0:0:0:0:
402,192,94583,1,2,0:0:0:0:
109,192,94583,1,0,1:0:0:0:
182,192,94583,1,8,1:0:0:0:
402,192,94687,1,2,0:0:0:0:
36,192,94790,1,0,0:0:0:0:
402,192,94790,1,0,0:0:0:0:
402,192,94894,1,2,0:0:0:0:
109,192,94997,1,0,1:0:0:0:
256,192,94997,1,0,1:0:0:0:
329,192,94997,1,2,0:0:0:0:
36,192,95204,1,0,0:0:0:0:
329,192,95204,1,2,0:0:0:0:
109,192,95411,1,0,1:0:0:0:
182,192,95411,1,8,1:0:0:0:
329,192,95411,1,2,0:0:0:0:
256,192,95411,1,0,0:0:0:0:
329,192,95514,1,2,0:0:0:0:
36,192,95618,1,0,0:0:0:0:
329,192,95618,1,2,0:0:0:0:
329,192,95721,1,2,0:0:0:0:
475,192,95825,1,2,0:0:0:0:
256,192,95825,1,0,1:0:0:0:
109,192,95825,1,0,1:0:0:0:
36,192,96031,1,0,0:0:0:0:
475,192,96031,1,2,0:0:0:0:
256,192,96238,1,0,0:0:0:0:
402,192,96238,1,2,0:0:0:0:
109,192,96238,1,0,1:0:0:0:
182,192,96238,1,8,1:0:0:0:
402,192,96342,1,2,0:0:0:0:
402,192,96445,1,2,0:0:0:0:
36,192,96445,1,0,0:0:0:0:
402,192,96549,1,2,0:0:0:0:
109,192,96652,1,0,1:0:0:0:
329,192,96652,1,2,0:0:0:0:
256,192,96652,1,0,1:0:0:0:
36,192,96859,1,0,0:0:0:0:
329,192,96859,1,2,0:0:0:0:
256,192,97066,1,0,0:0:0:0:
329,192,97066,1,2,0:0:0:0:
109,192,97066,1,0,1:0:0:0:
182,192,97066,1,8,1:0:0:0:
329,192,97169,1,2,0:0:0:0:
329,192,97273,1,2,0:0:0:0:
36,192,97273,1,0,0:0:0:0:
329,192,97376,1,2,0:0:0:0:
256,192,97480,1,0,1:0:0:0:
36,192,97480,1,2,0:0:0:0:
402,192,97480,1,0,1:0:0:0:
475,192,97686,1,0,0:0:0:0:
36,192,97686,1,2,0:0:0:0:
256,192,97893,1,0,0:0:0:0:
329,192,97893,1,8,1:0:0:0:
109,192,97893,1,2,0:0:0:0:
402,192,97893,1,0,1:0:0:0:
109,192,97997,1,2,0:0:0:0:
475,192,98100,1,0,0:0:0:0:
109,192,98100,1,0,0:0:0:0:
109,192,98204,1,2,0:0:0:0:
182,192,98307,1,2,0:0:0:0:
256,192,98307,1,0,1:0:0:0:
402,192,98307,1,0,1:0:0:0:
475,192,98514,1,0,0:0:0:0:
182,192,98514,1,2,0:0:0:0:
256,192,98721,1,0,0:0:0:0:
182,192,98721,1,2,0:0:0:0:
329,192,98721,1,8,1:0:0:0:
402,192,98721,1,0,1:0:0:0:
182,192,98824,1,2,0:0:0:0:
475,192,98928,1,0,0:0:0:0:
182,192,98928,1,2,0:0:0:0:
182,192,99031,1,2,0:0:0:0:
36,192,99135,1,2,0:0:0:0:
256,192,99135,1,0,1:0:0:0:
402,192,99135,1,0,1:0:0:0:
475,192,99341,1,0,0:0:0:0:
36,192,99341,1,2,0:0:0:0:
256,192,99548,1,0,0:0:0:0:
109,192,99548,1,2,0:0:0:0:
329,192,99548,1,8,1:0:0:0:
402,192,99548,1,0,1:0:0:0:
109,192,99652,1,2,0:0:0:0:
475,192,99755,1,0,0:0:0:0:
109,192,99755,1,0,0:0:0:0:
109,192,99859,1,2,0:0:0:0:
182,192,99962,1,2,0:0:0:0:
402,192,99962,1,0,1:0:0:0:
256,192,99962,1,0,1:0:0:0:
182,192,100169,1,2,0:0:0:0:
475,192,100169,1,0,0:0:0:0:
256,192,100376,1,0,0:0:0:0:
182,192,100376,1,2,0:0:0:0:
402,192,100376,1,0,1:0:0:0:
329,192,100376,1,8,1:0:0:0:
182,192,100479,1,2,0:0:0:0:
475,192,100583,1,0,0:0:0:0:
182,192,100686,1,2,0:0:0:0:
475,192,100790,1,2,0:0:0:0:
109,192,100790,1,0,1:0:0:0:
256,192,100790,1,0,1:0:0:0:
475,192,100997,1,2,0:0:0:0:
36,192,100997,1,0,0:0:0:0:
256,192,101203,1,0,0:0:0:0:
182,192,101203,1,8,1:0:0:0:
109,192,101203,1,0,1:0:0:0:
402,192,101203,1,2,0:0:0:0:
402,192,101307,1,2,0:0:0:0:
36,192,101410,1,0,0:0:0:0:
402,192,101410,1,0,0:0:0:0:
402,192,101514,1,2,0:0:0:0:
329,192,101617,1,2,0:0:0:0:
109,192,101617,1,0,1:0:0:0:
256,192,101617,1,0,1:0:0:0:
329,192,101824,1,2,0:0:0:0:
36,192,101824,1,0,0:0:0:0:
329,192,102031,1,2,0:0:0:0:
109,192,102031,1,0,1:0:0:0:
182,192,102031,1,8,1:0:0:0:
256,192,102031,1,0,0:0:0:0:
329,192,102134,1,2,0:0:0:0:
329,192,102238,1,2,0:0:0:0:
36,192,102238,1,0,0:0:0:0:
329,192,102341,1,2,0:0:0:0:
256,192,102445,1,0,1:0:0:0:
475,192,102445,1,2,0:0:0:0:
109,192,102445,1,0,1:0:0:0:
36,192,102652,1,0,0:0:0:0:
475,192,102652,1,2,0:0:0:0:
256,192,102858,1,0,0:0:0:0:
402,192,102858,1,2,0:0:0:0:
109,192,102858,1,0,1:0:0:0:
182,192,102858,1,8,1:0:0:0:
402,192,102962,1,2,0:0:0:0:
402,192,103065,1,2,0:0:0:0:
36,192,103065,1,0,0:0:0:0:
402,192,103169,1,2,0:0:0:0:
109,192,103272,1,0,1:0:0:0:
256,192,103272,1,0,1:0:0:0:
329,192,103272,1,2,0:0:0:0:
329,192,103479,1,2,0:0:0:0:
36,192,103479,1,0,0:0:0:0:
256,192,103686,1,0,0:0:0:0:
182,192,103686,1,8,1:0:0:0:
109,192,103686,1,0,1:0:0:0:
329,192,103686,1,2,0:0:0:0:
329,192,103789,1,2,0:0:0:0:
329,192,103893,1,2,0:0:0:0:
36,192,103893,1,0,0:0:0:0:
329,192,103996,1,2,0:0:0:0:
402,192,104100,1,0,1:0:0:0:
36,192,104100,1,2,0:0:0:0:
256,192,104100,1,0,1:0:0:0:
36,192,104307,1,2,0:0:0:0:
475,192,104307,1,0,0:0:0:0:
256,192,104513,1,0,0:0:0:0:
329,192,104513,1,8,0:0:0:0:
402,192,104513,1,0,1:0:0:0:
109,192,104513,1,2,0:0:0:0:
109,192,104617,1,2,0:0:0:0:
475,192,104720,1,0,0:0:0:0:
109,192,104720,1,0,0:0:0:0:
109,192,104824,1,2,0:0:0:0:
402,192,104927,1,0,1:0:0:0:
256,192,104927,1,0,1:0:0:0:
182,192,104927,1,2,0:0:0:0:
182,192,105134,1,2,0:0:0:0:
475,192,105134,1,0,0:0:0:0:
256,192,105341,1,0,0:0:0:0:
329,192,105341,1,8,0:0:0:0:
182,192,105341,1,2,0:0:0:0:
402,192,105341,1,0,1:0:0:0:
182,192,105444,1,2,0:0:0:0:
182,192,105548,1,2,0:0:0:0:
475,192,105548,1,0,0:0:0:0:
182,192,105651,1,2,0:0:0:0:
36,192,105755,1,2,0:0:0:0:
36,192,105962,1,2,0:0:0:0:
475,192,105962,1,0,0:0:0:0:
256,192,106168,1,8,1:0:0:0:
109,192,106168,1,2,0:0:0:0:
329,192,106168,1,0,0:0:0:0:
109,192,106272,1,2,0:0:0:0:
475,192,106375,1,0,0:0:0:0:
109,192,106479,1,2,0:0:0:0:
182,192,106582,1,2,0:0:0:0:
329,192,106686,1,0,0:0:0:0:
256,192,106686,1,8,1:0:0:0:
182,192,106789,1,2,0:0:0:0:
475,192,106789,1,0,0:0:0:0:
256,192,106996,1,8,1:0:0:0:
329,192,106996,1,0,0:0:0:0:
182,192,106996,1,2,0:0:0:0:
182,192,107099,1,2,0:0:0:0:
475,192,107203,1,0,0:0:0:0:
182,192,107306,1,2,0:0:0:0:
256,192,107410,128,0,114030:0:0:0:0:
109,192,107410,1,4,0:0:0:0:
402,192,107410,1,4,0:0:0:0:
329,192,107410,1,0,0:0:0:0:
182,192,107617,1,0,0:0:0:0:
329,192,107824,1,0,0:0:0:0:
475,192,107824,1,8,0:0:0:0:
36,192,107824,1,8,0:0:0:0:
182,192,108030,1,0,0:0:0:0:
329,192,108237,1,0,0:0:0:0:
182,192,108444,1,0,0:0:0:0:
329,192,108651,1,0,0:0:0:0:
475,192,108651,1,8,0:0:0:0:
36,192,108651,1,8,0:0:0:0:
182,192,108858,1,0,0:0:0:0:
329,192,109065,1,0,0:0:0:0:
182,192,109272,1,0,0:0:0:0:
329,192,109479,1,0,0:0:0:0:
475,192,109479,1,8,0:0:0:0:
36,192,109479,1,8,0:0:0:0:
182,192,109685,1,0,0:0:0:0:
329,192,109892,1,0,0:0:0:0:
182,192,110099,1,0,0:0:0:0:
329,192,110306,1,0,0:0:0:0:
475,192,110306,1,8,0:0:0:0:
36,192,110306,1,8,0:0:0:0:
182,192,110513,1,0,0:0:0:0:
109,192,110720,1,0,0:0:0:0:
329,192,110720,1,4,0:0:0:0:
402,192,110927,1,0,0:0:0:0:
109,192,111134,1,0,0:0:0:0:
36,192,111134,1,8,0:0:0:0:
475,192,111134,1,8,0:0:0:0:
402,192,111340,1,0,0:0:0:0:
109,192,111547,1,0,0:0:0:0:
402,192,111754,1,0,0:0:0:0:
109,192,111961,1,0,0:0:0:0:
475,192,111961,1,8,0:0:0:0:
36,192,111961,1,8,0:0:0:0:
402,192,112168,1,0,0:0:0:0:
109,192,112375,1,0,0:0:0:0:
402,192,112582,1,0,0:0:0:0:
109,192,112789,1,0,0:0:0:0:
475,192,112789,1,8,0:0:0:0:
36,192,112789,1,8,0:0:0:0:
402,192,112996,1,0,0:0:0:0:
109,192,113202,1,0,0:0:0:0:
402,192,113409,1,0,0:0:0:0:
109,192,113616,1,0,0:0:0:0:
36,192,113616,1,8,0:0:0:0:
475,192,113616,1,8,0:0:0:0:
402,192,113823,1,0,0:0:0:0:
329,192,114030,1,0,0:0:0:0:
109,192,114030,1,4,0:0:0:0:
182,192,114237,1,0,0:0:0:0:
329,192,114444,1,0,0:0:0:0:
36,192,114444,1,8,0:0:0:0:
475,192,114444,1,8,0:0:0:0:
182,192,114651,1,0,0:0:0:0:
329,192,114857,1,0,0:0:0:0:
182,192,115064,1,0,0:0:0:0:
329,192,115271,1,0,0:0:0:0:
475,192,115271,1,8,0:0:0:0:
36,192,115271,1,8,0:0:0:0:
182,192,115478,1,0,0:0:0:0:
402,192,115685,1,0,0:0:0:0:
256,192,115685,1,4,0:0:0:0:
109,192,115892,1,0,0:0:0:0:
402,192,116099,1,0,0:0:0:0:
329,192,116099,1,8,0:0:0:0:
182,192,116099,1,8,0:0:0:0:
109,192,116306,1,0,0:0:0:0:
402,192,116512,1,0,0:0:0:0:
109,192,116719,1,0,0:0:0:0:
402,192,116926,1,0,0:0:0:0:
329,192,116926,1,8,0:0:0:0:
182,192,116926,1,8,0:0:0:0:
109,192,117133,1,0,0:0:0:0:
475,192,117340,1,0,0:0:0:0:
256,192,117340,1,4,0:0:0:0:
36,192,117547,1,0,0:0:0:0:
475,192,117754,1,0,0:0:0:0:
329,192,117754,1,8,0:0:0:0:
182,192,117754,1,8,0:0:0:0:
36,192,117961,1,0,0:0:0:0:
475,192,118167,1,0,0:0:0:0:
256,192,118167,1,4,0:0:0:0:
36,192,118374,1,0,0:0:0:0:
475,192,118581,1,0,0:0:0:0:
329,192,118581,1,8,0:0:0:0:
182,192,118581,1,8,0:0:0:0:
36,192,118788,1,0,0:0:0:0:
402,192,118995,1,0,0:0:0:0:
256,192,118995,1,2,0:0:0:0:
109,192,119202,1,0,0:0:0:0:
402,192,119409,1,0,0:0:0:0:
329,192,119409,1,8,0:0:0:0:
182,192,119409,1,8,0:0:0:0:
109,192,119616,5,0,0:0:0:0:
402,192,119823,1,0,0:0:0:0:
109,192,120029,1,0,0:0:0:0:
402,192,120236,1,0,0:0:0:0:
329,192,120236,1,8,0:0:0:0:
182,192,120236,1,8,0:0:0:0:
109,192,120443,1,0,0:0:0:0:
182,192,120650,128,0,122305:0:0:0:0:
329,192,120650,128,0,122305:0:0:0:0:
256,192,120650,1,2,0:0:0:0:
36,192,122305,128,0,122719:0:0:0:0:
182,192,122512,128,0,122926:0:0:0:0:
329,192,122719,128,0,123133:0:0:0:0:
36,192,122926,128,0,123339:0:0:0:0:
182,192,123133,128,0,123546:0:0:0:0:
329,192,123339,128,0,123753:0:0:0:0:
36,192,123546,128,0,123960:0:0:0:0:
182,192,123753,128,0,123960:0:0:0:0:
329,192,123857,128,0,123960:0:0:0:0:
109,192,123960,128,0,124374:0:0:0:0:
256,192,124167,128,0,124581:0:0:0:0:
402,192,124374,128,0,124788:0:0:0:0:
109,192,124581,128,0,124995:0:0:0:0:
256,192,124788,128,0,125201:0:0:0:0:
402,192,124995,128,0,125408:0:0:0:0:
109,192,125201,128,0,125615:0:0:0:0:
256,192,125408,128,0,125615:0:0:0:0:
402,192,125512,128,0,125615:0:0:0:0:
182,192,125615,128,0,126029:0:0:0:0:
329,192,125822,128,0,126236:0:0:0:0:
475,192,126029,128,0,126443:0:0:0:0:
182,192,126236,128,0,126650:0:0:0:0:
329,192,126443,128,0,126856:0:0:0:0:
475,192,126650,128,0,127063:0:0:0:0:
182,192,126856,128,0,127270:0:0:0:0:
329,192,127063,128,0,127270:0:0:0:0:
475,192,127167,128,0,127270:0:0:0:0:
109,192,127270,128,0,127684:0:0:0:0:
256,192,127477,128,0,127891:0:0:0:0:
402,192,127684,128,0,128098:0:0:0:0:
109,192,127891,128,0,128305:0:0:0:0:
256,192,128098,128,0,128718:0:0:0:0:
402,192,128305,128,0,128511:0:0:0:0:
109,192,128511,128,0,128925:0:0:0:0:
402,192,128718,128,0,128925:0:0:0:0:
256,192,128822,128,0,128925:0:0:0:0:
475,192,128925,128,0,129339:0:0:0:0:
329,192,129132,128,0,129546:0:0:0:0:
182,192,129339,128,0,129753:0:0:0:0:
475,192,129546,128,0,129960:0:0:0:0:
329,192,129753,128,0,130167:0:0:0:0:
182,192,129960,128,0,130373:0:0:0:0:
475,192,130167,128,0,130580:0:0:0:0:
329,192,130373,128,0,130580:0:0:0:0:
182,192,130477,128,0,130580:0:0:0:0:
402,192,130580,128,0,130994:0:0:0:0:
256,192,130787,128,0,131201:0:0:0:0:
109,192,130994,128,0,131408:0:0:0:0:
402,192,131201,128,0,131615:0:0:0:0:
256,192,131408,128,0,131822:0:0:0:0:
109,192,131615,128,0,132028:0:0:0:0:
402,192,131822,128,0,132235:0:0:0:0:
256,192,132028,128,0,132235:0:0:0:0:
109,192,132132,128,0,132235:0:0:0:0:
329,192,132235,128,0,132649:0:0:0:0:
182,192,132442,128,0,132856:0:0:0:0:
36,192,132649,128,0,133063:0:0:0:0:
329,192,132856,128,0,133270:0:0:0:0:
182,192,133063,128,0,133477:0:0:0:0:
36,192,133270,128,0,133683:0:0:0:0:
329,192,133477,128,0,133890:0:0:0:0:
182,192,133683,128,0,133890:0:0:0:0:
36,192,133787,128,0,133890:0:0:0:0:
402,192,133890,128,0,134304:0:0:0:0:
256,192,134097,128,0,134511:0:0:0:0:
109,192,134304,128,0,134718:0:0:0:0:
402,192,134511,128,0,134925:0:0:0:0:
256,192,134718,128,0,135338:0:0:0:0:
109,192,134925,128,0,135132:0:0:0:0:
402,192,135132,128,0,135545:0:0:0:0:
109,192,135338,128,0,135545:0:0:0:0:
256,192,135442,128,0,135545:0:0:0:0:
182,192,135545,128,0,135959:0:0:0:0:
36,192,135752,128,0,136166:0:0:0:0:
329,192,135959,128,0,136373:0:0:0:0:
182,192,136166,128,0,136580:0:0:0:0:
36,192,136373,128,0,136787:0:0:0:0:
329,192,136580,128,0,136994:0:0:0:0:
182,192,136787,128,0,137200:0:0:0:0:
36,192,136994,128,0,137200:0:0:0:0:
329,192,137097,128,0,137200:0:0:0:0:
256,192,137200,128,0,137614:0:0:0:0:
109,192,137407,128,0,137821:0:0:0:0:
402,192,137614,128,0,138028:0:0:0:0:
256,192,137821,128,0,138235:0:0:0:0:
109,192,138028,128,0,138442:0:0:0:0:
402,192,138235,128,0,138649:0:0:0:0:
256,192,138442,128,0,138855:0:0:0:0:
109,192,138649,128,0,138855:0:0:0:0:
402,192,138752,128,0,138855:0:0:0:0:
329,192,138855,128,0,139269:0:0:0:0:
182,192,139062,128,0,139476:0:0:0:0:
475,192,139269,128,0,139683:0:0:0:0:
329,192,139476,128,0,139890:0:0:0:0:
182,192,139683,128,0,140097:0:0:0:0:
475,192,139890,128,0,140304:0:0:0:0:
329,192,140097,128,0,140510:0:0:0:0:
182,192,140304,128,0,140510:0:0:0:0:
475,192,140407,128,0,140510:0:0:0:0:
256,192,140510,128,0,140924:0:0:0:0:
109,192,140717,128,0,141131:0:0:0:0:
402,192,140924,128,0,141338:0:0:0:0:
256,192,141131,128,0,141545:0:0:0:0:
109,192,141338,128,0,141959:0:0:0:0:
402,192,141545,128,0,141752:0:0:0:0:
256,192,141752,128,0,142166:0:0:0:0:
402,192,141959,128,0,142166:0:0:0:0:
109,192,142062,128,0,142166:0:0:0:0:
329,192,142166,128,0,142579:0:0:0:0:
475,192,142372,128,0,142786:0:0:0:0:
182,192,142579,128,0,142993:0:0:0:0:
329,192,142786,128,0,143200:0:0:0:0:
475,192,142993,128,0,143407:0:0:0:0:
182,192,143200,128,0,143614:0:0:0:0:
329,192,143407,128,0,143821:0:0:0:0:
475,192,143614,128,0,143821:0:0:0:0:
182,192,143717,128,0,143821:0:0:0:0:
256,192,143821,128,0,144234:0:0:0:0:
402,192,144027,128,0,144441:0:0:0:0:
109,192,144234,128,0,144648:0:0:0:0:
256,192,144441,128,0,144855:0:0:0:0:
402,192,144648,128,0,145062:0:0:0:0:
109,192,144855,128,0,145269:0:0:0:0:
256,192,145062,128,0,145476:0:0:0:0:
402,192,145269,128,0,145476:0:0:0:0:
109,192,145372,128,0,145476:0:0:0:0:
182,192,145476,128,0,145889:0:0:0:0:
329,192,145682,128,0,146096:0:0:0:0:
36,192,145889,128,0,146303:0:0:0:0:
182,192,146096,128,0,146510:0:0:0:0:
329,192,146303,128,0,146717:0:0:0:0:
36,192,146510,128,0,146924:0:0:0:0:
182,192,146717,128,0,147131:0:0:0:0:
329,192,146924,128,0,147131:0:0:0:0:
36,192,147027,128,0,147131:0:0:0:0:
256,192,147131,128,0,147544:0:0:0:0:
402,192,147337,128,0,147751:0:0:0:0:
109,192,147544,128,0,147958:0:0:0:0:
256,192,147751,128,0,148165:0:0:0:0:
402,192,147958,128,0,148579:0:0:0:0:
109,192,148165,128,0,148372:0:0:0:0:
256,192,148372,128,0,148786:0:0:0:0:
109,192,148579,128,0,148786:0:0:0:0:
402,192,148682,128,0,148786:0:0:0:0:
182,192,148786,128,0,155406:0:0:0:0:
329,192,148786,128,0,155406:0:0:0:0:
475,192,148786,1,2,0:0:0:0:
36,192,148993,128,2,149199:0:0:0:0:
256,192,149199,1,0,1:0:0:0:
475,192,149199,128,2,149406:0:0:0:0:
256,192,149613,1,0,1:0:0:0:
36,192,149613,128,2,149820:0:0:0:0:
475,192,149820,128,2,150027:0:0:0:0:
256,192,150027,1,0,1:0:0:0:
36,192,150234,1,2,0:0:0:0:
475,192,150337,1,2,0:0:0:0:
256,192,150441,1,0,1:0:0:0:
109,192,150648,128,2,150854:0:0:0:0:
256,192,150854,1,0,1:0:0:0:
402,192,150854,128,2,151061:0:0:0:0:
256,192,151268,1,0,1:0:0:0:
109,192,151268,128,2,151475:0:0:0:0:
402,192,151475,128,2,151682:0:0:0:0:
256,192,151682,1,0,1:0:0:0:
109,192,151889,1,2,0:0:0:0:
402,192,151992,1,2,0:0:0:0:
256,192,152096,1,0,1:0:0:0:
36,192,152303,128,2,152509:0:0:0:0:
256,192,152509,1,0,1:0:0:0:
475,192,152509,128,2,152716:0:0:0:0:
256,192,152923,1,0,1:0:0:0:
36,192,152923,128,2,153130:0:0:0:0:
475,192,153130,128,2,153337:0:0:0:0:
256,192,153337,1,0,1:0:0:0:
36,192,153544,1,2,0:0:0:0:
475,192,153647,1,2,0:0:0:0:
256,192,153751,1,0,1:0:0:0:
109,192,153958,128,2,154165:0:0:0:0:
256,192,154165,1,0,1:0:0:0:
402,192,154165,128,2,154371:0:0:0:0:
256,192,154578,1,0,1:0:0:0:
109,192,154578,128,2,154785:0:0:0:0:
402,192,154785,128,2,154992:0:0:0:0:
256,192,154992,1,0,1:0:0:0:
402,192,155199,1,2,0:0:0:0:
109,192,155302,1,2,0:0:0:0:
256,192,155406,1,0,1:0:0:0:
36,192,155613,128,2,155820:0:0:0:0:
256,192,155820,1,0,1:0:0:0:
475,192,155820,128,2,156026:0:0:0:0:
256,192,156233,1,0,1:0:0:0:
36,192,156233,128,2,156440:0:0:0:0:
475,192,156440,128,2,156647:0:0:0:0:
256,192,156647,1,0,1:0:0:0:
36,192,156854,1,2,0:0:0:0:
475,192,156957,1,2,0:0:0:0:
256,192,157061,1,0,1:0:0:0:
109,192,157268,128,2,157475:0:0:0:0:
402,192,157475,128,2,157681:0:0:0:0:
256,192,157475,1,0,1:0:0:0:
109,192,157888,128,2,158095:0:0:0:0:
256,192,157888,1,0,1:0:0:0:
402,192,158095,128,2,158302:0:0:0:0:
256,192,158302,1,0,1:0:0:0:
109,192,158509,1,2,0:0:0:0:
402,192,158612,1,2,0:0:0:0:
256,192,158716,1,0,1:0:0:0:
36,192,158923,128,2,159130:0:0:0:0:
256,192,159130,1,0,1:0:0:0:
475,192,159130,128,2,159337:0:0:0:0:
256,192,159543,1,0,1:0:0:0:
36,192,159543,128,2,159750:0:0:0:0:
475,192,159750,128,2,159957:0:0:0:0:
256,192,159957,1,0,1:0:0:0:
36,192,160164,1,2,0:0:0:0:
475,192,160267,1,2,0:0:0:0:
256,192,160371,1,0,1:0:0:0:
182,192,160578,1,2,0:0:0:0:
256,192,160785,1,0,1:0:0:0:
329,192,160785,1,2,0:0:0:0:
256,192,161198,1,0,1:0:0:0:
182,192,161198,1,2,0:0:0:0:
329,192,161405,1,2,0:0:0:0:
256,192,161612,1,0,1:0:0:0:
329,192,161819,1,2,0:0:0:0:
182,192,161922,1,2,0:0:0:0:
256,192,162026,1,0,1:0:0:0:
36,192,162026,1,4,0:0:0:0:
475,192,162026,1,4,0:0:0:0:
109,192,162233,1,2,0:0:0:0:
256,192,162440,1,0,1:0:0:0:
402,192,162440,1,2,0:0:0:0:
256,192,162853,1,0,1:0:0:0:
109,192,162853,1,2,0:0:0:0:
402,192,163060,1,2,0:0:0:0:
256,192,163267,1,0,1:0:0:0:
109,192,163474,1,2,0:0:0:0:
402,192,163578,1,2,0:0:0:0:
256,192,163681,1,0,1:0:0:0:
182,192,163888,1,2,0:0:0:0:
256,192,164095,1,0,1:0:0:0:
329,192,164095,1,2,0:0:0:0:
256,192,164508,1,0,1:0:0:0:
182,192,164508,1,2,0:0:0:0:
329,192,164715,1,2,0:0:0:0:
256,192,164922,1,0,1:0:0:0:
182,192,165129,1,2,0:0:0:0:
329,192,165233,1,2,0:0:0:0:
256,192,165336,1,0,1:0:0:0:
36,192,165336,1,4,0:0:0:0:
475,192,165336,1,4,0:0:0:0:
109,192,165543,1,2,0:0:0:0:
256,192,165750,1,0,1:0:0:0:
402,192,165750,1,2,0:0:0:0:
256,192,166164,1,0,1:0:0:0:
109,192,166164,1,2,0:0:0:0:
402,192,166370,1,2,0:0:0:0:
256,192,166577,1,0,1:0:0:0:
109,192,166784,1,2,0:0:0:0:
402,192,166888,1,2,0:0:0:0:
256,192,166991,1,0,1:0:0:0:
182,192,167198,1,2,0:0:0:0:
256,192,167405,1,0,1:0:0:0:
329,192,167405,1,2,0:0:0:0:
256,192,167819,1,0,1:0:0:0:
182,192,167819,1,2,0:0:0:0:
329,192,168025,1,2,0:0:0:0:
256,192,168232,1,0,1:0:0:0:
182,192,168439,1,2,0:0:0:0:
329,192,168543,1,2,0:0:0:0:
256,192,168646,1,0,1:0:0:0:
36,192,168646,1,4,0:0:0:0:
475,192,168646,1,4,0:0:0:0:
256,192,168853,1,0,1:0:0:0:
109,192,168853,1,2,0:0:0:0:
256,192,169060,1,0,1:0:0:0:
402,192,169060,1,2,0:0:0:0:
256,192,169267,1,0,1:0:0:0:
256,192,169474,1,0,1:0:0:0:
256,192,169680,1,0,1:0:0:0:
109,192,169680,1,2,0:0:0:0:
256,192,169887,1,0,1:0:0:0:
402,192,169887,1,2,0:0:0:0:
256,192,170094,1,0,1:0:0:0:
256,192,170301,1,0,1:0:0:0:
36,192,170301,1,4,0:0:0:0:
475,192,170301,1,4,0:0:0:0:
256,192,170508,1,0,1:0:0:0:
109,192,170508,1,2,0:0:0:0:
256,192,170715,1,0,1:0:0:0:
402,192,170715,1,2,0:0:0:0:
256,192,170922,1,0,1:0:0:0:
256,192,171129,1,0,1:0:0:0:
256,192,171336,1,0,1:0:0:0:
109,192,171336,1,2,0:0:0:0:
256,192,171542,1,0,1:0:0:0:
402,192,171542,1,2,0:0:0:0:
256,192,171749,1,0,1:0:0:0:
182,192,171956,1,0,0:0:0:0:
36,192,171956,1,2,0:0:0:0:
109,192,171956,1,2,0:0:0:0:
256,192,171956,1,0,1:0:0:0:
329,192,172060,1,0,0:0:0:0:
182,192,172163,1,0,0:0:0:0:
402,192,172163,1,2,0:0:0:0:
475,192,172163,1,0,0:0:0:0:
329,192,172266,1,0,0:0:0:0:
182,192,172370,1,0,0:0:0:0:
109,192,172370,1,2,0:0:0:0:
36,192,172370,1,2,0:0:0:0:
329,192,172473,1,0,0:0:0:0:
182,192,172577,1,0,0:0:0:0:
402,192,172577,1,2,0:0:0:0:
475,192,172577,1,0,0:0:0:0:
329,192,172680,1,0,0:0:0:0:
182,192,172784,1,0,0:0:0:0:
109,192,172784,1,2,0:0:0:0:
36,192,172784,1,2,0:0:0:0:
256,192,172784,1,0,0:0:0:0:
329,192,172887,1,0,0:0:0:0:
402,192,172887,1,2,0:0:0:0:
475,192,172887,1,0,0:0:0:0:
182,192,172991,1,0,0:0:0:0:
109,192,172991,1,2,0:0:0:0:
36,192,172991,1,2,0:0:0:0:
329,192,173094,1,0,0:0:0:0:
402,192,173094,1,2,0:0:0:0:
475,192,173094,1,0,0:0:0:0:
182,192,173197,1,0,0:0:0:0:
109,192,173197,1,2,0:0:0:0:
36,192,173197,1,2,0:0:0:0:
329,192,173301,1,0,0:0:0:0:
402,192,173301,1,2,0:0:0:0:
475,192,173301,1,0,0:0:0:0:
182,192,173404,1,0,0:0:0:0:
109,192,173404,1,2,0:0:0:0:
36,192,173404,1,2,0:0:0:0:
329,192,173508,1,0,0:0:0:0:
402,192,173508,1,2,0:0:0:0:
475,192,173508,1,0,0:0:0:0:
256,192,173611,1,2,0:0:0:0:
36,192,173611,1,0,1:0:0:0:
109,192,173663,1,0,1:0:0:0:
329,192,173663,1,2,0:0:0:0:
182,192,173715,1,0,1:0:0:0:
402,192,173715,1,2,0:0:0:0:
256,192,173766,1,0,1:0:0:0:
475,192,173766,1,2,0:0:0:0:
329,192,173818,1,0,1:0:0:0:
109,192,173818,1,2,0:0:0:0:
402,192,173870,1,0,1:0:0:0:
182,192,173870,1,2,0:0:0:0:
475,192,173922,1,0,1:0:0:0:
256,192,173922,1,2,0:0:0:0:
329,192,173973,1,2,0:0:0:0:
36,192,173973,1,0,1:0:0:0:
402,192,174025,1,2,0:0:0:0:
109,192,174025,1,0,1:0:0:0:
182,192,174077,1,0,1:0:0:0:
475,192,174077,1,2,0:0:0:0:
256,192,174128,1,0,1:0:0:0:
36,192,174128,1,2,0:0:0:0:
329,192,174180,1,0,1:0:0:0:
109,192,174180,1,2,0:0:0:0:
402,192,174232,1,0,1:0:0:0:
182,192,174232,1,2,0:0:0:0:
475,192,174284,1,0,1:0:0:0:
256,192,174284,1,2,0:0:0:0:
329,192,174335,1,2,0:0:0:0:
109,192,174335,1,0,1:0:0:0:
182,192,174387,1,0,1:0:0:0:
402,192,174387,1,2,0:0:0:0:
256,192,174439,1,0,1:0:0:0:
475,192,174439,1,2,0:0:0:0:
329,192,174490,1,0,1:0:0:0:
36,192,174490,1,2,0:0:0:0:
109,192,174542,1,2,0:0:0:0:
402,192,174542,1,0,1:0:0:0:
182,192,174594,1,2,0:0:0:0:
475,192,174594,1,0,1:0:0:0:
256,192,174646,1,2,0:0:0:0:
36,192,174646,1,0,1:0:0:0:
329,192,174697,1,2,0:0:0:0:
109,192,174697,1,0,1:0:0:0:
402,192,174749,1,2,0:0:0:0:
182,192,174749,1,0,1:0:0:0:
475,192,174801,1,2,0:0:0:0:
256,192,174801,1,0,1:0:0:0:
329,192,174852,1,0,1:0:0:0:
36,192,174852,1,0,1:0:0:0:
109,192,174956,1,0,0:0:0:0:
402,192,174956,1,0,0:0:0:0:
182,192,175059,1,0,0:0:0:0:
475,192,175059,1,0,0:0:0:0:
402,192,175163,1,0,0:0:0:0:
109,192,175163,1,0,0:0:0:0:
256,192,175266,1,4,0:0:0:0:
329,192,175266,128,0,176921:0:0:0:0:
475,192,175266,128,0,176921:0:0:0:0:
182,192,175266,128,0,176921:0:0:0:0:
36,192,175266,128,0,176921:0:0:0:0:
256,192,176921,1,0,1:0:0:0:
109,192,176921,1,2,0:0:0:0:
402,192,176921,1,4,0:0:0:0:
182,192,177025,1,2,0:0:0:0:
402,192,177128,1,0,0:0:0:0:
36,192,177128,1,2,0:0:0:0:
182,192,177232,1,2,0:0:0:0:
475,192,177335,1,8,1:0:0:0:
109,192,177335,1,2,0:0:0:0:
329,192,177335,1,0,1:0:0:0:
182,192,177438,1,2,0:0:0:0:
36,192,177542,1,2,0:0:0:0:
402,192,177542,1,0,0:0:0:0:
182,192,177645,1,2,0:0:0:0:
109,192,177749,1,2,0:0:0:0:
329,192,177749,1,0,1:0:0:0:
256,192,177749,1,0,1:0:0:0:
36,192,177852,1,2,0:0:0:0:
402,192,177956,1,0,0:0:0:0:
182,192,177956,1,2,0:0:0:0:
36,192,178059,1,2,0:0:0:0:
182,192,178163,1,2,0:0:0:0:
475,192,178163,1,8,1:0:0:0:
329,192,178163,1,0,1:0:0:0:
109,192,178266,1,2,0:0:0:0:
182,192,178369,1,2,0:0:0:0:
402,192,178369,1,0,0:0:0:0:
109,192,178473,1,2,0:0:0:0:
475,192,178473,1,0,0:0:0:0:
182,192,178576,1,0,1:0:0:0:
402,192,178576,1,2,0:0:0:0:
256,192,178576,1,0,1:0:0:0:
329,192,178680,1,2,0:0:0:0:
109,192,178783,1,0,0:0:0:0:
475,192,178783,1,2,0:0:0:0:
329,192,178887,1,2,0:0:0:0:
36,192,178990,1,8,1:0:0:0:
402,192,178990,1,2,0:0:0:0:
182,192,178990,1,0,1:0:0:0:
329,192,179093,1,2,0:0:0:0:
109,192,179197,1,0,0:0:0:0:
475,192,179197,1,2,0:0:0:0:
329,192,179300,1,2,0:0:0:0:
256,192,179404,1,0,1:0:0:0:
402,192,179404,1,2,0:0:0:0:
182,192,179404,1,0,1:0:0:0:
475,192,179507,1,2,0:0:0:0:
329,192,179611,1,2,0:0:0:0:
109,192,179611,1,0,0:0:0:0:
475,192,179714,1,2,0:0:0:0:
329,192,179818,1,2,0:0:0:0:
182,192,179818,1,0,1:0:0:0:
36,192,179818,1,8,1:0:0:0:
402,192,179921,1,2,0:0:0:0:
329,192,180024,1,2,0:0:0:0:
109,192,180024,1,0,0:0:0:0:
402,192,180128,1,2,0:0:0:0:
36,192,180128,1,0,0:0:0:0:
109,192,180231,1,2,0:0:0:0:
329,192,180231,1,0,1:0:0:0:
256,192,180231,1,0,1:0:0:0:
182,192,180335,1,2,0:0:0:0:
36,192,180438,1,2,0:0:0:0:
402,192,180438,1,0,0:0:0:0:
182,192,180542,1,2,0:0:0:0:
109,192,180645,1,2,0:0:0:0:
475,192,180645,1,8,1:0:0:0:
329,192,180645,1,0,1:0:0:0:
182,192,180749,1,2,0:0:0:0:
36,192,180852,1,2,0:0:0:0:
402,192,180852,1,0,0:0:0:0:
182,192,180955,1,2,0:0:0:0:
329,192,181059,1,0,1:0:0:0:
109,192,181059,1,2,0:0:0:0:
256,192,181059,1,0,1:0:0:0:
36,192,181162,1,2,0:0:0:0:
182,192,181266,1,2,0:0:0:0:
402,192,181266,1,0,0:0:0:0:
36,192,181369,1,2,0:0:0:0:
475,192,181473,1,8,1:0:0:0:
329,192,181473,1,0,1:0:0:0:
182,192,181473,1,2,0:0:0:0:
109,192,181576,1,2,0:0:0:0:
402,192,181679,1,0,0:0:0:0:
182,192,181679,1,2,0:0:0:0:
109,192,181783,1,2,0:0:0:0:
475,192,181783,1,0,0:0:0:0:
402,192,181886,1,2,0:0:0:0:
182,192,181886,1,0,1:0:0:0:
256,192,181886,1,0,1:0:0:0:
329,192,181990,1,2,0:0:0:0:
475,192,182093,1,2,0:0:0:0:
109,192,182093,1,0,0:0:0:0:
329,192,182197,1,2,0:0:0:0:
402,192,182300,1,2,0:0:0:0:
182,192,182300,1,0,1:0:0:0:
36,192,182300,1,8,1:0:0:0:
329,192,182404,1,2,0:0:0:0:
109,192,182507,1,0,0:0:0:0:
475,192,182507,1,2,0:0:0:0:
329,192,182610,1,2,0:0:0:0:
182,192,182714,1,0,1:0:0:0:
256,192,182714,1,0,1:0:0:0:
402,192,182714,1,2,0:0:0:0:
475,192,182817,1,2,0:0:0:0:
329,192,182921,1,2,0:0:0:0:
109,192,182921,1,0,0:0:0:0:
475,192,183024,1,2,0:0:0:0:
182,192,183128,1,0,1:0:0:0:
36,192,183128,1,8,1:0:0:0:
329,192,183128,1,2,0:0:0:0:
402,192,183231,1,2,0:0:0:0:
109,192,183335,1,0,0:0:0:0:
329,192,183335,1,2,0:0:0:0:
36,192,183438,1,0,0:0:0:0:
402,192,183438,1,2,0:0:0:0:
475,192,183541,1,0,1:0:0:0:
182,192,183541,1,2,0:0:0:0:
256,192,183541,1,0,1:0:0:0:
109,192,183645,1,2,0:0:0:0:
402,192,183748,1,0,0:0:0:0:
36,192,183748,1,2,0:0:0:0:
109,192,183852,1,2,0:0:0:0:
36,192,183955,1,2,0:0:0:0:
475,192,183955,1,0,1:0:0:0:
329,192,183955,1,8,1:0:0:0:
182,192,184059,1,2,0:0:0:0:
402,192,184162,1,0,0:0:0:0:
36,192,184162,1,2,0:0:0:0:
182,192,184265,1,2,0:0:0:0:
256,192,184369,1,0,1:0:0:0:
109,192,184369,1,2,0:0:0:0:
475,192,184369,1,0,1:0:0:0:
182,192,184472,1,2,0:0:0:0:
402,192,184576,1,0,0:0:0:0:
109,192,184576,1,2,0:0:0:0:
36,192,184679,1,2,0:0:0:0:
475,192,184783,1,0,1:0:0:0:
182,192,184783,1,2,0:0:0:0:
329,192,184783,1,8,1:0:0:0:
109,192,184886,1,2,0:0:0:0:
36,192,184990,1,2,0:0:0:0:
402,192,184990,1,0,0:0:0:0:
182,192,185093,1,2,0:0:0:0:
475,192,185093,1,0,0:0:0:0:
329,192,185196,1,2,0:0:0:0:
36,192,185196,1,0,1:0:0:0:
256,192,185196,1,0,1:0:0:0:
402,192,185300,1,2,0:0:0:0:
475,192,185403,1,2,0:0:0:0:
109,192,185403,1,0,0:0:0:0:
402,192,185507,1,2,0:0:0:0:
475,192,185610,1,2,0:0:0:0:
36,192,185610,1,0,1:0:0:0:
182,192,185610,1,8,1:0:0:0:
329,192,185714,1,2,0:0:0:0:
475,192,185817,1,2,0:0:0:0:
109,192,185817,1,0,0:0:0:0:
329,192,185921,1,2,0:0:0:0:
36,192,186024,1,0,1:0:0:0:
256,192,186024,1,0,1:0:0:0:
402,192,186024,1,2,0:0:0:0:
329,192,186127,1,2,0:0:0:0:
109,192,186231,1,0,0:0:0:0:
402,192,186231,1,2,0:0:0:0:
475,192,186334,1,2,0:0:0:0:
36,192,186438,1,0,1:0:0:0:
182,192,186438,1,8,1:0:0:0:
329,192,186438,1,2,0:0:0:0:
402,192,186541,1,2,0:0:0:0:
109,192,186645,1,0,0:0:0:0:
475,192,186645,1,2,0:0:0:0:
329,192,186748,1,2,0:0:0:0:
36,192,186748,1,0,0:0:0:0:
182,192,186851,1,2,0:0:0:0:
256,192,186851,1,0,1:0:0:0:
475,192,186851,1,0,1:0:0:0:
109,192,186955,1,2,0:0:0:0:
402,192,187058,1,0,0:0:0:0:
36,192,187058,1,2,0:0:0:0:
109,192,187162,1,2,0:0:0:0:
329,192,187265,1,8,1:0:0:0:
36,192,187265,1,2,0:0:0:0:
475,192,187265,1,0,1:0:0:0:
182,192,187369,1,2,0:0:0:0:
402,192,187472,1,0,0:0:0:0:
36,192,187472,1,2,0:0:0:0:
182,192,187576,1,2,0:0:0:0:
475,192,187679,1,0,1:0:0:0:
256,192,187679,1,0,1:0:0:0:
109,192,187679,1,2,0:0:0:0:
182,192,187782,1,2,0:0:0:0:
109,192,187886,1,2,0:0:0:0:
402,192,187886,1,0,0:0:0:0:
36,192,187989,1,2,0:0:0:0:
475,192,188093,1,0,1:0:0:0:
329,192,188093,1,8,1:0:0:0:
182,192,188093,1,2,0:0:0:0:
109,192,188196,1,2,0:0:0:0:
36,192,188300,1,2,0:0:0:0:
402,192,188300,1,0,0:0:0:0:
182,192,188403,1,2,0:0:0:0:
475,192,188403,1,0,0:0:0:0:
329,192,188507,1,2,0:0:0:0:
256,192,188507,1,0,1:0:0:0:
36,192,188507,1,0,1:0:0:0:
402,192,188610,1,2,0:0:0:0:
475,192,188713,1,2,0:0:0:0:
109,192,188713,1,0,0:0:0:0:
402,192,188817,1,2,0:0:0:0:
36,192,188920,1,0,1:0:0:0:
182,192,188920,1,8,1:0:0:0:
475,192,188920,1,2,0:0:0:0:
329,192,189024,1,2,0:0:0:0:
109,192,189127,1,0,0:0:0:0:
475,192,189127,1,2,0:0:0:0:
329,192,189231,1,2,0:0:0:0:
402,192,189334,1,2,0:0:0:0:
36,192,189334,1,0,1:0:0:0:
256,192,189334,1,0,1:0:0:0:
329,192,189437,1,2,0:0:0:0:
109,192,189541,1,0,0:0:0:0:
402,192,189541,1,2,0:0:0:0:
475,192,189644,1,2,0:0:0:0:
36,192,189748,1,0,1:0:0:0:
182,192,189748,1,8,1:0:0:0:
329,192,189748,1,2,0:0:0:0:
402,192,189851,1,2,0:0:0:0:
182,192,189955,1,8,1:0:0:0:
109,192,189955,1,0,0:0:0:0:
475,192,189955,1,2,0:0:0:0:
329,192,190058,1,2,0:0:0:0:
36,192,190162,1,2,0:0:0:0:
109,192,190162,1,4,0:0:0:0:
402,192,190162,1,0,1:0:0:0:
256,192,190162,1,0,1:0:0:0:
182,192,190265,1,2,0:0:0:0:
329,192,190368,1,0,0:0:0:0:
36,192,190368,1,2,0:0:0:0:
182,192,190472,1,2,0:0:0:0:
109,192,190575,1,2,0:0:0:0:
402,192,190575,1,0,1:0:0:0:
475,192,190575,1,8,1:0:0:0:
182,192,190679,1,2,0:0:0:0:
329,192,190782,1,0,0:0:0:0:
36,192,190782,1,2,0:0:0:0:
109,192,190886,1,2,0:0:0:0:
36,192,190989,1,2,0:0:0:0:
402,192,190989,1,0,1:0:0:0:
256,192,190989,1,0,1:0:0:0:
109,192,191092,1,2,0:0:0:0:
329,192,191196,1,0,0:0:0:0:
182,192,191196,1,2,0:0:0:0:
36,192,191299,1,2,0:0:0:0:
182,192,191403,1,2,0:0:0:0:
475,192,191403,1,8,1:0:0:0:
402,192,191403,1,0,1:0:0:0:
36,192,191506,1,2,0:0:0:0:
109,192,191610,1,2,0:0:0:0:
329,192,191610,1,0,0:0:0:0:
402,192,191713,1,0,0:0:0:0:
182,192,191713,1,2,0:0:0:0:
256,192,191817,1,0,1:0:0:0:
475,192,191817,1,2,0:0:0:0:
109,192,191817,1,0,1:0:0:0:
329,192,191920,1,2,0:0:0:0:
182,192,192023,1,0,0:0:0:0:
475,192,192023,1,2,0:0:0:0:
329,192,192127,1,2,0:0:0:0:
402,192,192230,1,2,0:0:0:0:
36,192,192230,1,8,1:0:0:0:
109,192,192230,1,0,1:0:0:0:
329,192,192334,1,2,0:0:0:0:
182,192,192437,1,0,0:0:0:0:
475,192,192437,1,2,0:0:0:0:
402,192,192541,1,2,0:0:0:0:
475,192,192644,1,2,0:0:0:0:
256,192,192644,1,0,1:0:0:0:
109,192,192644,1,0,1:0:0:0:
402,192,192748,1,2,0:0:0:0:
182,192,192851,1,0,0:0:0:0:
329,192,192851,1,2,0:0:0:0:
475,192,192954,1,2,0:0:0:0:
329,192,193058,1,2,0:0:0:0:
109,192,193058,1,0,1:0:0:0:
36,192,193058,1,8,1:0:0:0:
475,192,193161,1,2,0:0:0:0:
182,192,193265,1,0,0:0:0:0:
402,192,193265,1,2,0:0:0:0:
109,192,193368,1,0,0:0:0:0:
329,192,193368,1,2,0:0:0:0:
402,192,193472,1,0,1:0:0:0:
256,192,193472,1,0,1:0:0:0:
36,192,193472,1,2,0:0:0:0:
182,192,193575,1,2,0:0:0:0:
36,192,193678,1,2,0:0:0:0:
329,192,193678,1,0,0:0:0:0:
182,192,193782,1,2,0:0:0:0:
475,192,193885,1,8,1:0:0:0:
402,192,193885,1,0,1:0:0:0:
109,192,193885,1,2,0:0:0:0:
182,192,193989,1,2,0:0:0:0:
329,192,194092,1,0,0:0:0:0:
36,192,194092,1,2,0:0:0:0:
109,192,194196,1,2,0:0:0:0:
36,192,194299,1,2,0:0:0:0:
402,192,194299,1,0,1:0:0:0:
256,192,194299,1,0,1:0:0:0:
109,192,194403,1,2,0:0:0:0:
329,192,194506,1,0,0:0:0:0:
182,192,194506,1,2,0:0:0:0:
36,192,194609,1,2,0:0:0:0:
402,192,194713,1,0,1:0:0:0:
475,192,194713,1,8,1:0:0:0:
182,192,194713,1,2,0:0:0:0:
36,192,194816,1,2,0:0:0:0:
109,192,194920,1,2,0:0:0:0:
329,192,194920,1,0,0:0:0:0:
182,192,195023,1,2,0:0:0:0:
402,192,195023,1,0,0:0:0:0:
475,192,195127,1,2,0:0:0:0:
109,192,195127,1,0,1:0:0:0:
256,192,195127,1,0,1:0:0:0:
329,192,195230,1,2,0:0:0:0:
475,192,195334,1,2,0:0:0:0:
182,192,195334,1,0,0:0:0:0:
329,192,195437,1,2,0:0:0:0:
402,192,195540,1,2,0:0:0:0:
109,192,195540,1,0,1:0:0:0:
36,192,195540,1,8,1:0:0:0:
329,192,195644,1,2,0:0:0:0:
475,192,195747,1,2,0:0:0:0:
182,192,195747,1,0,0:0:0:0:
402,192,195851,1,2,0:0:0:0:
256,192,195954,1,0,1:0:0:0:
475,192,195954,1,2,0:0:0:0:
109,192,195954,1,0,1:0:0:0:
402,192,196058,1,2,0:0:0:0:
329,192,196161,1,2,0:0:0:0:
182,192,196161,1,0,0:0:0:0:
475,192,196264,1,2,0:0:0:0:
36,192,196368,1,8,1:0:0:0:
109,192,196368,1,0,1:0:0:0:
329,192,196368,1,2,0:0:0:0:
475,192,196471,1,2,0:0:0:0:
402,192,196575,1,2,0:0:0:0:
182,192,196575,1,0,0:0:0:0:
109,192,196678,1,0,0:0:0:0:
329,192,196678,1,2,0:0:0:0:
402,192,196782,1,0,1:0:0:0:
182,192,196782,1,2,0:0:0:0:
475,192,196782,1,0,1:0:0:0:
36,192,196885,1,2,0:0:0:0:
182,192,196989,1,2,0:0:0:0:
329,192,196989,1,0,0:0:0:0:
36,192,197092,1,2,0:0:0:0:
182,192,197195,1,2,0:0:0:0:
475,192,197195,1,0,1:0:0:0:
256,192,197195,1,8,0:0:0:0:
109,192,197299,1,2,0:0:0:0:
329,192,197402,1,0,0:0:0:0:
182,192,197402,1,2,0:0:0:0:
109,192,197506,1,2,0:0:0:0:
36,192,197609,1,2,0:0:0:0:
402,192,197609,1,0,1:0:0:0:
475,192,197609,1,0,1:0:0:0:
182,192,197713,1,2,0:0:0:0:
329,192,197816,1,0,0:0:0:0:
36,192,197816,1,2,0:0:0:0:
182,192,197920,1,2,0:0:0:0:
256,192,198023,1,8,0:0:0:0:
475,192,198023,1,0,1:0:0:0:
36,192,198023,1,2,0:0:0:0:
109,192,198126,1,2,0:0:0:0:
36,192,198230,1,2,0:0:0:0:
329,192,198230,1,0,0:0:0:0:
402,192,198333,1,0,0:0:0:0:
182,192,198333,1,2,0:0:0:0:
36,192,198437,1,0,1:0:0:0:
109,192,198437,1,0,1:0:0:0:
329,192,198437,1,2,0:0:0:0:
475,192,198540,1,2,0:0:0:0:
182,192,198644,1,0,0:0:0:0:
329,192,198644,1,2,0:0:0:0:
475,192,198747,1,2,0:0:0:0:
329,192,198850,1,2,0:0:0:0:
256,192,198850,1,8,1:0:0:0:
36,192,198850,1,0,1:0:0:0:
402,192,198954,1,2,0:0:0:0:
182,192,199057,1,0,0:0:0:0:
329,192,199057,1,2,0:0:0:0:
402,192,199161,1,2,0:0:0:0:
36,192,199264,1,0,1:0:0:0:
109,192,199264,1,0,1:0:0:0:
475,192,199264,1,2,0:0:0:0:
329,192,199368,1,2,0:0:0:0:
475,192,199471,1,2,0:0:0:0:
182,192,199471,1,0,0:0:0:0:
329,192,199575,1,2,0:0:0:0:
475,192,199678,1,2,0:0:0:0:
36,192,199678,1,0,1:0:0:0:
256,192,199678,1,8,1:0:0:0:
402,192,199781,1,2,0:0:0:0:
475,192,199885,1,2,0:0:0:0:
182,192,199885,1,0,0:0:0:0:
109,192,199988,1,0,0:0:0:0:
329,192,199988,1,2,0:0:0:0:
475,192,200092,1,0,1:0:0:0:
402,192,200092,1,0,1:0:0:0:
182,192,200092,1,2,0:0:0:0:
36,192,200195,1,2,0:0:0:0:
329,192,200299,1,0,0:0:0:0:
182,192,200299,1,2,0:0:0:0:
36,192,200402,1,2,0:0:0:0:
256,192,200506,1,8,1:0:0:0:
475,192,200506,1,0,1:0:0:0:
182,192,200506,1,2,0:0:0:0:
109,192,200609,1,2,0:0:0:0:
329,192,200712,1,0,0:0:0:0:
182,192,200712,1,2,0:0:0:0:
109,192,200816,1,2,0:0:0:0:
402,192,200919,1,0,1:0:0:0:
36,192,200919,1,2,0:0:0:0:
475,192,200919,1,0,1:0:0:0:
182,192,201023,1,2,0:0:0:0:
36,192,201126,1,2,0:0:0:0:
329,192,201126,1,0,0:0:0:0:
182,192,201230,1,2,0:0:0:0:
475,192,201333,1,0,1:0:0:0:
36,192,201333,1,2,0:0:0:0:
256,192,201333,1,8,1:0:0:0:
109,192,201436,1,2,0:0:0:0:
329,192,201540,1,0,0:0:0:0:
36,192,201540,1,2,0:0:0:0:
402,192,201643,1,0,0:0:0:0:
182,192,201643,1,2,0:0:0:0:
36,192,201747,1,0,0:0:0:0:
329,192,201954,1,2,0:0:0:0:
182,192,201954,1,0,0:0:0:0:
36,192,202161,1,0,0:0:0:0:
475,192,202161,1,2,0:0:0:0:
182,192,202367,1,0,0:0:0:0:
36,192,202574,1,0,0:0:0:0:
329,192,202574,1,2,0:0:0:0:
475,192,202781,1,2,0:0:0:0:
182,192,202781,1,0,0:0:0:0:
36,192,202988,1,0,0:0:0:0:
182,192,203195,1,0,0:0:0:0:
475,192,203195,1,2,0:0:0:0:
329,192,203298,1,2,0:0:0:0:
36,192,203402,1,0,1:0:0:0:
256,192,203402,1,0,0:0:0:0:
475,192,203402,1,0,0:0:0:0:
182,192,203402,128,2,203609:0:0:0:0:
402,192,203505,1,0,0:0:0:0:
475,192,203609,1,0,0:0:0:0:
329,192,203609,128,2,203712:0:0:0:0:
182,192,203712,128,2,203816:0:0:0:0:
109,192,203712,1,0,0:0:0:0:
36,192,203816,1,0,1:0:0:0:
329,192,203816,128,2,204022:0:0:0:0:
256,192,203816,1,0,0:0:0:0:
475,192,203919,1,0,0:0:0:0:
182,192,204022,128,2,204229:0:0:0:0:
109,192,204022,1,0,0:0:0:0:
402,192,204126,1,0,0:0:0:0:
475,192,204229,1,0,0:0:0:0:
36,192,204229,1,0,1:0:0:0:
329,192,204229,128,2,204643:0:0:0:0:
182,192,204333,1,0,0:0:0:0:
256,192,204436,1,0,0:0:0:0:
475,192,204540,1,0,0:0:0:0:
36,192,204643,1,0,1:0:0:0:
109,192,204643,1,0,0:0:0:0:
402,192,204643,128,2,205057:0:0:0:0:
182,192,204747,1,0,0:0:0:0:
256,192,204850,1,0,0:0:0:0:
329,192,204953,1,0,0:0:0:0:
109,192,205057,128,2,206091:0:0:0:0:
256,192,205057,1,0,0:0:0:0:
475,192,205057,1,0,1:0:0:0:
182,192,205160,1,0,0:0:0:0:
36,192,205264,1,0,0:0:0:0:
402,192,205367,1,0,0:0:0:0:
256,192,205471,1,0,0:0:0:0:
475,192,205471,1,0,1:0:0:0:
182,192,205574,1,0,0:0:0:0:
329,192,205677,1,0,0:0:0:0:
256,192,205781,1,0,0:0:0:0:
36,192,205884,1,0,0:0:0:0:
475,192,205884,1,0,1:0:0:0:
402,192,205988,1,0,0:0:0:0:
182,192,206091,128,2,206298:0:0:0:0:
256,192,206091,1,0,0:0:0:0:
36,192,206195,1,0,0:0:0:0:
256,192,206298,1,0,0:0:0:0:
329,192,206298,128,2,206505:0:0:0:0:
475,192,206298,1,0,1:0:0:0:
182,192,206402,1,0,0:0:0:0:
109,192,206505,1,0,0:0:0:0:
402,192,206505,128,2,206712:0:0:0:0:
36,192,206608,1,0,0:0:0:0:
475,192,206712,128,2,206919:0:0:0:0:
182,192,206712,1,0,0:0:0:0:
109,192,206712,1,0,1:0:0:0:
256,192,206815,1,0,0:0:0:0:
402,192,206919,1,0,0:0:0:0:
36,192,206919,128,2,207333:0:0:0:0:
182,192,207022,1,0,0:0:0:0:
329,192,207126,1,0,0:0:0:0:
109,192,207126,1,0,1:0:0:0:
402,192,207229,1,0,0:0:0:0:
256,192,207333,1,0,0:0:0:0:
475,192,207333,128,2,207953:0:0:0:0:
329,192,207436,1,0,0:0:0:0:
402,192,207539,1,0,0:0:0:0:
109,192,207539,1,0,1:0:0:0:
36,192,207643,1,0,0:0:0:0:
182,192,207746,1,0,0:0:0:0:
256,192,207850,1,0,0:0:0:0:
36,192,207953,1,0,0:0:0:0:
109,192,207953,1,0,1:0:0:0:
329,192,207953,128,2,208160:0:0:0:0:
256,192,208057,1,0,0:0:0:0:
402,192,208160,1,0,0:0:0:0:
182,192,208160,128,2,208574:0:0:0:0:
475,192,208263,1,0,0:0:0:0:
329,192,208367,1,0,1:0:0:0:
402,192,208367,1,0,0:0:0:0:
109,192,208470,1,0,0:0:0:0:
36,192,208574,1,0,0:0:0:0:
475,192,208574,128,2,208781:0:0:0:0:
256,192,208677,1,0,0:0:0:0:
182,192,208781,1,0,0:0:0:0:
329,192,208781,1,0,1:0:0:0:
402,192,208781,128,2,208988:0:0:0:0:
36,192,208884,1,0,0:0:0:0:
109,192,208988,128,2,209194:0:0:0:0:
475,192,208988,1,0,0:0:0:0:
402,192,209091,1,0,0:0:0:0:
329,192,209194,1,0,1:0:0:0:
182,192,209194,1,0,0:0:0:0:
36,192,209194,128,2,210022:0:0:0:0:
475,192,209298,1,0,0:0:0:0:
256,192,209401,1,0,0:0:0:0:
109,192,209505,1,0,0:0:0:0:
475,192,209608,1,0,0:0:0:0:
329,192,209608,1,0,1:0:0:0:
402,192,209712,1,0,0:0:0:0:
256,192,209815,1,0,0:0:0:0:
182,192,209919,1,0,0:0:0:0:
329,192,210022,1,0,0:0:0:0:
475,192,210022,1,0,1:0:0:0:
109,192,210022,128,2,210229:0:0:0:0:
256,192,210125,1,0,0:0:0:0:
36,192,210229,1,0,0:0:0:0:
402,192,210229,128,2,210332:0:0:0:0:
109,192,210332,128,2,210436:0:0:0:0:
329,192,210332,1,0,0:0:0:0:
182,192,210436,1,0,0:0:0:0:
402,192,210436,128,2,210643:0:0:0:0:
475,192,210436,1,0,1:0:0:0:
36,192,210539,1,0,0:0:0:0:
329,192,210643,1,0,0:0:0:0:
109,192,210643,128,2,210849:0:0:0:0:
256,192,210746,1,0,0:0:0:0:
475,192,210849,1,0,1:0:0:0:
182,192,210849,1,0,0:0:0:0:
402,192,210849,128,2,211263:0:0:0:0:
329,192,210953,1,0,0:0:0:0:
256,192,211056,1,0,0:0:0:0:
109,192,211160,1,0,0:0:0:0:
475,192,211263,1,0,1:0:0:0:
329,192,211263,1,0,0:0:0:0:
36,192,211263,128,2,211677:0:0:0:0:
256,192,211367,1,0,0:0:0:0:
182,192,211470,1,0,0:0:0:0:
109,192,211574,1,0,0:0:0:0:
182,192,211677,1,0,0:0:0:0:
475,192,211677,128,2,212711:0:0:0:0:
402,192,211677,1,0,1:0:0:0:
256,192,211780,1,0,0:0:0:0:
329,192,211884,1,0,0:0:0:0:
109,192,211987,1,0,0:0:0:0:
256,192,212091,1,0,0:0:0:0:
402,192,212091,1,0,1:0:0:0:
329,192,212194,1,0,0:0:0:0:
36,192,212298,1,0,0:0:0:0:
182,192,212401,1,0,0:0:0:0:
402,192,212505,1,0,1:0:0:0:
256,192,212505,1,0,0:0:0:0:
36,192,212608,1,0,0:0:0:0:
329,192,212711,128,2,212918:0:0:0:0:
109,192,212711,1,0,0:0:0:0:
256,192,212815,1,0,0:0:0:0:
182,192,212918,128,2,213125:0:0:0:0:
36,192,212918,1,0,0:0:0:0:
402,192,212918,1,0,1:0:0:0:
109,192,213022,1,0,0:0:0:0:
329,192,213125,128,2,213332:0:0:0:0:
256,192,213125,1,0,0:0:0:0:
402,192,213229,1,0,0:0:0:0:
475,192,213332,1,0,0:0:0:0:
182,192,213332,128,2,213642:0:0:0:0:
36,192,213332,1,0,1:0:0:0:
329,192,213435,1,0,0:0:0:0:
256,192,213539,1,0,0:0:0:0:
109,192,213642,128,2,213953:0:0:0:0:
402,192,213642,1,0,0:0:0:0:
329,192,213746,1,0,0:0:0:0:
36,192,213746,1,0,1:0:0:0:
182,192,213849,1,0,0:0:0:0:
402,192,213953,128,2,214160:0:0:0:0:
475,192,213953,1,0,0:0:0:0:
329,192,214056,1,0,0:0:0:0:
109,192,214160,128,2,214470:0:0:0:0:
36,192,214160,1,0,1:0:0:0:
256,192,214160,1,0,0:0:0:0:
475,192,214263,1,0,0:0:0:0:
329,192,214366,1,0,0:0:0:0:
182,192,214470,128,2,214780:0:0:0:0:
256,192,214470,1,0,0:0:0:0:
36,192,214573,1,0,1:0:0:0:
402,192,214573,1,0,0:0:0:0:
329,192,214677,1,0,0:0:0:0:
256,192,214780,1,0,0:0:0:0:
402,192,214780,128,2,214987:0:0:0:0:
182,192,214884,1,0,0:0:0:0:
329,192,214987,128,2,216021:0:0:0:0:
256,192,214987,1,0,0:0:0:0:
109,192,214987,1,0,1:0:0:0:
402,192,215091,1,0,0:0:0:0:
475,192,215194,1,0,0:0:0:0:
182,192,215297,1,0,0:0:0:0:
109,192,215401,1,0,1:0:0:0:
256,192,215401,1,0,0:0:0:0:
475,192,215504,1,0,0:0:0:0:
182,192,215608,1,0,0:0:0:0:
402,192,215711,1,0,0:0:0:0:
475,192,215815,1,0,0:0:0:0:
109,192,215815,1,0,1:0:0:0:
256,192,215918,1,0,0:0:0:0:
182,192,216021,128,2,216228:0:0:0:0:
402,192,216021,1,0,0:0:0:0:
475,192,216125,1,0,0:0:0:0:
256,192,216228,128,2,216435:0:0:0:0:
36,192,216228,1,0,0:0:0:0:
402,192,216228,1,0,1:0:0:0:
109,192,216332,1,0,0:0:0:0:
402,192,216435,1,0,1:0:0:0:
329,192,216435,128,2,216642:0:0:0:0:
182,192,216435,1,0,0:0:0:0:
256,192,216539,1,0,0:0:0:0:
182,192,216642,128,2,216849:0:0:0:0:
475,192,216642,1,0,0:0:0:0:
109,192,216642,1,0,0:0:0:0:
36,192,216642,1,0,1:0:0:0:
402,192,216746,1,0,0:0:0:0:
329,192,216849,128,2,216952:0:0:0:0:
475,192,216849,1,0,0:0:0:0:
109,192,216952,1,0,0:0:0:0:
182,192,216952,128,2,217056:0:0:0:0:
329,192,217056,128,2,217263:0:0:0:0:
36,192,217056,1,0,1:0:0:0:
256,192,217056,1,0,0:0:0:0:
475,192,217159,1,0,0:0:0:0:
109,192,217263,1,0,0:0:0:0:
182,192,217263,128,2,217470:0:0:0:0:
402,192,217366,1,0,0:0:0:0:
475,192,217470,1,0,0:0:0:0:
36,192,217470,1,0,1:0:0:0:
329,192,217470,128,2,217883:0:0:0:0:
182,192,217573,1,0,0:0:0:0:
256,192,217677,1,0,0:0:0:0:
475,192,217780,1,0,0:0:0:0:
36,192,217883,1,0,1:0:0:0:
402,192,217883,128,2,218297:0:0:0:0:
109,192,217883,1,0,0:0:0:0:
182,192,217987,1,0,0:0:0:0:
256,192,218090,1,0,0:0:0:0:
329,192,218194,1,0,0:0:0:0:
256,192,218297,1,0,0:0:0:0:
109,192,218297,128,2,219332:0:0:0:0:
475,192,218297,1,0,1:0:0:0:
182,192,218401,1,0,0:0:0:0:
36,192,218504,1,0,0:0:0:0:
402,192,218607,1,0,0:0:0:0:
256,192,218711,1,0,0:0:0:0:
475,192,218711,1,0,1:0:0:0:
182,192,218814,1,0,0:0:0:0:
329,192,218918,1,0,0:0:0:0:
256,192,219021,1,0,0:0:0:0:
475,192,219125,1,0,1:0:0:0:
36,192,219125,1,0,0:0:0:0:
402,192,219228,1,0,0:0:0:0:
256,192,219332,1,0,0:0:0:0:
182,192,219332,128,2,219538:0:0:0:0:
36,192,219435,1,0,0:0:0:0:
329,192,219538,128,2,219745:0:0:0:0:
256,192,219538,1,0,0:0:0:0:
475,192,219538,1,0,1:0:0:0:
182,192,219642,1,0,0:0:0:0:
109,192,219745,1,0,0:0:0:0:
402,192,219745,128,2,219952:0:0:0:0:
36,192,219849,1,0,0:0:0:0:
109,192,219952,1,0,1:0:0:0:
475,192,219952,128,2,220159:0:0:0:0:
182,192,219952,1,0,0:0:0:0:
256,192,220056,1,0,0:0:0:0:
402,192,220159,1,0,0:0:0:0:
36,192,220159,128,2,220573:0:0:0:0:
182,192,220262,1,0,0:0:0:0:
109,192,220366,1,0,1:0:0:0:
329,192,220366,1,0,0:0:0:0:
402,192,220469,1,0,0:0:0:0:
475,192,220573,128,2,221193:0:0:0:0:
256,192,220573,1,0,0:0:0:0:
329,192,220676,1,0,0:0:0:0:
402,192,220780,1,0,0:0:0:0:
109,192,220780,1,0,1:0:0:0:
36,192,220883,1,0,0:0:0:0:
182,192,220987,1,0,0:0:0:0:
256,192,221090,1,0,0:0:0:0:
329,192,221193,128,2,221400:0:0:0:0:
109,192,221193,1,0,1:0:0:0:
36,192,221193,1,0,0:0:0:0:
256,192,221297,1,0,0:0:0:0:
402,192,221400,1,0,0:0:0:0:
182,192,221400,128,2,221814:0:0:0:0:
475,192,221504,1,0,0:0:0:0:
329,192,221607,1,0,1:0:0:0:
402,192,221607,1,0,0:0:0:0:
109,192,221711,1,0,0:0:0:0:
36,192,221814,1,0,0:0:0:0:
475,192,221814,128,2,222021:0:0:0:0:
256,192,221918,1,0,0:0:0:0:
182,192,222021,1,0,0:0:0:0:
402,192,222021,128,2,222228:0:0:0:0:
329,192,222021,1,0,1:0:0:0:
36,192,222124,1,0,0:0:0:0:
475,192,222228,1,0,0:0:0:0:
109,192,222228,128,2,222435:0:0:0:0:
402,192,222331,1,0,0:0:0:0:
36,192,222435,128,2,223262:0:0:0:0:
329,192,222435,1,0,1:0:0:0:
182,192,222435,1,0,0:0:0:0:
475,192,222538,1,0,0:0:0:0:
256,192,222642,1,0,0:0:0:0:
109,192,222745,1,0,0:0:0:0:
475,192,222848,1,0,0:0:0:0:
329,192,222848,1,0,1:0:0:0:
402,192,222952,1,0,0:0:0:0:
256,192,223055,1,0,0:0:0:0:
182,192,223159,1,0,0:0:0:0:
475,192,223262,1,0,0:0:0:0:
109,192,223262,128,2,223469:0:0:0:0:
329,192,223262,1,0,1:0:0:0:
256,192,223366,1,0,0:0:0:0:
402,192,223469,128,2,223573:0:0:0:0:
36,192,223469,1,0,0:0:0:0:
329,192,223573,1,0,0:0:0:0:
109,192,223573,128,2,223676:0:0:0:0:
182,192,223676,1,0,0:0:0:0:
402,192,223676,128,2,223883:0:0:0:0:
36,192,223779,1,0,0:0:0:0:
109,192,223883,128,2,224090:0:0:0:0:
475,192,223883,1,0,0:0:0:0:
256,192,223986,1,0,0:0:0:0:
402,192,224090,128,2,224504:0:0:0:0:
182,192,224090,1,0,0:0:0:0:
329,192,224193,1,0,0:0:0:0:
256,192,224297,1,0,0:0:0:0:
109,192,224400,1,0,0:0:0:0:
329,192,224504,1,0,0:0:0:0:
36,192,224504,128,2,224917:0:0:0:0:
256,192,224607,1,0,0:0:0:0:
182,192,224710,1,0,0:0:0:0:
109,192,224814,1,0,0:0:0:0:
475,192,224917,128,2,226159:0:0:0:0:
182,192,224917,1,0,0:0:0:0:
402,192,224917,1,0,1:0:0:0:
329,192,224917,1,0,0:0:0:0:
256,192,225021,1,0,0:0:0:0:
329,192,225124,1,0,0:0:0:0:
109,192,225228,1,0,0:0:0:0:
256,192,225331,1,0,0:0:0:0:
329,192,225434,1,0,0:0:0:0:
36,192,225538,1,0,0:0:0:0:
182,192,225641,1,0,0:0:0:0:
256,192,225745,1,0,0:0:0:0:
36,192,225848,1,0,0:0:0:0:
109,192,225952,1,0,0:0:0:0:
256,192,226055,1,0,0:0:0:0:
329,192,226159,128,2,226365:0:0:0:0:
36,192,226159,1,0,0:0:0:0:
109,192,226262,1,0,0:0:0:0:
256,192,226365,1,0,0:0:0:0:
182,192,226365,128,2,226572:0:0:0:0:
402,192,226469,1,0,0:0:0:0:
475,192,226572,1,0,0:0:0:0:
109,192,226572,128,2,227193:0:0:0:0:
256,192,226572,1,4,0:0:0:0:
36,192,226572,1,0,1:0:0:0:
329,192,226676,1,0,0:0:0:0:
256,192,226779,1,0,0:0:0:0:
402,192,226883,1,0,0:0:0:0:
329,192,226986,1,0,0:0:0:0:
182,192,227090,1,0,0:0:0:0:
475,192,227193,1,0,0:0:0:0:
402,192,227193,128,2,227607:0:0:0:0:
329,192,227296,1,0,0:0:0:0:
256,192,227400,1,0,0:0:0:0:
36,192,227400,1,0,1:0:0:0:
109,192,227400,1,4,0:0:0:0:
475,192,227503,1,0,0:0:0:0:
329,192,227607,1,0,0:0:0:0:
182,192,227607,128,2,228227:0:0:0:0:
256,192,227710,1,0,0:0:0:0:
475,192,227814,1,0,0:0:0:0:
402,192,227917,1,0,0:0:0:0:
329,192,228020,1,0,0:0:0:0:
256,192,228124,1,0,0:0:0:0:
329,192,228227,128,2,229262:0:0:0:0:
475,192,228227,1,4,0:0:0:0:
402,192,228227,1,0,1:0:0:0:
109,192,228227,1,0,0:0:0:0:
182,192,228331,1,0,0:0:0:0:
402,192,228434,1,0,0:0:0:0:
109,192,228538,1,0,0:0:0:0:
36,192,228641,1,0,0:0:0:0:
256,192,228641,1,0,0:0:0:0:
475,192,228745,1,0,0:0:0:0:
182,192,228848,1,0,0:0:0:0:
402,192,228951,1,0,0:0:0:0:
475,192,229055,1,0,0:0:0:0:
109,192,229158,1,0,0:0:0:0:
182,192,229262,1,0,0:0:0:0:
402,192,229365,1,0,0:0:0:0:
36,192,229469,1,0,0:0:0:0:
182,192,229469,1,0,0:0:0:0:
256,192,229572,1,0,0:0:0:0:
329,192,229676,1,0,0:0:0:0:
402,192,229779,1,0,0:0:0:0:
256,192,229882,1,4,0:0:0:0:
36,192,229882,1,0,1:0:0:0:
475,192,229882,1,0,1:0:0:0:
