osu file format v14

[General]
AudioFilename: audio.mp3
AudioLeadIn: 0
PreviewTime: 4235
Countdown: 1
SampleSet: Normal
StackLeniency: 0.7
Mode: 0
LetterboxInBreaks: 0
WidescreenStoryboard: 0

[Editor]
Bookmarks: 4235,83294
DistanceSpacing: 0.3
BeatDivisor: 4
GridSize: 8
TimelineZoom: 1

[Metadata]
Title:Immortal Legend
TitleUnicode:Immortal Legend
Artist:Eason Chan
ArtistUnicode:Eason Chan
Creator:- Matha -
Version:Eason's pp grave
Source:Fullmetal Alchemist
Tags:Vikon Cantonese Canton Pop
BeatmapID:1623573
BeatmapSetID:772311

[Difficulty]
HPDrainRate:6
CircleSize:4
OverallDifficulty:8
ApproachRate:9
SliderMultiplier:1.9
SliderTickRate:1

[Events]
//Background and Video events
0,0,"28e9c295583e01ddb41a914e2c3c6206.jpg",0,0
//Break Periods
//Storyboard Layer 0 (Background)
//Storyboard Layer 1 (Fail)
//Storyboard Layer 2 (Pass)
//Storyboard Layer 3 (Foreground)
//Storyboard Sound Samples

[TimingPoints]
0,352.941176470588,4,1,0,100,1,0
10676,-100,4,1,0,5,0,0
10764,-100,4,1,0,100,0,0
11029,-100,4,1,0,5,0,0
11117,-100,4,1,0,100,0,0
12970,-100,4,1,0,5,0,0
13058,-100,4,1,0,100,0,0
28235,-100,4,1,0,100,0,1
39529,-125,4,1,0,100,0,0
42264,-125,4,1,0,5,0,0
42352,-125,4,1,0,100,0,0
45088,-125,4,1,0,5,0,0
45176,-125,4,1,0,100,0,0
56382,-125,4,1,0,5,0,0
56470,-125,4,1,0,100,0,0
62117,-166.666666666667,4,1,0,100,0,0
79058,-125,4,1,0,100,0,0
83294,-100,4,1,0,100,0,0
89735,-100,4,1,0,5,0,0
89823,-100,4,1,0,100,0,0
90088,-100,4,1,0,5,0,0
90176,-100,4,1,0,100,0,0
92029,-100,4,1,0,5,0,0
92117,-100,4,1,0,100,0,0
104382,-100,4,1,0,5,0,0
104470,-100,4,1,0,100,0,0

[HitObjects]
61,99,4235,6,0,L|181:109,1,95
164,118,4499,1,0,0:0:0:0:
173,129,4588,1,0,0:0:0:0:
284,216,4764,2,0,P|310:166|307:119,1,95
124,201,5117,2,0,P|125:248|149:288,1,95
297,368,5470,6,0,B|351:374|351:374|383:354|383:354|490:367,1,190
488,139,5999,1,0,0:0:0:0:
389,270,6176,1,0,0:0:0:0:
389,270,6264,1,0,0:0:0:0:
389,270,6352,1,0,0:0:0:0:
338,71,6529,1,0,0:0:0:0:
386,177,6705,1,0,0:0:0:0:
448,14,6882,1,0,0:0:0:0:
264,163,7058,6,0,B|235:217|266:266|266:266|286:298|265:349,1,190
98,316,7588,2,0,B|146:299|146:299|202:309,1,95
420,208,7941,2,0,B|372:225|372:225|316:215,1,95
224,75,8294,6,0,P|329:73|360:150,1,190
177,221,8823,1,0,0:0:0:0:
273,156,8999,1,0,0:0:0:0:
273,156,9088,1,0,0:0:0:0:
273,156,9176,1,0,0:0:0:0:
269,309,9352,1,0,0:0:0:0:
162,132,9529,1,0,0:0:0:0:
328,217,9705,1,0,0:0:0:0:
105,351,9882,6,0,L|110:245,1,95
162,132,10235,1,0,0:0:0:0:
36,47,10411,2,0,L|46:198,1,142.5
56,197,10764,2,0,P|74:155|170:135,1,142.5
226,195,11117,6,0,B|273:216|273:216|321:201|321:201|411:244,1,190
417,358,11647,1,0,0:0:0:0:
490,184,11823,1,0,0:0:0:0:
490,184,11911,1,0,0:0:0:0:
490,184,11999,1,0,0:0:0:0:
512,326,12176,1,0,0:0:0:0:
378,120,12352,1,0,0:0:0:0:
378,120,12705,6,0,B|327:104|279:134|279:134|220:93,1,142.5
236,102,13058,1,0,0:0:0:0:
344,197,13235,1,0,0:0:0:0:
188,282,13411,2,0,P|190:232|217:188,1,95
213,378,13764,1,0,0:0:0:0:
68,269,13941,6,0,P|91:215|228:204,1,190
284,309,14470,1,0,0:0:0:0:
314,163,14647,1,0,0:0:0:0:
314,163,14735,1,0,0:0:0:0:
314,163,14823,1,0,0:0:0:0:
164,277,14999,1,0,0:0:0:0:
336,240,15176,1,0,0:0:0:0:
275,384,15352,1,0,0:0:0:0:
210,193,15529,6,0,L|216:93,1,95
228,91,15794,1,0,0:0:0:0:
240,83,15882,1,0,0:0:0:0:
314,163,16058,2,0,B|366:177|366:177|417:159,1,95
512,258,16411,2,0,B|460:244|460:244|409:262,1,95
328,352,16764,6,0,B|276:383|233:356|233:356|183:326|119:362,1,190
147,187,17294,1,0,0:0:0:0:
279,290,17470,1,0,0:0:0:0:
279,290,17558,1,0,0:0:0:0:
279,290,17647,1,0,0:0:0:0:
98,288,17823,1,0,0:0:0:0:
199,80,17999,1,0,0:0:0:0:
199,80,18352,6,0,P|246:76|293:104,1,95
333,194,18705,1,0,0:0:0:0:
187,272,18882,2,0,P|185:219|213:175,1,95
402,239,19235,2,0,P|364:266|317:271,1,95
124,141,19588,6,0,P|165:104|289:141,1,190
173,366,20117,2,0,L|188:260,1,95
290,312,20470,2,0,L|276:217,1,95
386,357,20823,2,0,L|401:251,1,95
407,113,21176,6,0,B|282:134|282:134|322:136|354:167,1,190
465,205,21705,1,0,0:0:0:0:
465,205,21794,1,0,0:0:0:0:
465,205,21882,1,0,0:0:0:0:
279,217,22058,1,0,0:0:0:0:
385,356,22235,2,0,L|392:262,1,95
280,135,22588,6,0,P|202:183|217:273,1,190
392,262,23117,1,0,0:0:0:0:
267,354,23294,1,0,0:0:0:0:
267,354,23382,1,0,0:0:0:0:
267,354,23470,1,0,0:0:0:0:
385,356,23647,1,0,0:0:0:0:
214,270,23823,1,0,0:0:0:0:
478,312,23999,6,0,P|491:262|478:207,1,95
407,91,24352,1,0,0:0:0:0:
392,262,24529,1,0,0:0:0:0:
251,157,24705,2,0,B|301:142|301:142|360:161,1,95
214,270,25058,2,0,P|157:236|135:157,1,142.5
143,156,25411,6,0,B|156:108|156:108|146:50,1,95
32,114,25764,1,0,0:0:0:0:
81,265,25941,1,0,0:0:0:0:
224,184,26117,1,0,0:0:0:0:
224,184,26294,1,0,0:0:0:0:
21,202,26470,1,0,0:0:0:0:
21,202,26647,1,0,0:0:0:0:
148,63,26823,5,0,0:0:0:0:
214,270,26999,1,0,0:0:0:0:
296,53,27176,5,0,0:0:0:0:
191,352,27352,1,0,0:0:0:0:
191,352,27441,1,0,0:0:0:0:
191,352,27529,1,0,0:0:0:0:
409,140,27705,5,0,0:0:0:0:
132,286,27882,1,0,0:0:0:0:
390,384,28058,1,0,0:0:0:0:
390,384,28147,1,0,0:0:0:0:
390,384,28235,6,0,L|395:278,1,95
329,126,28588,1,0,0:0:0:0:
304,257,28764,1,0,0:0:0:0:
156,156,28941,1,0,0:0:0:0:
311,276,29117,1,0,0:0:0:0:
228,34,29294,1,0,0:0:0:0:
319,294,29470,5,0,0:0:0:0:
431,135,29647,1,0,0:0:0:0:
235,125,29823,1,0,0:0:0:0:
451,134,29999,1,0,0:0:0:0:
205,235,30176,1,0,0:0:0:0:
471,135,30352,1,0,0:0:0:0:
207,33,30529,1,0,0:0:0:0:
491,134,30705,1,0,0:0:0:0:
328,306,30882,1,0,0:0:0:0:
328,306,30970,1,0,0:0:0:0:
328,306,31058,6,0,B|278:320|278:320|227:304,1,95
218,135,31411,1,0,0:0:0:0:
330,198,31588,1,0,0:0:0:0:
155,214,31764,1,0,0:0:0:0:
353,205,31941,1,0,0:0:0:0:
116,102,32117,1,0,0:0:0:0:
375,213,32294,5,0,0:0:0:0:
193,34,32470,1,0,0:0:0:0:
273,153,32647,1,0,0:0:0:0:
172,31,32823,1,0,0:0:0:0:
385,57,32999,1,0,0:0:0:0:
150,29,33176,1,0,0:0:0:0:
410,152,33352,1,0,0:0:0:0:
127,27,33529,1,0,0:0:0:0:
250,279,33705,1,0,0:0:0:0:
250,279,33794,1,0,0:0:0:0:
250,279,33882,6,0,P|249:333|222:375,1,95
69,209,34235,1,0,0:0:0:0:
158,293,34411,1,0,0:0:0:0:
162,112,34588,1,0,0:0:0:0:
162,313,34764,1,0,0:0:0:0:
18,106,34941,1,0,0:0:0:0:
167,339,35117,5,0,0:0:0:0:
364,128,35294,1,0,0:0:0:0:
220,181,35470,1,0,0:0:0:0:
385,120,35647,1,0,0:0:0:0:
254,289,35823,1,0,0:0:0:0:
407,110,35999,1,0,0:0:0:0:
111,190,36176,1,0,0:0:0:0:
431,101,36352,1,0,0:0:0:0:
155,22,36529,1,0,0:0:0:0:
155,22,36617,1,0,0:0:0:0:
155,22,36705,6,0,B|144:78|144:78|164:129,1,95
371,220,37058,1,0,0:0:0:0:
219,207,37235,1,0,0:0:0:0:
430,126,37411,1,0,0:0:0:0:
196,204,37588,1,0,0:0:0:0:
467,281,37764,1,0,0:0:0:0:
168,202,37941,5,0,0:0:0:0:
287,283,38117,1,0,0:0:0:0:
325,125,38294,1,0,0:0:0:0:
373,359,38470,1,0,0:0:0:0:
334,100,38647,1,0,0:0:0:0:
185,344,38823,1,0,0:0:0:0:
352,78,38999,1,0,0:0:0:0:
353,77,39088,1,0,0:0:0:0:
353,77,39176,1,0,0:0:0:0:
487,211,39352,1,0,0:0:0:0:
487,211,39441,1,0,0:0:0:0:
487,211,39529,6,0,L|384:206,1,76
247,140,39882,1,0,0:0:0:0:
315,278,40058,2,0,P|328:233|317:184,1,76
159,292,40411,1,0,0:0:0:0:
153,192,40588,1,0,0:0:0:0:
241,233,40764,1,0,0:0:0:0:
68,216,40941,6,0,P|66:170|84:125,1,76
225,64,41294,2,0,P|234:100|231:138,1,76
125,50,41647,1,0,0:0:0:0:
332,45,41823,2,0,B|361:96|334:141|334:141|309:178|328:229,1,190
335,234,42352,6,0,L|421:237,1,76
512,122,42705,2,0,L|426:125,1,76
252,188,43058,1,0,0:0:0:0:
341,128,43235,1,0,0:0:0:0:
186,102,43411,1,0,0:0:0:0:
186,102,43764,6,0,P|148:182|181:262,1,152
247,363,44294,2,0,P|256:322|241:277,1,76
148,330,44647,1,0,0:0:0:0:
253,191,44823,2,0,B|288:166|288:166|367:193,1,114
365,194,45176,6,0,P|385:156|318:59,1,152
139,106,45705,2,0,L|235:116,1,76
263,26,46058,1,0,0:0:0:0:
253,191,46235,1,0,0:0:0:0:
253,191,46588,6,0,L|92:174,1,152
101,175,47294,1,0,0:0:0:0:
72,353,47470,1,0,0:0:0:0:
9,264,47647,1,0,0:0:0:0:
9,264,47999,6,0,B|76:260|76:260|107:270|107:270|190:265,1,152
288,215,48529,1,0,0:0:0:0:
253,372,48705,2,0,P|234:320|241:276,1,76
376,271,49058,1,0,0:0:0:0:
376,271,49411,6,0,B|429:289|429:289|522:237,1,152
476,97,49941,1,0,0:0:0:0:
424,183,50117,1,0,0:0:0:0:
379,34,50294,2,0,B|333:17|288:46|288:46|239:74|176:35,1,190
188,39,50823,6,0,L|183:122,1,76
267,201,51176,1,0,0:0:0:0:
95,174,51352,2,0,P|84:131|90:92,1,76
276,49,51705,2,0,L|268:207,1,152
188,299,52235,5,0,0:0:0:0:
309,283,52411,1,0,0:0:0:0:
170,217,52588,1,0,0:0:0:0:
332,357,52764,1,0,0:0:0:0:
111,359,52941,2,0,P|97:320|101:272,1,76
226,151,53294,1,0,0:0:0:0:
226,151,53647,6,0,B|262:132|304:155|304:155|348:182|396:153,1,152
426,88,54176,1,0,0:0:0:0:
426,88,54264,1,0,0:0:0:0:
426,88,54352,1,0,0:0:0:0:
454,210,54529,1,0,0:0:0:0:
318,68,54705,1,0,0:0:0:0:
318,68,55058,6,0,P|263:52|167:85,1,152
219,226,55588,2,0,L|226:146,1,76
113,181,55941,1,0,0:0:0:0:
206,317,56117,2,0,P|248:316|303:268,1,114
305,260,56470,6,0,B|351:222|351:222|466:278,1,152
369,355,56999,1,0,0:0:0:0:
511,304,57176,2,0,P|520:273|502:214,1,76
395,145,57529,1,0,0:0:0:0:
395,145,57882,6,0,B|339:124|291:149|291:149|277:126|244:117,1,152
169,48,58411,1,0,0:0:0:0:
147,194,58588,2,0,P|192:201|227:190,1,76
315,61,58941,1,0,0:0:0:0:
179,124,59117,1,0,0:0:0:0:
296,228,59294,6,0,B|297:288|297:288|235:368,1,152
101,313,59823,1,0,0:0:0:0:
147,194,59999,2,0,P|187:177|234:191,1,76
46,239,60352,2,0,L|60:111,1,114
61,114,60705,6,0,B|96:80|96:80|221:87,1,152
218,181,61235,1,0,0:0:0:0:
303,25,61411,2,0,B|302:79|302:79|313:115|313:115|311:189,1,152
311,175,62117,6,0,P|348:168|423:203,1,113.999996520996
493,256,62647,2,0,L|492:121,1,113.999996520996
440,59,63176,1,0,0:0:0:0:
440,59,63529,6,0,P|379:45|343:6,1,113.999996520996
250,32,64058,2,0,L|245:165,1,113.999996520996
163,198,64588,1,0,0:0:0:0:
163,198,64941,6,0,L|156:322,1,113.999996520996
243,268,65470,2,0,P|300:254|355:267,1,113.999996520996
338,362,65999,1,0,0:0:0:0:
434,349,66176,1,0,0:0:0:0:
450,253,66352,6,0,B|436:195|436:195|463:127,1,113.999996520996
393,69,66882,2,0,B|466:52|466:52|503:64,2,113.999996520996
330,143,67764,6,0,L|210:129,1,113.999996520996
140,68,68294,2,0,P|118:115|134:186,1,113.999996520996
210,224,68823,1,0,0:0:0:0:
210,224,69176,6,0,B|262:227|262:227|309:272,1,113.999996520996
264,357,69705,1,0,0:0:0:0:
178,310,69882,2,0,P|133:301|101:304,1,56.9999982604981
34,343,70235,1,0,0:0:0:0:
34,343,70588,6,0,L|41:219,1,113.999996520996
137,219,71117,2,0,L|144:95,1,113.999996520996
93,21,71647,1,0,0:0:0:0:
93,21,71999,6,0,P|148:7|219:37,2,113.999996520996
263,113,73058,1,0,0:0:0:0:
263,113,73411,6,0,P|326:129|381:105,1,113.999996520996
448,54,73941,2,0,L|443:175,1,113.999996520996
420,262,74470,1,0,0:0:0:0:
339,207,74647,1,0,0:0:0:0:
321,302,74823,6,0,P|268:314|248:312,1,56.9999982604981
191,250,75176,1,0,0:0:0:0:
101,213,75352,2,0,P|125:177|150:158,1,56.9999982604981
246,164,75705,2,0,P|266:184|280:208,1,56.9999982604981
191,364,76235,6,0,L|191:227,1,113.999996520996
101,213,76764,1,0,0:0:0:0:
159,135,76941,2,0,P|215:135|275:182,1,113.999996520996
262,165,77647,6,0,B|295:195|295:195|388:168,1,113.999996520996
390,82,78176,1,0,0:0:0:0:
480,114,78352,2,0,P|489:183|468:239,1,113.999996520996
476,224,79058,6,0,B|465:268|465:268|472:297|472:297|451:373,1,152
289,338,79588,1,0,0:0:0:0:
384,263,79764,1,0,0:0:0:0:
384,263,79941,1,0,0:0:0:0:
256,192,80117,1,0,0:0:0:0:
256,192,80294,1,0,0:0:0:0:
356,74,80470,6,0,L|353:177,1,76
294,256,80823,1,0,0:0:0:0:
266,112,80999,1,0,0:0:0:0:
424,193,81176,1,0,0:0:0:0:
424,193,81352,1,0,0:0:0:0:
415,12,81529,1,0,0:0:0:0:
415,12,81705,1,0,0:0:0:0:
496,238,81882,6,0,P|456:275|426:278,1,76
209,136,82235,5,0,0:0:0:0:
291,353,82411,1,0,0:0:0:0:
297,78,82588,5,0,0:0:0:0:
194,322,82764,1,0,0:0:0:0:
206,28,82941,5,0,0:0:0:0:
264,256,83117,1,0,0:0:0:0:
52,107,83294,6,0,P|98:89|161:102,1,95
150,104,83558,1,0,0:0:0:0:
158,115,83647,1,0,0:0:0:0:
298,170,83823,2,0,B|308:120|308:120|292:63,1,95
106,175,84176,2,0,B|94:217|94:217|104:267,1,95
291,353,84529,6,0,B|343:330|391:359|391:359|435:384|495:353,1,190
363,162,85058,1,0,0:0:0:0:
433,294,85235,1,0,0:0:0:0:
433,294,85323,1,0,0:0:0:0:
433,294,85411,1,0,0:0:0:0:
278,263,85588,1,0,0:0:0:0:
450,166,85764,1,0,0:0:0:0:
473,362,85941,1,0,0:0:0:0:
386,66,86117,6,0,P|332:63|270:178,1,190
450,166,86647,2,0,L|338:150,1,95
139,39,86999,2,0,L|251:23,1,95
267,166,87352,6,0,B|242:212|272:261|272:261|294:302|261:361,1,190
104,233,87882,1,0,0:0:0:0:
200,298,88058,1,0,0:0:0:0:
340,216,88235,1,0,0:0:0:0:
340,216,88323,1,0,0:0:0:0:
340,216,88411,1,0,0:0:0:0:
160,150,88588,1,0,0:0:0:0:
158,384,88764,1,0,0:0:0:0:
107,74,88941,6,0,P|152:56|206:72,1,95
227,212,89294,1,0,0:0:0:0:
84,366,89470,2,0,B|79:262|79:262|112:223,1,142.5
116,226,89823,2,0,P|94:172|0:172,1,142.5
173,301,90176,6,0,P|200:196|143:97,1,190
17,160,90705,1,0,0:0:0:0:
92,38,90882,1,0,0:0:0:0:
92,38,90970,1,0,0:0:0:0:
92,38,91058,1,0,0:0:0:0:
116,226,91235,1,0,0:0:0:0:
246,92,91411,1,0,0:0:0:0:
246,92,91764,6,0,B|297:73|347:110|347:110|361:93|383:88,1,142.5
389,88,92117,1,0,0:0:0:0:
282,170,92294,1,0,0:0:0:0:
431,264,92470,2,0,P|440:209|417:160,1,95
271,257,92823,1,0,0:0:0:0:
512,367,92999,6,0,P|481:320|353:318,1,190
258,351,93529,1,0,0:0:0:0:
357,225,93705,1,0,0:0:0:0:
357,225,93794,1,0,0:0:0:0:
357,225,93882,1,0,0:0:0:0:
420,383,94058,1,0,0:0:0:0:
271,257,94235,1,0,0:0:0:0:
451,193,94411,1,0,0:0:0:0:
350,1,94588,6,0,L|342:104,1,95
354,103,94852,1,0,0:0:0:0:
366,110,94941,1,0,0:0:0:0:
166,62,95117,2,0,P|211:40|277:49,1,95
369,196,95470,2,0,P|320:183|275:134,1,95,0|0,0:3|0:0,0:0:0:0:
466,53,95823,6,0,B|459:131|459:131|478:168|478:168|467:269,1,190
366,372,96352,1,0,0:0:0:0:
378,207,96529,1,0,0:0:0:0:
378,207,96617,1,0,0:0:0:0:
378,207,96705,1,0,0:0:0:0:
508,303,96882,1,0,0:0:0:0:
265,231,97058,1,0,0:0:0:0:
265,231,97411,6,0,P|265:172|297:125,1,95
412,295,97764,1,0,0:0:0:0:
290,360,97941,2,0,L|185:340,1,95
64,254,98294,2,0,L|169:234,1,95
354,186,98647,6,0,P|343:80|265:56,1,190
193,157,99176,2,0,P|244:161|290:130,1,95
129,86,99529,2,0,P|100:128|103:183,1,95
222,68,99882,2,0,P|199:21|150:-2,1,95
54,246,100235,6,0,B|108:271|152:246|152:246|195:219|245:248,1,190
311,380,100764,1,0,0:0:0:0:
204,318,100941,1,0,0:0:0:0:
204,318,101029,1,0,0:0:0:0:
204,318,101117,1,0,0:0:0:0:
327,168,101294,2,0,L|319:273,1,95
230,123,101647,6,0,P|257:86|391:79,1,190
455,177,102176,1,0,0:0:0:0:
327,273,102352,1,0,0:0:0:0:
327,273,102441,1,0,0:0:0:0:
327,273,102529,1,0,0:0:0:0:
327,168,102705,1,0,0:0:0:0:
440,320,102882,1,0,0:0:0:0:
220,313,103058,6,0,L|107:293,1,95
116,146,103411,1,0,0:0:0:0:
167,224,103588,1,0,0:0:0:0:
32,181,103764,2,0,P|27:124|70:76,1,95
218,0,104117,2,0,B|201:61|201:61|215:146,1,142.5
226,146,104470,6,0,P|280:136|341:155,1,95
368,317,104823,1,0,0:0:0:0:
280,221,104999,1,0,0:0:0:0:
419,205,105176,1,0,0:0:0:0:
419,205,105352,1,0,0:0:0:0:
239,336,105529,1,0,0:0:0:0:
239,336,105705,1,0,0:0:0:0:
340,107,105882,5,0,0:0:0:0:
368,317,106058,1,0,0:0:0:0:
258,49,106235,5,0,0:0:0:0:
462,327,106411,1,0,0:0:0:0:
462,327,106499,1,0,0:0:0:0:
462,327,106588,1,0,0:0:0:0:
344,0,106764,5,0,0:0:0:0:
312,384,106941,1,0,0:0:0:0:
83,85,107117,1,0,0:0:0:0:
83,85,107205,1,0,0:0:0:0:
83,85,107294,1,0,0:0:0:0:
256,192,107382,12,0,110117,0:0:0:0:
