osu file format v14

[General]
AudioFilename: audio.ogg
AudioLeadIn: 0
PreviewTime: 120967
Countdown: 0
SampleSet: Soft
StackLeniency: 0.7
Mode: 3
LetterboxInBreaks: 0
SpecialStyle: 0
WidescreenStoryboard: 1

[Editor]
Bookmarks: 780,12780,24780,36780,48780,60780,72780,84780,96780,108780,122280,134280,146280,158280,170280,182280
DistanceSpacing: 0.8
BeatDivisor: 4
GridSize: 32
TimelineZoom: 1.75

[Metadata]
Title:September (yomoha remix)
TitleUnicode:September (yomoha remix)
Artist:Earth, Wind & Fire
ArtistUnicode:Earth, Wind & Fire
Creator:epic man 2
Version:Advanced
Source:
Tags:em2 ln electronic english happy future bass ヨモハ remastered ver version r&b arc columbia records can't hide love disco the best of vol. 1 funk maurice white phillip bailey verdine ralph johnson al mckay larry dunn fred johnny graham rahmlee micheal davis louis satterfield andrew woolfolk night at the museum trolls the nice guys polar ultimate collection
BeatmapID:3774374
BeatmapSetID:1838172

[Difficulty]
HPDrainRate:7.3
CircleSize:4
OverallDifficulty:7.3
ApproachRate:5
SliderMultiplier:1.4
SliderTickRate:1

[Events]
//Background and Video events
0,0,"ebic.jpg",0,0
//Break Periods
//Storyboard Layer 0 (Background)
//Storyboard Layer 1 (Fail)
//Storyboard Layer 2 (Pass)
//Storyboard Layer 3 (Foreground)
//Storyboard Layer 4 (Overlay)
//Storyboard Sound Samples

[TimingPoints]
780,375,4,2,1,70,1,0
48780,-100,4,2,1,70,0,1
71280,-100,4,2,1,70,0,0
122280,-100,4,2,1,70,0,1
146092,-100,4,2,1,70,0,0
146280,-100,4,2,1,70,0,1
169905,-100,4,2,1,70,0,0

[HitObjects]
64,192,217,128,0,405:0:0:0:0:
448,192,405,128,0,592:0:0:0:0:
192,192,592,128,0,780:0:0:0:0:
320,192,780,1,0,0:0:0:0:
320,192,967,128,0,1342:0:0:0:0:
64,192,1342,1,0,0:0:0:0:
448,192,1717,1,0,0:0:0:0:
64,192,2092,1,0,0:0:0:0:
192,192,2280,128,0,2467:0:0:0:0:
320,192,2467,128,0,2655:0:0:0:0:
448,192,2655,1,0,0:0:0:0:
64,192,2842,128,0,3405:0:0:0:0:
192,192,3405,1,0,0:0:0:0:
448,192,3592,1,0,0:0:0:0:
320,192,3780,128,0,3967:0:0:0:0:
64,192,3780,1,0,0:0:0:0:
192,192,4342,1,0,0:0:0:0:
320,192,4717,1,0,0:0:0:0:
64,192,4905,128,0,5092:0:0:0:0:
448,192,5092,1,0,0:0:0:0:
192,192,5280,128,0,5467:0:0:0:0:
320,192,5467,128,0,5655:0:0:0:0:
448,192,5655,1,0,0:0:0:0:
64,192,5842,128,0,6405:0:0:0:0:
192,192,6405,1,0,0:0:0:0:
448,192,6592,1,0,0:0:0:0:
320,192,6780,128,0,6967:0:0:0:0:
64,192,6780,1,0,0:0:0:0:
192,192,7342,1,0,0:0:0:0:
320,192,7717,1,0,0:0:0:0:
64,192,7905,128,0,8092:0:0:0:0:
192,192,8280,1,0,0:0:0:0:
320,192,8467,1,0,0:0:0:0:
448,192,8655,1,0,0:0:0:0:
192,192,8842,128,0,9405:0:0:0:0:
64,192,9405,1,0,0:0:0:0:
320,192,9592,128,0,9780:0:0:0:0:
64,192,9780,128,0,11655:0:0:0:0:
320,192,12030,1,0,0:0:0:0:
448,192,12217,128,0,12405:0:0:0:0:
192,192,12405,128,0,12592:0:0:0:0:
64,192,12592,1,0,0:0:0:0:
320,192,12780,1,0,0:0:0:0:
448,192,12780,1,0,0:0:0:0:
320,192,12967,1,0,0:0:0:0:
192,192,13155,1,0,0:0:0:0:
448,192,13530,1,0,0:0:0:0:
320,192,13717,128,0,13905:0:0:0:0:
64,192,13905,1,0,0:0:0:0:
192,192,14092,128,0,14467:0:0:0:0:
448,192,14280,1,0,0:0:0:0:
320,192,14467,128,0,14655:0:0:0:0:
448,192,14655,1,0,0:0:0:0:
192,192,14842,1,0,0:0:0:0:
64,192,15030,128,0,15405:0:0:0:0:
192,192,15405,1,0,0:0:0:0:
448,192,15592,128,0,15780:0:0:0:0:
64,192,15780,1,0,0:0:0:0:
192,192,15873,128,0,16155:0:0:0:0:
320,192,16155,1,0,0:0:0:0:
192,192,16530,1,0,0:0:0:0:
64,192,16905,128,0,17092:0:0:0:0:
448,192,17092,1,0,0:0:0:0:
192,192,17280,1,0,0:0:0:0:
320,192,17467,1,0,0:0:0:0:
448,192,17655,1,0,0:0:0:0:
192,192,17842,1,0,0:0:0:0:
64,192,18030,128,0,18405:0:0:0:0:
192,192,18405,1,0,0:0:0:0:
192,192,18592,1,0,0:0:0:0:
320,192,18780,128,0,19155:0:0:0:0:
64,192,19155,1,0,0:0:0:0:
448,192,19530,1,0,0:0:0:0:
64,192,19905,128,0,20092:0:0:0:0:
448,192,20092,1,0,0:0:0:0:
192,192,20280,1,0,0:0:0:0:
320,192,20467,1,0,0:0:0:0:
448,192,20655,1,0,0:0:0:0:
192,192,20842,128,0,21030:0:0:0:0:
64,192,21030,1,0,0:0:0:0:
192,192,21405,1,0,0:0:0:0:
320,192,21592,128,0,21780:0:0:0:0:
64,192,21780,128,0,22905:0:0:0:0:
448,192,22155,1,0,0:0:0:0:
192,192,22530,1,0,0:0:0:0:
448,192,22905,1,0,0:0:0:0:
192,192,22998,1,0,0:0:0:0:
320,192,23092,1,0,0:0:0:0:
64,192,23186,1,0,0:0:0:0:
448,192,23280,1,0,0:0:0:0:
64,192,23467,128,0,23655:0:0:0:0:
192,192,23655,1,0,0:0:0:0:
448,192,23748,1,0,0:0:0:0:
192,192,23842,1,0,0:0:0:0:
320,192,23936,1,0,0:0:0:0:
64,192,24030,128,0,24405:0:0:0:0:
192,192,24217,1,0,0:0:0:0:
448,192,24405,128,0,24780:0:0:0:0:
320,192,24780,128,0,25155:0:0:0:0:
448,192,25155,1,0,0:0:0:0:
320,192,25342,128,0,25905:0:0:0:0:
64,192,25530,1,0,0:0:0:0:
192,192,25905,1,0,0:0:0:0:
320,192,26280,128,0,26467:0:0:0:0:
448,192,26467,1,0,0:0:0:0:
192,192,26655,128,0,26842:0:0:0:0:
320,192,26842,1,0,0:0:0:0:
64,192,27030,128,0,27405:0:0:0:0:
192,192,27405,128,0,27592:0:0:0:0:
448,192,27405,1,0,0:0:0:0:
320,192,27780,128,0,28155:0:0:0:0:
448,192,28155,1,0,0:0:0:0:
320,192,28342,128,0,28905:0:0:0:0:
64,192,28530,1,0,0:0:0:0:
192,192,28905,1,0,0:0:0:0:
448,192,28998,1,0,0:0:0:0:
320,192,29280,128,0,29467:0:0:0:0:
448,192,29467,1,0,0:0:0:0:
192,192,29655,128,0,29842:0:0:0:0:
320,192,29842,1,0,0:0:0:0:
64,192,30030,128,0,30405:0:0:0:0:
192,192,30405,128,0,30592:0:0:0:0:
448,192,30405,1,0,0:0:0:0:
320,192,30780,128,0,31155:0:0:0:0:
448,192,31155,1,0,0:0:0:0:
320,192,31342,128,0,31905:0:0:0:0:
64,192,31530,1,0,0:0:0:0:
192,192,31905,1,0,0:0:0:0:
192,192,32280,128,0,32467:0:0:0:0:
448,192,32467,1,0,0:0:0:0:
320,192,32655,128,0,32842:0:0:0:0:
64,192,32842,1,0,0:0:0:0:
192,192,33030,128,0,33405:0:0:0:0:
64,192,33405,1,0,0:0:0:0:
448,192,33405,1,0,0:0:0:0:
320,192,33592,128,0,33780:0:0:0:0:
192,192,33780,128,0,36030:0:0:0:0:
448,192,34155,1,0,0:0:0:0:
64,192,34530,1,0,0:0:0:0:
448,192,34905,1,0,0:0:0:0:
64,192,35280,1,0,0:0:0:0:
320,192,35655,1,0,0:0:0:0:
448,192,36030,128,0,36405:0:0:0:0:
320,192,36217,1,0,0:0:0:0:
64,192,36405,128,0,36780:0:0:0:0:
320,192,36780,128,0,37155:0:0:0:0:
448,192,37155,1,0,0:0:0:0:
192,192,37155,128,0,37342:0:0:0:0:
64,192,37342,1,0,0:0:0:0:
320,192,37530,128,0,37905:0:0:0:0:
64,192,37905,128,0,38092:0:0:0:0:
448,192,37905,1,0,0:0:0:0:
192,192,38092,1,0,0:0:0:0:
448,192,38280,1,0,0:0:0:0:
320,192,38467,128,0,38655:0:0:0:0:
64,192,38655,1,0,0:0:0:0:
64,192,38842,1,0,0:0:0:0:
320,192,39030,128,0,39405:0:0:0:0:
64,192,39405,1,0,0:0:0:0:
448,192,39405,1,0,0:0:0:0:
320,192,39780,128,0,40155:0:0:0:0:
192,192,40155,128,0,40342:0:0:0:0:
448,192,40155,1,0,0:0:0:0:
64,192,40342,1,0,0:0:0:0:
320,192,40530,128,0,40905:0:0:0:0:
64,192,40905,128,0,41092:0:0:0:0:
192,192,40905,1,0,0:0:0:0:
320,192,41092,1,0,0:0:0:0:
448,192,41280,1,0,0:0:0:0:
320,192,41467,128,0,41655:0:0:0:0:
64,192,41655,1,0,0:0:0:0:
448,192,41655,1,0,0:0:0:0:
64,192,41842,1,0,0:0:0:0:
320,192,42030,128,0,42405:0:0:0:0:
64,192,42405,128,0,42592:0:0:0:0:
448,192,42405,1,0,0:0:0:0:
320,192,42780,128,0,43155:0:0:0:0:
192,192,43155,128,0,43342:0:0:0:0:
448,192,43155,1,0,0:0:0:0:
64,192,43342,1,0,0:0:0:0:
448,192,43530,128,0,43905:0:0:0:0:
64,192,43905,128,0,44092:0:0:0:0:
192,192,43905,1,0,0:0:0:0:
320,192,44092,1,0,0:0:0:0:
64,192,44280,1,0,0:0:0:0:
448,192,44467,128,0,44655:0:0:0:0:
192,192,44655,128,0,44842:0:0:0:0:
320,192,44842,128,0,45405:0:0:0:0:
64,192,45030,1,0,0:0:0:0:
448,192,45405,1,0,0:0:0:0:
192,192,45780,1,0,0:0:0:0:
320,192,45967,1,0,0:0:0:0:
64,192,46155,1,0,0:0:0:0:
192,192,46342,1,0,0:0:0:0:
320,192,46530,1,0,0:0:0:0:
448,192,46717,1,0,0:0:0:0:
192,192,46905,1,0,0:0:0:0:
320,192,47092,1,0,0:0:0:0:
64,192,47280,1,0,0:0:0:0:
320,192,47467,1,0,0:0:0:0:
192,192,47561,1,0,0:0:0:0:
448,192,47655,1,0,0:0:0:0:
64,192,47842,1,0,0:0:0:0:
320,192,47936,1,0,0:0:0:0:
64,192,48030,1,0,0:0:0:0:
192,192,48030,1,0,0:0:0:0:
64,192,48217,1,0,0:0:0:0:
192,192,48217,1,0,0:0:0:0:
448,192,48405,128,0,48780:0:0:0:0:
64,192,48780,1,0,0:0:0:0:
192,192,48780,1,0,0:0:0:0:
320,192,48967,128,0,49155:0:0:0:0:
64,192,49155,1,0,0:0:0:0:
448,192,49342,1,0,0:0:0:0:
320,192,49436,1,0,0:0:0:0:
64,192,49530,1,0,0:0:0:0:
448,192,49623,1,0,0:0:0:0:
192,192,49717,1,0,0:0:0:0:
320,192,49905,1,0,0:0:0:0:
448,192,50092,128,0,50280:0:0:0:0:
64,192,50280,1,0,0:0:0:0:
320,192,50467,1,0,0:0:0:0:
192,192,50655,1,0,0:0:0:0:
320,192,50748,1,0,0:0:0:0:
64,192,50936,1,0,0:0:0:0:
448,192,51030,1,0,0:0:0:0:
448,192,51217,128,0,51405:0:0:0:0:
192,192,51405,1,0,0:0:0:0:
192,192,51592,128,0,51780:0:0:0:0:
64,192,51780,1,0,0:0:0:0:
320,192,51967,128,0,52155:0:0:0:0:
64,192,52155,1,0,0:0:0:0:
448,192,52342,1,0,0:0:0:0:
320,192,52436,1,0,0:0:0:0:
64,192,52530,1,0,0:0:0:0:
448,192,52623,1,0,0:0:0:0:
192,192,52717,1,0,0:0:0:0:
320,192,52905,1,0,0:0:0:0:
448,192,53092,128,0,53280:0:0:0:0:
64,192,53280,1,0,0:0:0:0:
320,192,53373,1,0,0:0:0:0:
320,192,53561,1,0,0:0:0:0:
192,192,53655,1,0,0:0:0:0:
320,192,53842,1,0,0:0:0:0:
64,192,53936,1,0,0:0:0:0:
448,192,54030,1,0,0:0:0:0:
448,192,54217,128,0,54405:0:0:0:0:
192,192,54405,1,0,0:0:0:0:
192,192,54592,128,0,54780:0:0:0:0:
64,192,54780,1,0,0:0:0:0:
320,192,54967,128,0,55155:0:0:0:0:
64,192,55155,1,0,0:0:0:0:
448,192,55342,1,0,0:0:0:0:
320,192,55436,1,0,0:0:0:0:
64,192,55530,1,0,0:0:0:0:
448,192,55623,1,0,0:0:0:0:
192,192,55717,1,0,0:0:0:0:
320,192,55905,1,0,0:0:0:0:
448,192,56092,128,0,56280:0:0:0:0:
64,192,56280,128,0,56467:0:0:0:0:
320,192,56467,1,0,0:0:0:0:
192,192,56655,128,0,56842:0:0:0:0:
320,192,56842,1,0,0:0:0:0:
64,192,56936,1,0,0:0:0:0:
448,192,57030,128,0,57217:0:0:0:0:
320,192,57217,1,0,0:0:0:0:
192,192,57405,1,0,0:0:0:0:
320,192,57592,128,0,57780:0:0:0:0:
64,192,57780,128,0,57967:0:0:0:0:
448,192,57967,1,0,0:0:0:0:
64,192,58155,1,0,0:0:0:0:
448,192,58248,1,0,0:0:0:0:
320,192,58436,1,0,0:0:0:0:
64,192,58530,1,0,0:0:0:0:
64,192,58717,1,0,0:0:0:0:
192,192,58811,1,0,0:0:0:0:
448,192,58905,1,0,0:0:0:0:
448,192,59092,1,0,0:0:0:0:
64,192,59280,1,0,0:0:0:0:
320,192,59373,1,0,0:0:0:0:
448,192,59561,1,0,0:0:0:0:
192,192,59655,1,0,0:0:0:0:
320,192,59842,1,0,0:0:0:0:
64,192,59936,1,0,0:0:0:0:
448,192,60030,128,0,60217:0:0:0:0:
192,192,60217,1,0,0:0:0:0:
320,192,60311,1,0,0:0:0:0:
64,192,60405,128,0,60780:0:0:0:0:
448,192,60780,1,0,0:0:0:0:
320,192,60780,128,0,60967:0:0:0:0:
64,192,60967,1,0,0:0:0:0:
192,192,61061,1,0,0:0:0:0:
448,192,61155,1,0,0:0:0:0:
320,192,61155,1,0,0:0:0:0:
448,192,61342,1,0,0:0:0:0:
192,192,61436,1,0,0:0:0:0:
320,192,61530,128,0,61717:0:0:0:0:
448,192,61717,1,0,0:0:0:0:
64,192,61905,1,0,0:0:0:0:
192,192,61905,1,0,0:0:0:0:
64,192,62092,1,0,0:0:0:0:
448,192,62186,1,0,0:0:0:0:
192,192,62280,128,0,62467:0:0:0:0:
448,192,62467,1,0,0:0:0:0:
320,192,62561,1,0,0:0:0:0:
64,192,62655,1,0,0:0:0:0:
192,192,62655,1,0,0:0:0:0:
64,192,62842,1,0,0:0:0:0:
320,192,63030,128,0,63217:0:0:0:0:
448,192,63217,1,0,0:0:0:0:
192,192,63311,1,0,0:0:0:0:
64,192,63405,128,0,63592:0:0:0:0:
320,192,63405,1,0,0:0:0:0:
192,192,63592,1,0,0:0:0:0:
448,192,63686,1,0,0:0:0:0:
320,192,63780,128,0,63967:0:0:0:0:
64,192,63967,1,0,0:0:0:0:
192,192,64061,1,0,0:0:0:0:
448,192,64155,1,0,0:0:0:0:
320,192,64155,1,0,0:0:0:0:
448,192,64342,1,0,0:0:0:0:
192,192,64436,1,0,0:0:0:0:
64,192,64530,1,0,0:0:0:0:
320,192,64530,128,0,64717:0:0:0:0:
448,192,64717,1,0,0:0:0:0:
64,192,64905,1,0,0:0:0:0:
192,192,64905,1,0,0:0:0:0:
64,192,65092,1,0,0:0:0:0:
448,192,65186,1,0,0:0:0:0:
192,192,65280,128,0,65467:0:0:0:0:
448,192,65467,1,0,0:0:0:0:
320,192,65561,1,0,0:0:0:0:
64,192,65655,1,0,0:0:0:0:
192,192,65655,1,0,0:0:0:0:
64,192,65842,1,0,0:0:0:0:
320,192,66030,128,0,66217:0:0:0:0:
448,192,66217,1,0,0:0:0:0:
192,192,66311,1,0,0:0:0:0:
64,192,66405,128,0,66592:0:0:0:0:
320,192,66405,1,0,0:0:0:0:
192,192,66592,1,0,0:0:0:0:
448,192,66686,1,0,0:0:0:0:
320,192,66780,128,0,66967:0:0:0:0:
64,192,66967,1,0,0:0:0:0:
192,192,67061,1,0,0:0:0:0:
448,192,67155,1,0,0:0:0:0:
320,192,67155,1,0,0:0:0:0:
448,192,67342,1,0,0:0:0:0:
192,192,67436,1,0,0:0:0:0:
320,192,67530,128,0,67717:0:0:0:0:
448,192,67717,1,0,0:0:0:0:
64,192,67905,1,0,0:0:0:0:
192,192,67905,1,0,0:0:0:0:
64,192,68092,1,0,0:0:0:0:
448,192,68186,1,0,0:0:0:0:
192,192,68280,1,0,0:0:0:0:
448,192,68467,128,0,68655:0:0:0:0:
64,192,68655,1,0,0:0:0:0:
192,192,68655,128,0,68842:0:0:0:0:
320,192,68842,1,0,0:0:0:0:
64,192,68936,1,0,0:0:0:0:
320,192,69030,128,0,69217:0:0:0:0:
448,192,69217,1,0,0:0:0:0:
320,192,69405,1,0,0:0:0:0:
192,192,69405,128,0,69592:0:0:0:0:
64,192,69592,1,0,0:0:0:0:
448,192,69686,1,0,0:0:0:0:
320,192,69780,128,0,69967:0:0:0:0:
192,192,69967,1,0,0:0:0:0:
448,192,70061,1,0,0:0:0:0:
64,192,70155,1,0,0:0:0:0:
192,192,70155,1,0,0:0:0:0:
448,192,70248,1,0,0:0:0:0:
320,192,70436,1,0,0:0:0:0:
64,192,70530,1,0,0:0:0:0:
192,192,70717,1,0,0:0:0:0:
448,192,70811,1,0,0:0:0:0:
64,192,70905,1,0,0:0:0:0:
192,192,70905,1,0,0:0:0:0:
320,192,71092,1,0,0:0:0:0:
64,192,71186,1,0,0:0:0:0:
448,192,71280,1,0,0:0:0:0:
320,192,71373,1,0,0:0:0:0:
192,192,71561,1,0,0:0:0:0:
320,192,71655,5,0,0:0:0:0:
64,192,71842,1,0,0:0:0:0:
320,192,72030,1,0,0:0:0:0:
192,192,72123,1,0,0:0:0:0:
320,192,72217,1,0,0:0:0:0:
448,192,72311,1,0,0:0:0:0:
64,192,72405,128,0,72592:0:0:0:0:
192,192,72405,1,0,0:0:0:0:
448,192,72592,128,0,72780:0:0:0:0:
64,192,72780,1,0,0:0:0:0:
320,192,72780,1,0,0:0:0:0:
320,192,72967,128,0,73155:0:0:0:0:
192,192,73155,1,0,0:0:0:0:
192,192,73530,1,0,0:0:0:0:
448,192,73717,128,0,73905:0:0:0:0:
64,192,73905,1,0,0:0:0:0:
320,192,74092,128,0,74467:0:0:0:0:
192,192,74280,1,0,0:0:0:0:
64,192,74467,1,0,0:0:0:0:
448,192,74655,1,0,0:0:0:0:
64,192,74842,128,0,75405:0:0:0:0:
320,192,75030,1,0,0:0:0:0:
192,192,75405,1,0,0:0:0:0:
448,192,75592,128,0,75780:0:0:0:0:
64,192,75780,1,0,0:0:0:0:
320,192,75780,128,0,76155:0:0:0:0:
192,192,76155,1,0,0:0:0:0:
192,192,76530,1,0,0:0:0:0:
64,192,76905,128,0,77092:0:0:0:0:
448,192,77092,1,0,0:0:0:0:
192,192,77280,1,0,0:0:0:0:
320,192,77467,1,0,0:0:0:0:
448,192,77655,1,0,0:0:0:0:
64,192,77842,128,0,78405:0:0:0:0:
320,192,78030,1,0,0:0:0:0:
192,192,78405,1,0,0:0:0:0:
448,192,78405,1,0,0:0:0:0:
192,192,78592,1,0,0:0:0:0:
64,192,78780,1,0,0:0:0:0:
320,192,78780,128,0,79155:0:0:0:0:
192,192,79155,1,0,0:0:0:0:
192,192,79530,1,0,0:0:0:0:
64,192,79905,128,0,80092:0:0:0:0:
320,192,80092,1,0,0:0:0:0:
192,192,80280,1,0,0:0:0:0:
320,192,80467,1,0,0:0:0:0:
448,192,80655,1,0,0:0:0:0:
192,192,80842,128,0,81405:0:0:0:0:
320,192,81030,1,0,0:0:0:0:
64,192,81405,1,0,0:0:0:0:
320,192,81592,128,0,81780:0:0:0:0:
64,192,81780,128,0,84030:0:0:0:0:
448,192,82155,1,0,0:0:0:0:
192,192,82342,1,0,0:0:0:0:
320,192,82530,1,0,0:0:0:0:
448,192,82905,1,0,0:0:0:0:
192,192,83280,1,0,0:0:0:0:
320,192,83655,1,0,0:0:0:0:
448,192,84030,1,0,0:0:0:0:
448,192,84217,1,0,0:0:0:0:
192,192,84405,128,0,84592:0:0:0:0:
320,192,84405,1,0,0:0:0:0:
64,192,84592,1,0,0:0:0:0:
448,192,84780,1,0,0:0:0:0:
320,192,84780,1,0,0:0:0:0:
320,192,84967,128,0,85155:0:0:0:0:
192,192,85155,1,0,0:0:0:0:
64,192,85155,1,0,0:0:0:0:
448,192,85530,1,0,0:0:0:0:
64,192,85717,128,0,85905:0:0:0:0:
192,192,85905,1,0,0:0:0:0:
448,192,85905,1,0,0:0:0:0:
320,192,86092,128,0,86655:0:0:0:0:
64,192,86280,1,0,0:0:0:0:
448,192,86655,1,0,0:0:0:0:
64,192,86655,1,0,0:0:0:0:
192,192,86842,128,0,87217:0:0:0:0:
320,192,87030,1,0,0:0:0:0:
448,192,87217,1,0,0:0:0:0:
64,192,87405,1,0,0:0:0:0:
448,192,87592,128,0,87780:0:0:0:0:
64,192,87780,1,0,0:0:0:0:
320,192,87780,128,0,88155:0:0:0:0:
192,192,88155,1,0,0:0:0:0:
448,192,88155,1,0,0:0:0:0:
320,192,88530,1,0,0:0:0:0:
64,192,88717,128,0,88905:0:0:0:0:
192,192,88905,1,0,0:0:0:0:
448,192,88905,1,0,0:0:0:0:
320,192,89092,128,0,89280:0:0:0:0:
448,192,89280,1,0,0:0:0:0:
192,192,89467,128,0,89655:0:0:0:0:
64,192,89655,1,0,0:0:0:0:
320,192,89655,1,0,0:0:0:0:
320,192,89842,128,0,90217:0:0:0:0:
192,192,90030,1,0,0:0:0:0:
448,192,90217,1,0,0:0:0:0:
192,192,90405,1,0,0:0:0:0:
64,192,90405,1,0,0:0:0:0:
192,192,90592,1,0,0:0:0:0:
320,192,90780,128,0,90967:0:0:0:0:
64,192,90967,128,0,91155:0:0:0:0:
320,192,91155,1,0,0:0:0:0:
448,192,91155,1,0,0:0:0:0:
448,192,91530,1,0,0:0:0:0:
64,192,91905,1,0,0:0:0:0:
192,192,91905,1,0,0:0:0:0:
448,192,92092,1,0,0:0:0:0:
192,192,92280,128,0,92467:0:0:0:0:
320,192,92467,1,0,0:0:0:0:
448,192,92655,1,0,0:0:0:0:
192,192,92842,128,0,93405:0:0:0:0:
320,192,93030,1,0,0:0:0:0:
64,192,93405,1,0,0:0:0:0:
320,192,93592,128,0,93780:0:0:0:0:
64,192,93780,128,0,94905:0:0:0:0:
448,192,94155,1,0,0:0:0:0:
192,192,94530,1,0,0:0:0:0:
448,192,94905,1,0,0:0:0:0:
192,192,94998,1,0,0:0:0:0:
320,192,95092,1,0,0:0:0:0:
64,192,95186,1,0,0:0:0:0:
448,192,95280,128,0,95467:0:0:0:0:
64,192,95467,128,0,95655:0:0:0:0:
192,192,95655,1,0,0:0:0:0:
448,192,95748,1,0,0:0:0:0:
64,192,95842,1,0,0:0:0:0:
320,192,95936,1,0,0:0:0:0:
448,192,96030,1,0,0:0:0:0:
192,192,96030,1,0,0:0:0:0:
192,192,96217,1,0,0:0:0:0:
448,192,96217,1,0,0:0:0:0:
320,192,96405,128,0,96780:0:0:0:0:
448,192,96780,1,0,0:0:0:0:
192,192,97342,128,0,98280:0:0:0:0:
64,192,98280,1,0,0:0:0:0:
320,192,98842,128,0,99780:0:0:0:0:
448,192,99780,1,0,0:0:0:0:
192,192,100342,128,0,100998:0:0:0:0:
320,192,100998,1,0,0:0:0:0:
64,192,101092,1,0,0:0:0:0:
320,192,101186,1,0,0:0:0:0:
192,192,101280,1,0,0:0:0:0:
320,192,101842,128,0,102780:0:0:0:0:
192,192,102405,1,0,0:0:0:0:
448,192,102780,1,0,0:0:0:0:
192,192,103342,128,0,104280:0:0:0:0:
64,192,104280,1,0,0:0:0:0:
320,192,104842,128,0,105780:0:0:0:0:
448,192,105780,1,0,0:0:0:0:
448,192,105967,1,0,0:0:0:0:
192,192,106342,1,0,0:0:0:0:
192,192,106530,1,0,0:0:0:0:
320,192,106717,1,0,0:0:0:0:
64,192,107092,1,0,0:0:0:0:
320,192,107280,1,0,0:0:0:0:
320,192,107467,1,0,0:0:0:0:
192,192,107655,128,0,107842:0:0:0:0:
320,192,107842,1,0,0:0:0:0:
64,192,108030,128,0,108405:0:0:0:0:
320,192,108405,1,0,0:0:0:0:
448,192,108405,1,0,0:0:0:0:
64,192,108592,1,0,0:0:0:0:
192,192,108686,1,0,0:0:0:0:
448,192,108780,1,0,0:0:0:0:
320,192,108780,128,0,109155:0:0:0:0:
448,192,109155,1,0,0:0:0:0:
320,192,109342,128,0,109905:0:0:0:0:
64,192,109530,1,0,0:0:0:0:
192,192,109905,1,0,0:0:0:0:
320,192,110280,128,0,110467:0:0:0:0:
448,192,110467,1,0,0:0:0:0:
192,192,110655,128,0,110842:0:0:0:0:
320,192,110842,1,0,0:0:0:0:
64,192,111030,128,0,111405:0:0:0:0:
192,192,111405,128,0,111592:0:0:0:0:
320,192,111780,128,0,112155:0:0:0:0:
448,192,112155,1,0,0:0:0:0:
320,192,112342,128,0,112905:0:0:0:0:
64,192,112530,1,0,0:0:0:0:
192,192,112905,1,0,0:0:0:0:
320,192,113280,128,0,113467:0:0:0:0:
448,192,113467,1,0,0:0:0:0:
192,192,113655,128,0,113842:0:0:0:0:
320,192,113842,1,0,0:0:0:0:
64,192,114030,128,0,114405:0:0:0:0:
192,192,114405,128,0,114592:0:0:0:0:
448,192,114405,1,0,0:0:0:0:
320,192,114780,1,0,0:0:0:0:
64,192,114967,1,0,0:0:0:0:
448,192,115155,1,0,0:0:0:0:
320,192,115342,1,0,0:0:0:0:
448,192,115530,1,0,0:0:0:0:
192,192,115717,1,0,0:0:0:0:
320,192,115905,1,0,0:0:0:0:
448,192,116092,1,0,0:0:0:0:
64,192,116280,1,0,0:0:0:0:
320,192,116467,1,0,0:0:0:0:
192,192,116655,1,0,0:0:0:0:
320,192,116842,1,0,0:0:0:0:
64,192,117030,1,0,0:0:0:0:
192,192,117217,1,0,0:0:0:0:
64,192,117405,1,0,0:0:0:0:
192,192,117592,1,0,0:0:0:0:
448,192,117686,1,0,0:0:0:0:
320,192,117780,1,0,0:0:0:0:
64,192,117967,1,0,0:0:0:0:
448,192,118155,1,0,0:0:0:0:
192,192,118342,1,0,0:0:0:0:
320,192,118530,1,0,0:0:0:0:
448,192,118717,1,0,0:0:0:0:
64,192,118905,1,0,0:0:0:0:
192,192,119092,1,0,0:0:0:0:
448,192,119280,128,0,120780:0:0:0:0:
320,192,120967,1,0,0:0:0:0:
448,192,120967,1,0,0:0:0:0:
64,192,120967,128,0,121155:0:0:0:0:
64,192,121342,1,0,0:0:0:0:
448,192,121342,1,0,0:0:0:0:
192,192,121342,128,0,121530:0:0:0:0:
320,192,121530,1,0,0:0:0:0:
448,192,121717,128,0,121905:0:0:0:0:
192,192,121905,1,0,0:0:0:0:
64,192,121905,128,0,122092:0:0:0:0:
320,192,122092,1,0,0:0:0:0:
192,192,122186,1,0,0:0:0:0:
448,192,122280,1,0,0:0:0:0:
64,192,122280,128,0,122467:0:0:0:0:
320,192,122467,1,0,0:0:0:0:
448,192,122561,1,0,0:0:0:0:
64,192,122655,1,0,0:0:0:0:
192,192,122655,128,0,122842:0:0:0:0:
320,192,122842,1,0,0:0:0:0:
64,192,122936,1,0,0:0:0:0:
448,192,123030,1,0,0:0:0:0:
192,192,123123,1,0,0:0:0:0:
448,192,123217,1,0,0:0:0:0:
448,192,123405,1,0,0:0:0:0:
64,192,123405,128,0,123592:0:0:0:0:
192,192,123592,1,0,0:0:0:0:
320,192,123686,1,0,0:0:0:0:
448,192,123780,128,0,123967:0:0:0:0:
192,192,123967,1,0,0:0:0:0:
64,192,124061,1,0,0:0:0:0:
448,192,124155,1,0,0:0:0:0:
320,192,124155,128,0,124342:0:0:0:0:
192,192,124342,1,0,0:0:0:0:
320,192,124530,1,0,0:0:0:0:
192,192,124623,1,0,0:0:0:0:
320,192,124717,1,0,0:0:0:0:
448,192,124811,1,0,0:0:0:0:
192,192,124905,1,0,0:0:0:0:
64,192,124905,128,0,125092:0:0:0:0:
320,192,125092,1,0,0:0:0:0:
192,192,125186,1,0,0:0:0:0:
64,192,125280,128,0,125467:0:0:0:0:
320,192,125467,1,0,0:0:0:0:
448,192,125561,1,0,0:0:0:0:
192,192,125655,128,0,125842:0:0:0:0:
64,192,125655,1,0,0:0:0:0:
320,192,125842,1,0,0:0:0:0:
448,192,125936,1,0,0:0:0:0:
64,192,126030,1,0,0:0:0:0:
320,192,126123,1,0,0:0:0:0:
64,192,126217,1,0,0:0:0:0:
64,192,126405,128,0,126592:0:0:0:0:
448,192,126405,1,0,0:0:0:0:
192,192,126592,128,0,126780:0:0:0:0:
320,192,126780,1,0,0:0:0:0:
320,192,126967,1,0,0:0:0:0:
64,192,127061,1,0,0:0:0:0:
448,192,127155,128,0,127342:0:0:0:0:
192,192,127155,1,0,0:0:0:0:
192,192,127342,1,0,0:0:0:0:
320,192,127436,1,0,0:0:0:0:
64,192,127530,128,0,127717:0:0:0:0:
320,192,127717,1,0,0:0:0:0:
192,192,127811,1,0,0:0:0:0:
64,192,127905,1,0,0:0:0:0:
448,192,127905,128,0,128092:0:0:0:0:
192,192,128092,1,0,0:0:0:0:
320,192,128186,1,0,0:0:0:0:
64,192,128280,128,0,128467:0:0:0:0:
448,192,128280,1,0,0:0:0:0:
320,192,128467,1,0,0:0:0:0:
448,192,128561,1,0,0:0:0:0:
192,192,128655,128,0,128842:0:0:0:0:
64,192,128655,1,0,0:0:0:0:
320,192,128842,1,0,0:0:0:0:
64,192,128936,1,0,0:0:0:0:
448,192,129030,1,0,0:0:0:0:
192,192,129123,1,0,0:0:0:0:
448,192,129217,1,0,0:0:0:0:
64,192,129405,128,0,129592:0:0:0:0:
448,192,129405,1,0,0:0:0:0:
192,192,129592,1,0,0:0:0:0:
320,192,129686,1,0,0:0:0:0:
448,192,129780,128,0,129967:0:0:0:0:
64,192,129780,1,0,0:0:0:0:
192,192,129967,1,0,0:0:0:0:
64,192,130061,1,0,0:0:0:0:
320,192,130155,128,0,130342:0:0:0:0:
448,192,130155,1,0,0:0:0:0:
192,192,130342,1,0,0:0:0:0:
448,192,130530,1,0,0:0:0:0:
64,192,130530,128,0,130717:0:0:0:0:
320,192,130717,1,0,0:0:0:0:
448,192,130811,1,0,0:0:0:0:
192,192,130905,1,0,0:0:0:0:
64,192,130905,1,0,0:0:0:0:
320,192,131092,1,0,0:0:0:0:
192,192,131186,1,0,0:0:0:0:
448,192,131280,1,0,0:0:0:0:
64,192,131280,128,0,131467:0:0:0:0:
320,192,131467,1,0,0:0:0:0:
448,192,131561,1,0,0:0:0:0:
64,192,131655,1,0,0:0:0:0:
192,192,131655,128,0,131842:0:0:0:0:
320,192,131842,1,0,0:0:0:0:
448,192,131936,1,0,0:0:0:0:
64,192,132030,1,0,0:0:0:0:
320,192,132123,1,0,0:0:0:0:
64,192,132217,1,0,0:0:0:0:
448,192,132405,1,0,0:0:0:0:
64,192,132405,128,0,132592:0:0:0:0:
448,192,132592,128,0,132780:0:0:0:0:
320,192,132780,1,0,0:0:0:0:
320,192,132967,128,0,133155:0:0:0:0:
64,192,133155,1,0,0:0:0:0:
192,192,133155,1,0,0:0:0:0:
448,192,133248,1,0,0:0:0:0:
192,192,133342,1,0,0:0:0:0:
320,192,133436,1,0,0:0:0:0:
448,192,133530,1,0,0:0:0:0:
64,192,133530,128,0,133717:0:0:0:0:
320,192,133717,1,0,0:0:0:0:
192,192,133811,1,0,0:0:0:0:
64,192,133905,1,0,0:0:0:0:
448,192,133905,128,0,134092:0:0:0:0:
192,192,134092,1,0,0:0:0:0:
64,192,134280,128,0,134467:0:0:0:0:
448,192,134280,1,0,0:0:0:0:
320,192,134467,1,0,0:0:0:0:
448,192,134561,1,0,0:0:0:0:
192,192,134655,128,0,134842:0:0:0:0:
64,192,134655,1,0,0:0:0:0:
320,192,134842,1,0,0:0:0:0:
64,192,134936,1,0,0:0:0:0:
448,192,135030,1,0,0:0:0:0:
192,192,135123,1,0,0:0:0:0:
448,192,135217,1,0,0:0:0:0:
64,192,135405,128,0,135592:0:0:0:0:
448,192,135405,1,0,0:0:0:0:
192,192,135592,1,0,0:0:0:0:
320,192,135686,1,0,0:0:0:0:
448,192,135780,128,0,135967:0:0:0:0:
192,192,135967,1,0,0:0:0:0:
64,192,136061,1,0,0:0:0:0:
320,192,136155,128,0,136342:0:0:0:0:
448,192,136155,1,0,0:0:0:0:
192,192,136342,1,0,0:0:0:0:
320,192,136530,1,0,0:0:0:0:
192,192,136623,1,0,0:0:0:0:
320,192,136717,1,0,0:0:0:0:
448,192,136811,1,0,0:0:0:0:
64,192,136905,128,0,137092:0:0:0:0:
192,192,136905,1,0,0:0:0:0:
320,192,137092,1,0,0:0:0:0:
192,192,137186,1,0,0:0:0:0:
64,192,137280,128,0,137467:0:0:0:0:
320,192,137467,1,0,0:0:0:0:
448,192,137561,1,0,0:0:0:0:
64,192,137655,1,0,0:0:0:0:
192,192,137655,128,0,137842:0:0:0:0:
320,192,137842,1,0,0:0:0:0:
448,192,137936,1,0,0:0:0:0:
64,192,138030,1,0,0:0:0:0:
320,192,138123,1,0,0:0:0:0:
64,192,138217,1,0,0:0:0:0:
448,192,138405,1,0,0:0:0:0:
64,192,138405,128,0,138592:0:0:0:0:
192,192,138592,128,0,138780:0:0:0:0:
320,192,138780,1,0,0:0:0:0:
320,192,138967,1,0,0:0:0:0:
64,192,139061,1,0,0:0:0:0:
192,192,139155,1,0,0:0:0:0:
448,192,139155,128,0,139342:0:0:0:0:
192,192,139342,1,0,0:0:0:0:
320,192,139436,1,0,0:0:0:0:
64,192,139530,128,0,139717:0:0:0:0:
320,192,139717,1,0,0:0:0:0:
192,192,139811,1,0,0:0:0:0:
64,192,139905,1,0,0:0:0:0:
448,192,139905,128,0,140092:0:0:0:0:
192,192,140092,1,0,0:0:0:0:
320,192,140186,1,0,0:0:0:0:
64,192,140280,128,0,140467:0:0:0:0:
448,192,140280,1,0,0:0:0:0:
320,192,140467,1,0,0:0:0:0:
448,192,140561,1,0,0:0:0:0:
64,192,140655,1,0,0:0:0:0:
192,192,140655,128,0,140842:0:0:0:0:
320,192,140842,1,0,0:0:0:0:
64,192,140936,1,0,0:0:0:0:
448,192,141030,1,0,0:0:0:0:
192,192,141123,1,0,0:0:0:0:
448,192,141217,1,0,0:0:0:0:
448,192,141405,1,0,0:0:0:0:
64,192,141405,128,0,141592:0:0:0:0:
192,192,141592,1,0,0:0:0:0:
320,192,141686,1,0,0:0:0:0:
64,192,141780,1,0,0:0:0:0:
448,192,141780,128,0,141967:0:0:0:0:
192,192,141967,1,0,0:0:0:0:
64,192,142061,1,0,0:0:0:0:
448,192,142155,1,0,0:0:0:0:
320,192,142155,128,0,142342:0:0:0:0:
192,192,142342,1,0,0:0:0:0:
448,192,142436,1,0,0:0:0:0:
64,192,142530,128,0,142717:0:0:0:0:
192,192,142530,1,0,0:0:0:0:
320,192,142717,1,0,0:0:0:0:
448,192,142811,1,0,0:0:0:0:
64,192,142905,1,0,0:0:0:0:
192,192,142905,1,0,0:0:0:0:
64,192,143092,1,0,0:0:0:0:
448,192,143186,1,0,0:0:0:0:
64,192,143280,128,0,143467:0:0:0:0:
320,192,143467,1,0,0:0:0:0:
448,192,143561,1,0,0:0:0:0:
192,192,143655,128,0,143842:0:0:0:0:
64,192,143655,1,0,0:0:0:0:
320,192,143842,1,0,0:0:0:0:
448,192,143936,1,0,0:0:0:0:
64,192,144030,1,0,0:0:0:0:
320,192,144123,1,0,0:0:0:0:
64,192,144217,1,0,0:0:0:0:
64,192,144405,128,0,144592:0:0:0:0:
448,192,144405,1,0,0:0:0:0:
448,192,144592,128,0,144780:0:0:0:0:
192,192,144780,1,0,0:0:0:0:
64,192,144967,128,0,145155:0:0:0:0:
448,192,145155,1,0,0:0:0:0:
320,192,145155,1,0,0:0:0:0:
192,192,145342,128,0,145530:0:0:0:0:
448,192,145530,1,0,0:0:0:0:
64,192,145530,1,0,0:0:0:0:
320,192,145623,1,0,0:0:0:0:
448,192,145717,1,0,0:0:0:0:
192,192,145811,1,0,0:0:0:0:
448,192,145905,1,0,0:0:0:0:
64,192,145905,128,0,146092:0:0:0:0:
320,192,146092,128,0,146280:0:0:0:0:
64,192,146280,1,0,0:0:0:0:
192,192,146280,128,0,146467:0:0:0:0:
448,192,146467,1,0,0:0:0:0:
64,192,146561,1,0,0:0:0:0:
320,192,146655,1,0,0:0:0:0:
448,192,146655,128,0,146842:0:0:0:0:
192,192,146842,1,0,0:0:0:0:
320,192,146936,1,0,0:0:0:0:
192,192,147030,128,0,147405:0:0:0:0:
448,192,147217,1,0,0:0:0:0:
64,192,147405,1,0,0:0:0:0:
448,192,147405,1,0,0:0:0:0:
320,192,147498,1,0,0:0:0:0:
64,192,147592,1,0,0:0:0:0:
448,192,147686,1,0,0:0:0:0:
64,192,147780,128,0,147967:0:0:0:0:
448,192,147967,1,0,0:0:0:0:
192,192,148061,1,0,0:0:0:0:
64,192,148155,1,0,0:0:0:0:
448,192,148155,128,0,148342:0:0:0:0:
192,192,148342,1,0,0:0:0:0:
320,192,148436,1,0,0:0:0:0:
64,192,148530,128,0,148717:0:0:0:0:
448,192,148717,1,0,0:0:0:0:
320,192,148811,1,0,0:0:0:0:
192,192,148905,1,0,0:0:0:0:
64,192,148905,1,0,0:0:0:0:
192,192,149092,1,0,0:0:0:0:
320,192,149186,1,0,0:0:0:0:
192,192,149280,128,0,149467:0:0:0:0:
448,192,149467,1,0,0:0:0:0:
64,192,149561,1,0,0:0:0:0:
448,192,149655,128,0,149842:0:0:0:0:
320,192,149655,1,0,0:0:0:0:
192,192,149842,1,0,0:0:0:0:
320,192,149936,1,0,0:0:0:0:
192,192,150030,128,0,150405:0:0:0:0:
448,192,150217,1,0,0:0:0:0:
448,192,150405,1,0,0:0:0:0:
64,192,150405,1,0,0:0:0:0:
64,192,150592,1,0,0:0:0:0:
448,192,150686,1,0,0:0:0:0:
64,192,150780,128,0,150967:0:0:0:0:
448,192,150967,1,0,0:0:0:0:
192,192,151061,1,0,0:0:0:0:
448,192,151155,128,0,151342:0:0:0:0:
64,192,151155,1,0,0:0:0:0:
192,192,151342,1,0,0:0:0:0:
320,192,151436,1,0,0:0:0:0:
64,192,151530,128,0,151717:0:0:0:0:
192,192,151717,1,0,0:0:0:0:
320,192,151811,1,0,0:0:0:0:
64,192,151905,1,0,0:0:0:0:
448,192,151905,1,0,0:0:0:0:
192,192,152092,1,0,0:0:0:0:
320,192,152186,1,0,0:0:0:0:
192,192,152280,128,0,152467:0:0:0:0:
448,192,152467,1,0,0:0:0:0:
64,192,152561,1,0,0:0:0:0:
320,192,152655,1,0,0:0:0:0:
448,192,152655,128,0,152842:0:0:0:0:
192,192,152842,1,0,0:0:0:0:
320,192,152936,1,0,0:0:0:0:
192,192,153030,128,0,153405:0:0:0:0:
448,192,153217,1,0,0:0:0:0:
64,192,153405,1,0,0:0:0:0:
448,192,153405,1,0,0:0:0:0:
320,192,153498,1,0,0:0:0:0:
64,192,153592,1,0,0:0:0:0:
448,192,153686,1,0,0:0:0:0:
64,192,153780,128,0,153967:0:0:0:0:
448,192,153967,1,0,0:0:0:0:
192,192,154061,1,0,0:0:0:0:
64,192,154155,1,0,0:0:0:0:
448,192,154155,128,0,154342:0:0:0:0:
192,192,154342,1,0,0:0:0:0:
320,192,154436,1,0,0:0:0:0:
64,192,154530,128,0,154717:0:0:0:0:
448,192,154717,1,0,0:0:0:0:
320,192,154811,1,0,0:0:0:0:
192,192,154905,128,0,155092:0:0:0:0:
64,192,154905,1,0,0:0:0:0:
320,192,155092,1,0,0:0:0:0:
448,192,155186,1,0,0:0:0:0:
192,192,155280,128,0,155467:0:0:0:0:
64,192,155467,1,0,0:0:0:0:
448,192,155561,1,0,0:0:0:0:
192,192,155655,128,0,155842:0:0:0:0:
320,192,155655,1,0,0:0:0:0:
320,192,155842,1,0,0:0:0:0:
448,192,155936,1,0,0:0:0:0:
64,192,156030,1,0,0:0:0:0:
320,192,156123,1,0,0:0:0:0:
64,192,156217,1,0,0:0:0:0:
64,192,156405,128,0,156592:0:0:0:0:
448,192,156405,1,0,0:0:0:0:
448,192,156592,128,0,156780:0:0:0:0:
192,192,156780,1,0,0:0:0:0:
64,192,156967,128,0,157155:0:0:0:0:
448,192,157155,1,0,0:0:0:0:
320,192,157155,1,0,0:0:0:0:
192,192,157342,128,0,157530:0:0:0:0:
448,192,157530,1,0,0:0:0:0:
64,192,157530,1,0,0:0:0:0:
320,192,157623,1,0,0:0:0:0:
448,192,157717,128,0,157905:0:0:0:0:
64,192,157905,128,0,158092:0:0:0:0:
192,192,157905,1,0,0:0:0:0:
320,192,158092,128,0,158280:0:0:0:0:
192,192,158280,128,0,158467:0:0:0:0:
64,192,158280,1,0,0:0:0:0:
448,192,158467,1,0,0:0:0:0:
64,192,158561,1,0,0:0:0:0:
448,192,158655,128,0,158842:0:0:0:0:
320,192,158655,1,0,0:0:0:0:
192,192,158842,1,0,0:0:0:0:
320,192,158936,1,0,0:0:0:0:
192,192,159030,128,0,159405:0:0:0:0:
448,192,159217,1,0,0:0:0:0:
448,192,159405,1,0,0:0:0:0:
64,192,159405,1,0,0:0:0:0:
320,192,159498,1,0,0:0:0:0:
64,192,159592,1,0,0:0:0:0:
448,192,159686,1,0,0:0:0:0:
64,192,159780,128,0,159967:0:0:0:0:
448,192,159967,1,0,0:0:0:0:
192,192,160061,1,0,0:0:0:0:
448,192,160155,128,0,160342:0:0:0:0:
64,192,160155,1,0,0:0:0:0:
192,192,160342,1,0,0:0:0:0:
320,192,160436,1,0,0:0:0:0:
64,192,160530,128,0,160717:0:0:0:0:
448,192,160717,1,0,0:0:0:0:
320,192,160811,1,0,0:0:0:0:
64,192,160905,1,0,0:0:0:0:
192,192,160905,1,0,0:0:0:0:
192,192,161092,1,0,0:0:0:0:
320,192,161186,1,0,0:0:0:0:
192,192,161280,128,0,161467:0:0:0:0:
448,192,161467,1,0,0:0:0:0:
64,192,161561,1,0,0:0:0:0:
320,192,161655,1,0,0:0:0:0:
448,192,161655,128,0,161842:0:0:0:0:
192,192,161842,1,0,0:0:0:0:
320,192,161936,1,0,0:0:0:0:
192,192,162030,128,0,162405:0:0:0:0:
448,192,162217,1,0,0:0:0:0:
64,192,162405,1,0,0:0:0:0:
448,192,162405,1,0,0:0:0:0:
64,192,162592,1,0,0:0:0:0:
320,192,162686,1,0,0:0:0:0:
64,192,162780,128,0,162967:0:0:0:0:
448,192,162967,1,0,0:0:0:0:
192,192,163061,1,0,0:0:0:0:
64,192,163155,1,0,0:0:0:0:
448,192,163155,128,0,163342:0:0:0:0:
192,192,163342,1,0,0:0:0:0:
320,192,163436,1,0,0:0:0:0:
64,192,163530,128,0,163717:0:0:0:0:
192,192,163717,1,0,0:0:0:0:
320,192,163811,1,0,0:0:0:0:
448,192,163905,1,0,0:0:0:0:
64,192,163905,1,0,0:0:0:0:
192,192,164092,1,0,0:0:0:0:
320,192,164186,1,0,0:0:0:0:
192,192,164280,128,0,164467:0:0:0:0:
448,192,164280,1,0,0:0:0:0:
320,192,164467,1,0,0:0:0:0:
64,192,164561,1,0,0:0:0:0:
448,192,164655,128,0,164842:0:0:0:0:
320,192,164655,1,0,0:0:0:0:
192,192,164842,1,0,0:0:0:0:
320,192,164936,1,0,0:0:0:0:
192,192,165030,128,0,165405:0:0:0:0:
448,192,165217,1,0,0:0:0:0:
448,192,165405,1,0,0:0:0:0:
64,192,165405,1,0,0:0:0:0:
320,192,165498,1,0,0:0:0:0:
64,192,165592,1,0,0:0:0:0:
448,192,165686,1,0,0:0:0:0:
64,192,165780,128,0,165967:0:0:0:0:
320,192,165780,1,0,0:0:0:0:
448,192,165967,1,0,0:0:0:0:
192,192,166061,1,0,0:0:0:0:
448,192,166155,128,0,166342:0:0:0:0:
64,192,166155,1,0,0:0:0:0:
192,192,166342,1,0,0:0:0:0:
320,192,166436,1,0,0:0:0:0:
64,192,166530,128,0,166717:0:0:0:0:
448,192,166717,1,0,0:0:0:0:
320,192,166811,1,0,0:0:0:0:
192,192,166905,128,0,167092:0:0:0:0:
64,192,166905,1,0,0:0:0:0:
320,192,167092,1,0,0:0:0:0:
448,192,167186,1,0,0:0:0:0:
192,192,167280,128,0,167467:0:0:0:0:
64,192,167280,1,0,0:0:0:0:
448,192,167467,1,0,0:0:0:0:
64,192,167561,1,0,0:0:0:0:
320,192,167655,1,0,0:0:0:0:
192,192,167655,128,0,167842:0:0:0:0:
320,192,167842,1,0,0:0:0:0:
448,192,167936,1,0,0:0:0:0:
64,192,168030,1,0,0:0:0:0:
192,192,168030,1,0,0:0:0:0:
320,192,168123,1,0,0:0:0:0:
64,192,168217,1,0,0:0:0:0:
448,192,168405,1,0,0:0:0:0:
64,192,168405,128,0,168592:0:0:0:0:
448,192,168592,128,0,168780:0:0:0:0:
192,192,168780,1,0,0:0:0:0:
64,192,168780,1,0,0:0:0:0:
320,192,168967,1,0,0:0:0:0:
192,192,169061,1,0,0:0:0:0:
64,192,169155,1,0,0:0:0:0:
448,192,169155,1,0,0:0:0:0:
192,192,169342,1,0,0:0:0:0:
320,192,169436,1,0,0:0:0:0:
64,192,169530,1,0,0:0:0:0:
448,192,169530,1,0,0:0:0:0:
64,192,169717,1,0,0:0:0:0:
448,192,169717,1,0,0:0:0:0:
320,192,169905,1,0,0:0:0:0:
192,192,169905,128,0,170280:0:0:0:0:
64,192,170280,1,0,0:0:0:0:
320,192,170280,128,0,170655:0:0:0:0:
448,192,170655,1,0,0:0:0:0:
192,192,170655,128,0,170842:0:0:0:0:
64,192,170842,1,0,0:0:0:0:
320,192,171030,128,0,171405:0:0:0:0:
64,192,171405,128,0,171592:0:0:0:0:
448,192,171405,1,0,0:0:0:0:
192,192,171592,1,0,0:0:0:0:
448,192,171780,128,0,172155:0:0:0:0:
64,192,171967,1,0,0:0:0:0:
320,192,172155,1,0,0:0:0:0:
192,192,172342,1,0,0:0:0:0:
64,192,172530,128,0,172905:0:0:0:0:
448,192,172905,1,0,0:0:0:0:
320,192,173280,128,0,173655:0:0:0:0:
192,192,173655,128,0,173842:0:0:0:0:
448,192,173655,1,0,0:0:0:0:
64,192,173842,1,0,0:0:0:0:
320,192,174030,128,0,174405:0:0:0:0:
448,192,174405,1,0,0:0:0:0:
64,192,174405,128,0,174592:0:0:0:0:
192,192,174592,1,0,0:0:0:0:
448,192,174780,128,0,175155:0:0:0:0:
64,192,174967,1,0,0:0:0:0:
320,192,175155,1,0,0:0:0:0:
192,192,175342,1,0,0:0:0:0:
64,192,175530,128,0,175905:0:0:0:0:
448,192,175905,1,0,0:0:0:0:
320,192,176280,128,0,176655:0:0:0:0:
448,192,176655,1,0,0:0:0:0:
192,192,176655,128,0,176842:0:0:0:0:
64,192,176842,1,0,0:0:0:0:
320,192,177030,128,0,177405:0:0:0:0:
64,192,177405,128,0,177592:0:0:0:0:
448,192,177405,1,0,0:0:0:0:
192,192,177592,1,0,0:0:0:0:
448,192,177780,128,0,178155:0:0:0:0:
64,192,177967,1,0,0:0:0:0:
320,192,178155,1,0,0:0:0:0:
192,192,178342,1,0,0:0:0:0:
64,192,178530,128,0,178905:0:0:0:0:
448,192,178905,1,0,0:0:0:0:
64,192,179280,1,0,0:0:0:0:
448,192,179467,1,0,0:0:0:0:
64,192,179655,128,0,179842:0:0:0:0:
320,192,179842,1,0,0:0:0:0:
192,192,180030,1,0,0:0:0:0:
448,192,180217,1,0,0:0:0:0:
64,192,180405,128,0,180592:0:0:0:0:
320,192,180592,1,0,0:0:0:0:
192,192,180780,1,0,0:0:0:0:
448,192,180967,1,0,0:0:0:0:
64,192,181155,128,0,181342:0:0:0:0:
320,192,181342,1,0,0:0:0:0:
448,192,181436,1,0,0:0:0:0:
64,192,181530,128,0,181717:0:0:0:0:
320,192,181717,1,0,0:0:0:0:
192,192,181811,1,0,0:0:0:0:
64,192,181905,1,0,0:0:0:0:
448,192,181905,128,0,182280:0:0:0:0:
320,192,182280,128,0,182655:0:0:0:0:
64,192,182280,1,0,0:0:0:0:
192,192,182655,128,0,182842:0:0:0:0:
64,192,182842,1,0,0:0:0:0:
320,192,183030,128,0,183405:0:0:0:0:
64,192,183405,128,0,183592:0:0:0:0:
192,192,183592,1,0,0:0:0:0:
448,192,183780,1,0,0:0:0:0:
64,192,183967,1,0,0:0:0:0:
320,192,184155,1,0,0:0:0:0:
192,192,184342,1,0,0:0:0:0:
448,192,184530,1,0,0:0:0:0:
64,192,184905,1,0,0:0:0:0:
192,192,185092,1,0,0:0:0:0:
320,192,185280,128,0,185655:0:0:0:0:
192,192,185655,128,0,185842:0:0:0:0:
64,192,185842,1,0,0:0:0:0:
320,192,186030,128,0,186405:0:0:0:0:
64,192,186405,128,0,186592:0:0:0:0:
192,192,186592,1,0,0:0:0:0:
448,192,186780,1,0,0:0:0:0:
64,192,186967,1,0,0:0:0:0:
320,192,187155,1,0,0:0:0:0:
192,192,187342,1,0,0:0:0:0:
448,192,187530,1,0,0:0:0:0:
64,192,187905,1,0,0:0:0:0:
192,192,188092,1,0,0:0:0:0:
320,192,188280,128,0,188655:0:0:0:0:
448,192,188280,1,0,0:0:0:0:
192,192,188655,128,0,188842:0:0:0:0:
64,192,188842,1,0,0:0:0:0:
320,192,189030,128,0,189405:0:0:0:0:
64,192,189405,128,0,189592:0:0:0:0:
192,192,189592,1,0,0:0:0:0:
448,192,189780,1,0,0:0:0:0:
320,192,189780,1,0,0:0:0:0:
64,192,189967,1,0,0:0:0:0:
320,192,190155,1,0,0:0:0:0:
192,192,190342,1,0,0:0:0:0:
448,192,190530,1,0,0:0:0:0:
64,192,190905,1,0,0:0:0:0:
192,192,191092,1,0,0:0:0:0:
320,192,191280,1,0,0:0:0:0:
448,192,191280,1,0,0:0:0:0:
64,192,191467,1,0,0:0:0:0:
448,192,191655,1,0,0:0:0:0:
320,192,191842,1,0,0:0:0:0:
192,192,192030,1,0,0:0:0:0:
64,192,192030,1,0,0:0:0:0:
448,192,192217,1,0,0:0:0:0:
64,192,192405,1,0,0:0:0:0:
192,192,192592,1,0,0:0:0:0:
320,192,192780,1,0,0:0:0:0:
448,192,192780,1,0,0:0:0:0:
192,192,192967,1,0,0:0:0:0:
64,192,193155,1,0,0:0:0:0:
448,192,193155,1,0,0:0:0:0:
320,192,193342,1,0,0:0:0:0:
192,192,193530,1,0,0:0:0:0:
192,192,193717,1,0,0:0:0:0:
64,192,193905,128,0,194233:0:0:0:0:
192,192,193905,128,0,194233:0:0:0:0:
