osu file format v14

[General]
AudioFilename: audio.ogg
AudioLeadIn: 0
PreviewTime: 120967
Countdown: 0
SampleSet: Soft
StackLeniency: 0.7
Mode: 3
LetterboxInBreaks: 0
SpecialStyle: 0
WidescreenStoryboard: 0

[Editor]
Bookmarks: 780,12780,24780,36780,48780,60780,72780,84780,96780,108780,122280,134280,146280,158280,170280,182280
DistanceSpacing: 0.8
BeatDivisor: 4
GridSize: 32
TimelineZoom: 2.05

[Metadata]
Title:September (yomoha remix)
TitleUnicode:September (yomoha remix)
Artist:Earth, Wind & Fire
ArtistUnicode:Earth, Wind & Fire
Creator:epic man 2
Version:BA DEE YA
Source:
Tags:em2 ln electronic english happy future bass ヨモハ remastered ver version r&b arc columbia records can't hide love disco the best of vol. 1 funk maurice white phillip bailey verdine ralph johnson al mckay larry dunn fred johnny graham rahmlee micheal davis louis satterfield andrew woolfolk night at the museum trolls the nice guys polar ultimate collection
BeatmapID:3774370
BeatmapSetID:1838172

[Difficulty]
HPDrainRate:8
CircleSize:4
OverallDifficulty:8
ApproachRate:5
SliderMultiplier:1.4
SliderTickRate:1

[Events]
//Background and Video events
0,0,"ebic.jpg",0,0
//Break Periods
//Storyboard Layer 0 (Background)
//Storyboard Layer 1 (Fail)
//Storyboard Layer 2 (Pass)
//Storyboard Layer 3 (Foreground)
//Storyboard Layer 4 (Overlay)
//Storyboard Sound Samples

[TimingPoints]
780,375,4,2,1,70,1,0
48780,-100,4,2,1,70,0,1
71280,-100,4,2,1,70,0,0
122280,-100,4,2,1,70,0,1
146092,-100,4,2,1,70,0,0
146280,-100,4,2,1,70,0,1
169905,-100,4,2,1,70,0,0

[HitObjects]
64,192,30,5,0,0:0:0:0:
320,192,76,1,0,0:0:0:0:
192,192,123,1,0,0:0:0:0:
448,192,170,1,0,0:0:0:0:
64,192,217,128,0,264:0:0:0:0:
320,192,264,1,0,0:0:0:0:
192,192,311,1,0,0:0:0:0:
64,192,358,1,0,0:0:0:0:
448,192,405,128,0,451:0:0:0:0:
192,192,451,1,0,0:0:0:0:
320,192,498,1,0,0:0:0:0:
64,192,545,1,0,0:0:0:0:
192,192,592,128,0,639:0:0:0:0:
448,192,639,1,0,0:0:0:0:
64,192,686,1,0,0:0:0:0:
192,192,733,1,0,0:0:0:0:
320,192,780,128,0,873:0:0:0:0:
448,192,780,128,0,873:0:0:0:0:
320,192,967,128,0,1342:0:0:0:0:
448,192,967,128,0,1014:0:0:0:0:
192,192,1342,128,0,1389:0:0:0:0:
448,192,1717,128,0,1764:0:0:0:0:
448,192,1905,1,0,0:0:0:0:
192,192,2092,128,0,2139:0:0:0:0:
64,192,2280,1,0,0:0:0:0:
192,192,2326,128,0,2467:0:0:0:0:
320,192,2467,128,0,2561:0:0:0:0:
448,192,2655,128,0,2748:0:0:0:0:
64,192,2842,128,0,2936:0:0:0:0:
448,192,2842,128,0,2889:0:0:0:0:
320,192,2936,128,0,3030:0:0:0:0:
64,192,3030,128,0,3217:0:0:0:0:
192,192,3123,1,0,0:0:0:0:
448,192,3217,1,0,0:0:0:0:
64,192,3405,1,0,0:0:0:0:
320,192,3592,128,0,3686:0:0:0:0:
320,192,3780,128,0,3967:0:0:0:0:
64,192,3780,128,0,3826:0:0:0:0:
448,192,3967,128,0,4014:0:0:0:0:
192,192,4155,1,0,0:0:0:0:
320,192,4248,1,0,0:0:0:0:
192,192,4342,128,0,4389:0:0:0:0:
320,192,4436,1,0,0:0:0:0:
448,192,4530,1,0,0:0:0:0:
448,192,4717,128,0,4764:0:0:0:0:
192,192,4905,128,0,4998:0:0:0:0:
320,192,5092,128,0,5186:0:0:0:0:
448,192,5092,128,0,5139:0:0:0:0:
192,192,5280,128,0,5373:0:0:0:0:
320,192,5467,128,0,5561:0:0:0:0:
448,192,5655,128,0,5748:0:0:0:0:
192,192,5842,128,0,5936:0:0:0:0:
448,192,5842,128,0,5889:0:0:0:0:
320,192,5936,128,0,6030:0:0:0:0:
64,192,6030,128,0,6217:0:0:0:0:
192,192,6123,1,0,0:0:0:0:
320,192,6217,1,0,0:0:0:0:
64,192,6405,1,0,0:0:0:0:
192,192,6592,128,0,6780:0:0:0:0:
320,192,6780,128,0,6967:0:0:0:0:
64,192,6780,128,0,6826:0:0:0:0:
448,192,6967,128,0,7014:0:0:0:0:
64,192,7061,1,0,0:0:0:0:
448,192,7155,1,0,0:0:0:0:
192,192,7342,128,0,7389:0:0:0:0:
320,192,7530,1,0,0:0:0:0:
64,192,7623,1,0,0:0:0:0:
448,192,7717,128,0,7764:0:0:0:0:
64,192,7905,128,0,8092:0:0:0:0:
320,192,8092,128,0,8186:0:0:0:0:
192,192,8092,128,0,8139:0:0:0:0:
192,192,8280,128,0,8373:0:0:0:0:
320,192,8467,128,0,8561:0:0:0:0:
448,192,8655,128,0,8717:0:0:0:0:
192,192,8842,128,0,8936:0:0:0:0:
64,192,8842,128,0,8889:0:0:0:0:
448,192,8936,128,0,9030:0:0:0:0:
64,192,9030,1,0,0:0:0:0:
192,192,9071,128,0,9280:0:0:0:0:
64,192,9405,128,0,9592:0:0:0:0:
320,192,9592,128,0,9780:0:0:0:0:
448,192,9726,1,0,0:0:0:0:
192,192,9756,1,0,0:0:0:0:
64,192,9780,128,0,11092:0:0:0:0:
320,192,10405,1,0,0:0:0:0:
192,192,10530,128,0,10967:0:0:0:0:
448,192,11069,1,0,0:0:0:0:
192,192,11092,1,0,0:0:0:0:
320,192,11155,128,0,11467:0:0:0:0:
64,192,11186,1,0,0:0:0:0:
192,192,11280,1,0,0:0:0:0:
448,192,11373,1,0,0:0:0:0:
192,192,11467,1,0,0:0:0:0:
320,192,11561,1,0,0:0:0:0:
64,192,11655,128,0,12030:0:0:0:0:
192,192,11748,1,0,0:0:0:0:
448,192,12030,1,0,0:0:0:0:
320,192,12076,1,0,0:0:0:0:
192,192,12123,1,0,0:0:0:0:
448,192,12170,1,0,0:0:0:0:
64,192,12217,128,0,12264:0:0:0:0:
320,192,12264,1,0,0:0:0:0:
192,192,12311,1,0,0:0:0:0:
64,192,12358,1,0,0:0:0:0:
448,192,12405,128,0,12451:0:0:0:0:
192,192,12451,1,0,0:0:0:0:
320,192,12498,1,0,0:0:0:0:
64,192,12545,1,0,0:0:0:0:
448,192,12592,128,0,12639:0:0:0:0:
320,192,12639,1,0,0:0:0:0:
64,192,12686,1,0,0:0:0:0:
192,192,12733,1,0,0:0:0:0:
448,192,12780,128,0,12873:0:0:0:0:
320,192,12780,128,0,12873:0:0:0:0:
320,192,12967,128,0,13342:0:0:0:0:
64,192,13155,1,0,0:0:0:0:
192,192,13342,128,0,13389:0:0:0:0:
192,192,13530,1,0,0:0:0:0:
448,192,13717,128,0,13764:0:0:0:0:
64,192,13717,128,0,13811:0:0:0:0:
448,192,13905,1,0,0:0:0:0:
192,192,13905,128,0,13998:0:0:0:0:
192,192,14092,128,0,14186:0:0:0:0:
320,192,14186,128,0,14280:0:0:0:0:
64,192,14280,1,0,0:0:0:0:
192,192,14280,128,0,14467:0:0:0:0:
320,192,14467,128,0,14655:0:0:0:0:
448,192,14655,128,0,14748:0:0:0:0:
192,192,14655,1,0,0:0:0:0:
448,192,14842,128,0,14889:0:0:0:0:
192,192,14842,128,0,14936:0:0:0:0:
320,192,14936,128,0,15030:0:0:0:0:
64,192,15030,128,0,15217:0:0:0:0:
192,192,15030,1,0,0:0:0:0:
448,192,15217,1,0,0:0:0:0:
64,192,15405,1,0,0:0:0:0:
192,192,15405,128,0,15498:0:0:0:0:
448,192,15592,128,0,15780:0:0:0:0:
64,192,15780,1,0,0:0:0:0:
192,192,15780,128,0,15873:0:0:0:0:
320,192,15873,128,0,16061:0:0:0:0:
192,192,15967,128,0,16108:0:0:0:0:
64,192,16061,128,0,16155:0:0:0:0:
448,192,16155,1,0,0:0:0:0:
320,192,16342,128,0,16389:0:0:0:0:
64,192,16530,1,0,0:0:0:0:
448,192,16717,128,0,16764:0:0:0:0:
192,192,16905,128,0,16998:0:0:0:0:
64,192,16905,1,0,0:0:0:0:
320,192,17092,128,0,17186:0:0:0:0:
448,192,17092,128,0,17139:0:0:0:0:
192,192,17280,128,0,17373:0:0:0:0:
448,192,17280,1,0,0:0:0:0:
320,192,17467,128,0,17561:0:0:0:0:
448,192,17655,128,0,17748:0:0:0:0:
192,192,17655,1,0,0:0:0:0:
448,192,17842,128,0,17889:0:0:0:0:
64,192,17842,128,0,17936:0:0:0:0:
320,192,17936,128,0,18030:0:0:0:0:
64,192,18030,128,0,18311:0:0:0:0:
192,192,18030,1,0,0:0:0:0:
320,192,18217,1,0,0:0:0:0:
192,192,18405,1,0,0:0:0:0:
64,192,18405,128,0,18498:0:0:0:0:
192,192,18592,128,0,18780:0:0:0:0:
64,192,18780,128,0,18826:0:0:0:0:
320,192,18780,128,0,18967:0:0:0:0:
448,192,18967,128,0,19014:0:0:0:0:
64,192,19061,1,0,0:0:0:0:
448,192,19155,1,0,0:0:0:0:
192,192,19342,128,0,19389:0:0:0:0:
320,192,19436,1,0,0:0:0:0:
192,192,19530,1,0,0:0:0:0:
64,192,19623,1,0,0:0:0:0:
448,192,19717,128,0,19764:0:0:0:0:
64,192,19905,128,0,20092:0:0:0:0:
192,192,19905,1,0,0:0:0:0:
320,192,20092,128,0,20186:0:0:0:0:
448,192,20092,128,0,20139:0:0:0:0:
192,192,20280,128,0,20373:0:0:0:0:
448,192,20280,1,0,0:0:0:0:
320,192,20467,128,0,20561:0:0:0:0:
448,192,20655,128,0,20717:0:0:0:0:
192,192,20655,1,0,0:0:0:0:
64,192,20842,128,0,20936:0:0:0:0:
192,192,20842,128,0,20889:0:0:0:0:
448,192,20936,128,0,21030:0:0:0:0:
64,192,21030,1,0,0:0:0:0:
192,192,21030,128,0,21217:0:0:0:0:
320,192,21217,1,0,0:0:0:0:
64,192,21405,128,0,21592:0:0:0:0:
192,192,21405,1,0,0:0:0:0:
320,192,21592,128,0,21780:0:0:0:0:
448,192,21686,1,0,0:0:0:0:
64,192,21780,128,0,22342:0:0:0:0:
192,192,21780,128,0,21826:0:0:0:0:
192,192,22155,1,0,0:0:0:0:
320,192,22155,1,0,0:0:0:0:
448,192,22342,1,0,0:0:0:0:
320,192,22405,1,0,0:0:0:0:
192,192,22467,1,0,0:0:0:0:
448,192,22530,1,0,0:0:0:0:
64,192,22530,1,0,0:0:0:0:
320,192,22623,1,0,0:0:0:0:
192,192,22717,128,0,22811:0:0:0:0:
448,192,22905,1,0,0:0:0:0:
192,192,22905,128,0,22998:0:0:0:0:
320,192,22998,128,0,23092:0:0:0:0:
192,192,23092,128,0,23186:0:0:0:0:
64,192,23186,128,0,23280:0:0:0:0:
320,192,23280,128,0,23373:0:0:0:0:
448,192,23280,1,0,0:0:0:0:
64,192,23373,128,0,23467:0:0:0:0:
192,192,23467,128,0,23561:0:0:0:0:
320,192,23467,1,0,0:0:0:0:
448,192,23655,1,0,0:0:0:0:
448,192,23748,1,0,0:0:0:0:
64,192,23842,1,0,0:0:0:0:
320,192,23842,128,0,23936:0:0:0:0:
64,192,23936,1,0,0:0:0:0:
448,192,24030,1,0,0:0:0:0:
320,192,24076,1,0,0:0:0:0:
192,192,24123,1,0,0:0:0:0:
64,192,24170,1,0,0:0:0:0:
448,192,24217,128,0,24311:0:0:0:0:
192,192,24264,1,0,0:0:0:0:
320,192,24311,1,0,0:0:0:0:
448,192,24358,1,0,0:0:0:0:
64,192,24405,128,0,24498:0:0:0:0:
320,192,24451,1,0,0:0:0:0:
192,192,24498,1,0,0:0:0:0:
64,192,24545,1,0,0:0:0:0:
448,192,24592,1,0,0:0:0:0:
320,192,24639,1,0,0:0:0:0:
64,192,24686,1,0,0:0:0:0:
192,192,24733,1,0,0:0:0:0:
448,192,24780,1,0,0:0:0:0:
320,192,24780,128,0,25155:0:0:0:0:
448,192,24967,1,0,0:0:0:0:
448,192,25155,128,0,25342:0:0:0:0:
64,192,25155,1,0,0:0:0:0:
192,192,25248,1,0,0:0:0:0:
320,192,25342,128,0,25717:0:0:0:0:
64,192,25342,128,0,25389:0:0:0:0:
192,192,25436,1,0,0:0:0:0:
448,192,25530,1,0,0:0:0:0:
64,192,25530,1,0,0:0:0:0:
192,192,25717,1,0,0:0:0:0:
64,192,25905,1,0,0:0:0:0:
448,192,25905,1,0,0:0:0:0:
320,192,26092,1,0,0:0:0:0:
192,192,26280,128,0,26373:0:0:0:0:
64,192,26280,1,0,0:0:0:0:
448,192,26467,128,0,26561:0:0:0:0:
64,192,26467,1,0,0:0:0:0:
320,192,26655,128,0,26748:0:0:0:0:
64,192,26655,1,0,0:0:0:0:
192,192,26842,128,0,26936:0:0:0:0:
448,192,26842,128,0,26889:0:0:0:0:
64,192,27030,128,0,27405:0:0:0:0:
320,192,27030,1,0,0:0:0:0:
448,192,27217,1,0,0:0:0:0:
192,192,27405,128,0,27592:0:0:0:0:
448,192,27405,1,0,0:0:0:0:
320,192,27592,1,0,0:0:0:0:
320,192,27780,128,0,28155:0:0:0:0:
64,192,27780,1,0,0:0:0:0:
64,192,27967,1,0,0:0:0:0:
64,192,28155,1,0,0:0:0:0:
448,192,28155,128,0,28342:0:0:0:0:
192,192,28248,1,0,0:0:0:0:
320,192,28342,128,0,28717:0:0:0:0:
64,192,28342,128,0,28389:0:0:0:0:
192,192,28436,1,0,0:0:0:0:
448,192,28530,1,0,0:0:0:0:
64,192,28530,1,0,0:0:0:0:
192,192,28717,1,0,0:0:0:0:
448,192,28905,1,0,0:0:0:0:
64,192,28905,1,0,0:0:0:0:
320,192,28998,128,0,29280:0:0:0:0:
192,192,29092,1,0,0:0:0:0:
64,192,29280,1,0,0:0:0:0:
192,192,29280,128,0,29373:0:0:0:0:
448,192,29467,128,0,29561:0:0:0:0:
64,192,29467,1,0,0:0:0:0:
64,192,29655,1,0,0:0:0:0:
320,192,29655,128,0,29748:0:0:0:0:
192,192,29842,128,0,29936:0:0:0:0:
448,192,29842,128,0,29889:0:0:0:0:
320,192,30030,1,0,0:0:0:0:
64,192,30030,128,0,30217:0:0:0:0:
448,192,30217,1,0,0:0:0:0:
448,192,30405,1,0,0:0:0:0:
192,192,30405,128,0,30592:0:0:0:0:
64,192,30405,1,0,0:0:0:0:
320,192,30592,1,0,0:0:0:0:
64,192,30780,1,0,0:0:0:0:
320,192,30780,128,0,31155:0:0:0:0:
64,192,30967,1,0,0:0:0:0:
448,192,31155,128,0,31342:0:0:0:0:
64,192,31155,1,0,0:0:0:0:
192,192,31248,1,0,0:0:0:0:
320,192,31342,128,0,31717:0:0:0:0:
64,192,31342,128,0,31389:0:0:0:0:
192,192,31436,1,0,0:0:0:0:
448,192,31530,1,0,0:0:0:0:
64,192,31530,1,0,0:0:0:0:
192,192,31717,1,0,0:0:0:0:
64,192,31905,1,0,0:0:0:0:
448,192,31905,1,0,0:0:0:0:
320,192,32092,1,0,0:0:0:0:
192,192,32280,128,0,32373:0:0:0:0:
64,192,32280,1,0,0:0:0:0:
448,192,32467,128,0,32561:0:0:0:0:
64,192,32467,1,0,0:0:0:0:
320,192,32655,128,0,32748:0:0:0:0:
64,192,32655,1,0,0:0:0:0:
192,192,32842,128,0,32936:0:0:0:0:
448,192,32842,128,0,32889:0:0:0:0:
192,192,33030,128,0,33405:0:0:0:0:
320,192,33030,1,0,0:0:0:0:
448,192,33217,1,0,0:0:0:0:
64,192,33405,128,0,33498:0:0:0:0:
448,192,33405,1,0,0:0:0:0:
320,192,33592,128,0,33780:0:0:0:0:
448,192,33686,1,0,0:0:0:0:
192,192,33780,128,0,36030:0:0:0:0:
64,192,33780,1,0,0:0:0:0:
320,192,33967,1,0,0:0:0:0:
64,192,34155,1,0,0:0:0:0:
448,192,34155,1,0,0:0:0:0:
320,192,34342,1,0,0:0:0:0:
448,192,34436,1,0,0:0:0:0:
64,192,34530,1,0,0:0:0:0:
320,192,34530,1,0,0:0:0:0:
64,192,34717,1,0,0:0:0:0:
320,192,34905,1,0,0:0:0:0:
448,192,34905,1,0,0:0:0:0:
320,192,35092,1,0,0:0:0:0:
64,192,35280,1,0,0:0:0:0:
448,192,35280,1,0,0:0:0:0:
320,192,35467,1,0,0:0:0:0:
64,192,35592,1,0,0:0:0:0:
320,192,35655,1,0,0:0:0:0:
448,192,35655,1,0,0:0:0:0:
320,192,35842,1,0,0:0:0:0:
448,192,36030,128,0,36123:0:0:0:0:
64,192,36076,1,0,0:0:0:0:
320,192,36123,1,0,0:0:0:0:
192,192,36170,1,0,0:0:0:0:
448,192,36217,128,0,36311:0:0:0:0:
64,192,36264,1,0,0:0:0:0:
192,192,36311,1,0,0:0:0:0:
320,192,36358,1,0,0:0:0:0:
448,192,36405,128,0,36498:0:0:0:0:
64,192,36451,1,0,0:0:0:0:
320,192,36498,1,0,0:0:0:0:
192,192,36545,1,0,0:0:0:0:
448,192,36592,1,0,0:0:0:0:
320,192,36639,1,0,0:0:0:0:
192,192,36686,1,0,0:0:0:0:
64,192,36733,1,0,0:0:0:0:
448,192,36780,1,0,0:0:0:0:
320,192,36780,128,0,37155:0:0:0:0:
192,192,36967,1,0,0:0:0:0:
192,192,37155,128,0,37248:0:0:0:0:
448,192,37155,1,0,0:0:0:0:
64,192,37342,128,0,37436:0:0:0:0:
320,192,37342,1,0,0:0:0:0:
320,192,37530,128,0,37905:0:0:0:0:
64,192,37530,1,0,0:0:0:0:
448,192,37717,128,0,37905:0:0:0:0:
192,192,37905,128,0,37998:0:0:0:0:
64,192,37905,1,0,0:0:0:0:
64,192,38092,128,0,38186:0:0:0:0:
64,192,38280,1,0,0:0:0:0:
448,192,38280,128,0,38655:0:0:0:0:
320,192,38467,128,0,38655:0:0:0:0:
192,192,38655,128,0,38748:0:0:0:0:
64,192,38655,1,0,0:0:0:0:
64,192,38842,128,0,38936:0:0:0:0:
320,192,39030,128,0,39405:0:0:0:0:
192,192,39030,1,0,0:0:0:0:
448,192,39217,128,0,39405:0:0:0:0:
192,192,39405,128,0,39498:0:0:0:0:
64,192,39405,1,0,0:0:0:0:
448,192,39592,1,0,0:0:0:0:
320,192,39780,128,0,40155:0:0:0:0:
64,192,39780,1,0,0:0:0:0:
448,192,39967,128,0,40061:0:0:0:0:
448,192,40155,1,0,0:0:0:0:
192,192,40155,128,0,40248:0:0:0:0:
320,192,40342,1,0,0:0:0:0:
64,192,40342,128,0,40436:0:0:0:0:
64,192,40530,1,0,0:0:0:0:
320,192,40530,128,0,40905:0:0:0:0:
448,192,40717,128,0,40905:0:0:0:0:
64,192,40905,1,0,0:0:0:0:
192,192,40905,128,0,40998:0:0:0:0:
64,192,41092,128,0,41186:0:0:0:0:
64,192,41280,1,0,0:0:0:0:
448,192,41280,128,0,41655:0:0:0:0:
320,192,41467,128,0,41655:0:0:0:0:
64,192,41655,1,0,0:0:0:0:
192,192,41655,128,0,41748:0:0:0:0:
64,192,41842,128,0,41936:0:0:0:0:
192,192,42030,1,0,0:0:0:0:
320,192,42030,128,0,42405:0:0:0:0:
448,192,42217,128,0,42405:0:0:0:0:
64,192,42405,1,0,0:0:0:0:
192,192,42405,128,0,42498:0:0:0:0:
448,192,42592,1,0,0:0:0:0:
320,192,42780,128,0,43155:0:0:0:0:
64,192,42780,1,0,0:0:0:0:
448,192,42967,128,0,43061:0:0:0:0:
192,192,43155,128,0,43248:0:0:0:0:
448,192,43155,1,0,0:0:0:0:
64,192,43342,128,0,43436:0:0:0:0:
320,192,43342,1,0,0:0:0:0:
448,192,43530,128,0,43905:0:0:0:0:
64,192,43530,1,0,0:0:0:0:
320,192,43717,128,0,43905:0:0:0:0:
192,192,43717,1,0,0:0:0:0:
64,192,43905,1,0,0:0:0:0:
192,192,43905,1,0,0:0:0:0:
320,192,43967,1,0,0:0:0:0:
64,192,44030,1,0,0:0:0:0:
192,192,44092,1,0,0:0:0:0:
64,192,44280,1,0,0:0:0:0:
448,192,44280,1,0,0:0:0:0:
448,192,44467,128,0,44655:0:0:0:0:
320,192,44467,1,0,0:0:0:0:
192,192,44655,128,0,44748:0:0:0:0:
64,192,44655,1,0,0:0:0:0:
320,192,44842,128,0,45030:0:0:0:0:
192,192,44842,1,0,0:0:0:0:
64,192,45030,1,0,0:0:0:0:
448,192,45030,1,0,0:0:0:0:
192,192,45217,1,0,0:0:0:0:
448,192,45217,128,0,45311:0:0:0:0:
192,192,45405,1,0,0:0:0:0:
320,192,45405,1,0,0:0:0:0:
448,192,45498,1,0,0:0:0:0:
64,192,45592,1,0,0:0:0:0:
320,192,45592,128,0,45686:0:0:0:0:
64,192,45780,1,0,0:0:0:0:
448,192,45780,1,0,0:0:0:0:
192,192,45873,1,0,0:0:0:0:
448,192,45967,1,0,0:0:0:0:
64,192,46061,1,0,0:0:0:0:
192,192,46155,1,0,0:0:0:0:
448,192,46155,1,0,0:0:0:0:
320,192,46248,1,0,0:0:0:0:
192,192,46342,1,0,0:0:0:0:
448,192,46436,1,0,0:0:0:0:
192,192,46530,1,0,0:0:0:0:
64,192,46530,1,0,0:0:0:0:
320,192,46623,1,0,0:0:0:0:
64,192,46717,1,0,0:0:0:0:
448,192,46717,1,0,0:0:0:0:
192,192,46811,1,0,0:0:0:0:
64,192,46905,1,0,0:0:0:0:
320,192,46905,1,0,0:0:0:0:
448,192,46998,1,0,0:0:0:0:
192,192,47092,1,0,0:0:0:0:
64,192,47092,1,0,0:0:0:0:
192,192,47186,1,0,0:0:0:0:
64,192,47280,1,0,0:0:0:0:
448,192,47280,1,0,0:0:0:0:
320,192,47373,1,0,0:0:0:0:
64,192,47467,1,0,0:0:0:0:
448,192,47514,1,0,0:0:0:0:
192,192,47561,1,0,0:0:0:0:
320,192,47608,1,0,0:0:0:0:
64,192,47655,1,0,0:0:0:0:
448,192,47655,1,0,0:0:0:0:
192,192,47748,1,0,0:0:0:0:
448,192,47842,1,0,0:0:0:0:
320,192,47889,1,0,0:0:0:0:
192,192,47936,1,0,0:0:0:0:
64,192,47983,1,0,0:0:0:0:
320,192,48030,1,0,0:0:0:0:
448,192,48030,1,0,0:0:0:0:
192,192,48076,1,0,0:0:0:0:
64,192,48123,1,0,0:0:0:0:
320,192,48170,1,0,0:0:0:0:
448,192,48217,1,0,0:0:0:0:
192,192,48217,1,0,0:0:0:0:
64,192,48264,1,0,0:0:0:0:
320,192,48311,1,0,0:0:0:0:
192,192,48358,1,0,0:0:0:0:
64,192,48405,1,0,0:0:0:0:
448,192,48451,1,0,0:0:0:0:
192,192,48498,1,0,0:0:0:0:
320,192,48545,1,0,0:0:0:0:
64,192,48592,1,0,0:0:0:0:
192,192,48639,1,0,0:0:0:0:
320,192,48686,1,0,0:0:0:0:
448,192,48733,1,0,0:0:0:0:
192,192,48780,128,0,48967:0:0:0:0:
64,192,48780,128,0,48873:0:0:0:0:
320,192,48873,128,0,49061:0:0:0:0:
448,192,48967,128,0,49061:0:0:0:0:
64,192,49061,128,0,49155:0:0:0:0:
320,192,49155,128,0,49248:0:0:0:0:
192,192,49155,1,0,0:0:0:0:
448,192,49248,128,0,49342:0:0:0:0:
64,192,49342,128,0,49530:0:0:0:0:
320,192,49436,128,0,49530:0:0:0:0:
448,192,49530,1,0,0:0:0:0:
192,192,49530,128,0,49623:0:0:0:0:
64,192,49623,128,0,49811:0:0:0:0:
192,192,49717,128,0,49811:0:0:0:0:
448,192,49811,128,0,49905:0:0:0:0:
64,192,49905,1,0,0:0:0:0:
192,192,49905,128,0,49998:0:0:0:0:
320,192,49998,128,0,50186:0:0:0:0:
64,192,50092,128,0,50186:0:0:0:0:
448,192,50186,128,0,50280:0:0:0:0:
192,192,50280,1,0,0:0:0:0:
64,192,50280,128,0,50467:0:0:0:0:
320,192,50373,128,0,50467:0:0:0:0:
448,192,50467,128,0,50561:0:0:0:0:
64,192,50561,128,0,50655:0:0:0:0:
320,192,50655,1,0,0:0:0:0:
192,192,50655,128,0,50842:0:0:0:0:
448,192,50748,128,0,50842:0:0:0:0:
64,192,50842,128,0,51030:0:0:0:0:
320,192,50936,128,0,51030:0:0:0:0:
192,192,51030,128,0,51123:0:0:0:0:
448,192,51030,1,0,0:0:0:0:
64,192,51123,128,0,51217:0:0:0:0:
320,192,51217,128,0,51405:0:0:0:0:
448,192,51311,128,0,51405:0:0:0:0:
64,192,51405,1,0,0:0:0:0:
192,192,51405,128,0,51498:0:0:0:0:
448,192,51498,128,0,51686:0:0:0:0:
320,192,51592,128,0,51686:0:0:0:0:
64,192,51686,128,0,51780:0:0:0:0:
448,192,51780,1,0,0:0:0:0:
320,192,51780,128,0,51967:0:0:0:0:
192,192,51873,128,0,51967:0:0:0:0:
64,192,51967,128,0,52155:0:0:0:0:
448,192,52061,128,0,52155:0:0:0:0:
320,192,52155,1,0,0:0:0:0:
192,192,52155,128,0,52248:0:0:0:0:
448,192,52248,128,0,52342:0:0:0:0:
64,192,52342,128,0,52530:0:0:0:0:
320,192,52436,128,0,52530:0:0:0:0:
448,192,52530,1,0,0:0:0:0:
192,192,52530,128,0,52623:0:0:0:0:
64,192,52623,128,0,52811:0:0:0:0:
320,192,52717,128,0,52811:0:0:0:0:
448,192,52811,128,0,52905:0:0:0:0:
64,192,52905,1,0,0:0:0:0:
192,192,52905,128,0,52998:0:0:0:0:
320,192,52998,128,0,53092:0:0:0:0:
64,192,53092,128,0,53280:0:0:0:0:
448,192,53186,128,0,53280:0:0:0:0:
192,192,53280,128,0,53373:0:0:0:0:
320,192,53280,1,0,0:0:0:0:
64,192,53373,128,0,53467:0:0:0:0:
320,192,53467,128,0,53655:0:0:0:0:
64,192,53561,128,0,53655:0:0:0:0:
192,192,53655,1,0,0:0:0:0:
448,192,53655,128,0,53748:0:0:0:0:
320,192,53748,128,0,53842:0:0:0:0:
448,192,53842,128,0,54030:0:0:0:0:
64,192,53842,128,0,53936:0:0:0:0:
192,192,53936,128,0,54030:0:0:0:0:
64,192,54030,1,0,0:0:0:0:
320,192,54030,128,0,54123:0:0:0:0:
192,192,54123,128,0,54217:0:0:0:0:
320,192,54217,128,0,54405:0:0:0:0:
448,192,54311,128,0,54405:0:0:0:0:
64,192,54405,1,0,0:0:0:0:
192,192,54405,128,0,54498:0:0:0:0:
448,192,54498,128,0,54686:0:0:0:0:
320,192,54592,128,0,54686:0:0:0:0:
64,192,54686,128,0,54780:0:0:0:0:
320,192,54780,128,0,54967:0:0:0:0:
448,192,54780,128,0,54873:0:0:0:0:
192,192,54873,128,0,54967:0:0:0:0:
448,192,54967,128,0,55061:0:0:0:0:
64,192,55061,128,0,55155:0:0:0:0:
320,192,55155,1,0,0:0:0:0:
192,192,55155,128,0,55248:0:0:0:0:
448,192,55248,128,0,55342:0:0:0:0:
64,192,55342,128,0,55530:0:0:0:0:
448,192,55436,128,0,55530:0:0:0:0:
192,192,55530,1,0,0:0:0:0:
320,192,55530,128,0,55623:0:0:0:0:
64,192,55623,128,0,55811:0:0:0:0:
192,192,55717,128,0,55811:0:0:0:0:
448,192,55811,128,0,55905:0:0:0:0:
64,192,55905,1,0,0:0:0:0:
192,192,55905,128,0,56092:0:0:0:0:
320,192,55998,128,0,56092:0:0:0:0:
64,192,56092,128,0,56186:0:0:0:0:
448,192,56186,128,0,56280:0:0:0:0:
192,192,56280,128,0,56373:0:0:0:0:
64,192,56280,128,0,56467:0:0:0:0:
320,192,56280,1,0,0:0:0:0:
448,192,56373,128,0,56467:0:0:0:0:
320,192,56467,128,0,56561:0:0:0:0:
64,192,56561,128,0,56655:0:0:0:0:
320,192,56655,128,0,56748:0:0:0:0:
448,192,56655,128,0,56842:0:0:0:0:
192,192,56655,1,0,0:0:0:0:
64,192,56748,128,0,56842:0:0:0:0:
192,192,56842,128,0,56936:0:0:0:0:
320,192,56842,128,0,56936:0:0:0:0:
448,192,56936,128,0,57030:0:0:0:0:
64,192,57030,128,0,57123:0:0:0:0:
192,192,57030,1,0,0:0:0:0:
320,192,57123,128,0,57217:0:0:0:0:
448,192,57123,128,0,57405:0:0:0:0:
64,192,57217,1,0,0:0:0:0:
320,192,57311,1,0,0:0:0:0:
64,192,57405,1,0,0:0:0:0:
192,192,57405,128,0,57592:0:0:0:0:
448,192,57498,128,0,57592:0:0:0:0:
64,192,57592,128,0,57686:0:0:0:0:
320,192,57686,128,0,57780:0:0:0:0:
448,192,57686,128,0,57780:0:0:0:0:
64,192,57780,128,0,58061:0:0:0:0:
192,192,57780,128,0,57967:0:0:0:0:
320,192,57873,128,0,57967:0:0:0:0:
448,192,57967,128,0,58061:0:0:0:0:
192,192,58061,128,0,58155:0:0:0:0:
320,192,58155,1,0,0:0:0:0:
448,192,58155,128,0,58436:0:0:0:0:
64,192,58155,1,0,0:0:0:0:
192,192,58248,128,0,58342:0:0:0:0:
64,192,58342,128,0,58436:0:0:0:0:
320,192,58436,128,0,58530:0:0:0:0:
64,192,58530,128,0,58623:0:0:0:0:
192,192,58530,1,0,0:0:0:0:
448,192,58623,128,0,58717:0:0:0:0:
64,192,58717,128,0,58811:0:0:0:0:
192,192,58811,128,0,58905:0:0:0:0:
320,192,58811,128,0,58905:0:0:0:0:
448,192,58905,128,0,58998:0:0:0:0:
64,192,58905,1,0,0:0:0:0:
192,192,58998,128,0,59092:0:0:0:0:
448,192,59092,128,0,59186:0:0:0:0:
320,192,59092,128,0,59186:0:0:0:0:
192,192,59186,128,0,59280:0:0:0:0:
64,192,59280,128,0,59373:0:0:0:0:
320,192,59280,1,0,0:0:0:0:
448,192,59373,128,0,59467:0:0:0:0:
64,192,59467,128,0,59561:0:0:0:0:
192,192,59467,128,0,59561:0:0:0:0:
320,192,59561,128,0,59655:0:0:0:0:
448,192,59655,1,0,0:0:0:0:
192,192,59655,1,0,0:0:0:0:
192,192,59748,1,0,0:0:0:0:
320,192,59842,128,0,59936:0:0:0:0:
64,192,59842,1,0,0:0:0:0:
192,192,59889,1,0,0:0:0:0:
448,192,59936,1,0,0:0:0:0:
64,192,60030,1,0,0:0:0:0:
320,192,60030,1,0,0:0:0:0:
192,192,60076,1,0,0:0:0:0:
448,192,60123,1,0,0:0:0:0:
320,192,60170,1,0,0:0:0:0:
64,192,60217,1,0,0:0:0:0:
448,192,60264,1,0,0:0:0:0:
64,192,60311,1,0,0:0:0:0:
320,192,60358,1,0,0:0:0:0:
64,192,60405,1,0,0:0:0:0:
448,192,60405,1,0,0:0:0:0:
192,192,60451,1,0,0:0:0:0:
320,192,60498,1,0,0:0:0:0:
64,192,60545,1,0,0:0:0:0:
448,192,60592,1,0,0:0:0:0:
192,192,60639,1,0,0:0:0:0:
320,192,60686,1,0,0:0:0:0:
448,192,60733,1,0,0:0:0:0:
64,192,60780,128,0,60873:0:0:0:0:
192,192,60780,128,0,60920:0:0:0:0:
320,192,60821,128,0,60967:0:0:0:0:
448,192,60863,128,0,61155:0:0:0:0:
64,192,60967,128,0,61061:0:0:0:0:
320,192,61061,128,0,61155:0:0:0:0:
192,192,61155,128,0,61248:0:0:0:0:
64,192,61155,128,0,61342:0:0:0:0:
448,192,61248,128,0,61342:0:0:0:0:
192,192,61342,128,0,61530:0:0:0:0:
320,192,61436,128,0,61530:0:0:0:0:
64,192,61530,128,0,61623:0:0:0:0:
448,192,61530,1,0,0:0:0:0:
448,192,61623,128,0,61905:0:0:0:0:
64,192,61717,128,0,61811:0:0:0:0:
320,192,61811,128,0,61905:0:0:0:0:
192,192,61905,128,0,61998:0:0:0:0:
64,192,61905,128,0,62092:0:0:0:0:
320,192,61998,128,0,62092:0:0:0:0:
448,192,62092,128,0,62280:0:0:0:0:
64,192,62186,128,0,62280:0:0:0:0:
320,192,62280,1,0,0:0:0:0:
192,192,62280,128,0,62467:0:0:0:0:
64,192,62373,128,0,62467:0:0:0:0:
448,192,62467,128,0,62655:0:0:0:0:
320,192,62467,128,0,62561:0:0:0:0:
192,192,62561,128,0,62655:0:0:0:0:
64,192,62655,128,0,62748:0:0:0:0:
320,192,62655,128,0,62748:0:0:0:0:
448,192,62748,128,0,62842:0:0:0:0:
64,192,62842,128,0,62936:0:0:0:0:
192,192,62842,128,0,63030:0:0:0:0:
320,192,62936,128,0,63030:0:0:0:0:
64,192,63030,128,0,63123:0:0:0:0:
448,192,63030,1,0,0:0:0:0:
448,192,63123,128,0,63405:0:0:0:0:
320,192,63217,128,0,63311:0:0:0:0:
192,192,63311,128,0,63405:0:0:0:0:
64,192,63405,128,0,63592:0:0:0:0:
320,192,63405,1,0,0:0:0:0:
448,192,63498,128,0,63592:0:0:0:0:
192,192,63592,128,0,63686:0:0:0:0:
320,192,63592,128,0,63686:0:0:0:0:
64,192,63686,128,0,63780:0:0:0:0:
448,192,63780,1,0,0:0:0:0:
192,192,63780,128,0,63873:0:0:0:0:
448,192,63873,128,0,64155:0:0:0:0:
64,192,63967,128,0,64061:0:0:0:0:
320,192,64061,128,0,64155:0:0:0:0:
192,192,64155,128,0,64248:0:0:0:0:
64,192,64155,128,0,64342:0:0:0:0:
448,192,64248,128,0,64342:0:0:0:0:
192,192,64342,128,0,64530:0:0:0:0:
320,192,64436,128,0,64530:0:0:0:0:
64,192,64530,128,0,64623:0:0:0:0:
448,192,64530,1,0,0:0:0:0:
448,192,64623,128,0,64905:0:0:0:0:
64,192,64717,128,0,64811:0:0:0:0:
320,192,64811,128,0,64905:0:0:0:0:
192,192,64905,128,0,64998:0:0:0:0:
64,192,64905,128,0,65092:0:0:0:0:
320,192,64998,128,0,65092:0:0:0:0:
448,192,65092,128,0,65280:0:0:0:0:
64,192,65186,128,0,65280:0:0:0:0:
320,192,65280,1,0,0:0:0:0:
192,192,65280,128,0,65467:0:0:0:0:
64,192,65373,128,0,65467:0:0:0:0:
448,192,65467,128,0,65655:0:0:0:0:
320,192,65467,128,0,65561:0:0:0:0:
192,192,65561,128,0,65655:0:0:0:0:
64,192,65655,128,0,65748:0:0:0:0:
320,192,65655,128,0,65748:0:0:0:0:
448,192,65748,128,0,65842:0:0:0:0:
64,192,65842,128,0,65936:0:0:0:0:
192,192,65842,128,0,66030:0:0:0:0:
320,192,65936,128,0,66030:0:0:0:0:
64,192,66030,128,0,66123:0:0:0:0:
448,192,66030,1,0,0:0:0:0:
448,192,66123,128,0,66405:0:0:0:0:
320,192,66217,128,0,66311:0:0:0:0:
192,192,66311,128,0,66405:0:0:0:0:
64,192,66405,128,0,66592:0:0:0:0:
320,192,66405,1,0,0:0:0:0:
448,192,66498,128,0,66592:0:0:0:0:
192,192,66592,128,0,66686:0:0:0:0:
320,192,66592,128,0,66686:0:0:0:0:
64,192,66686,128,0,66780:0:0:0:0:
448,192,66780,1,0,0:0:0:0:
192,192,66780,128,0,66873:0:0:0:0:
448,192,66873,128,0,67155:0:0:0:0:
64,192,66967,128,0,67061:0:0:0:0:
320,192,67061,128,0,67155:0:0:0:0:
64,192,67155,128,0,67342:0:0:0:0:
192,192,67155,128,0,67248:0:0:0:0:
448,192,67248,128,0,67342:0:0:0:0:
192,192,67342,128,0,67530:0:0:0:0:
320,192,67436,128,0,67530:0:0:0:0:
448,192,67530,1,0,0:0:0:0:
64,192,67530,128,0,67623:0:0:0:0:
448,192,67623,128,0,67905:0:0:0:0:
192,192,67623,128,0,67717:0:0:0:0:
64,192,67717,128,0,67811:0:0:0:0:
320,192,67811,128,0,67905:0:0:0:0:
64,192,67905,128,0,68092:0:0:0:0:
192,192,67905,128,0,67998:0:0:0:0:
448,192,67998,128,0,68092:0:0:0:0:
192,192,68092,128,0,68280:0:0:0:0:
448,192,68186,128,0,68280:0:0:0:0:
320,192,68280,1,0,0:0:0:0:
64,192,68280,128,0,68373:0:0:0:0:
192,192,68373,128,0,68467:0:0:0:0:
320,192,68467,128,0,68561:0:0:0:0:
448,192,68467,128,0,68655:0:0:0:0:
192,192,68561,128,0,68655:0:0:0:0:
320,192,68655,128,0,68748:0:0:0:0:
64,192,68655,128,0,68842:0:0:0:0:
192,192,68748,128,0,68842:0:0:0:0:
448,192,68842,1,0,0:0:0:0:
320,192,68842,1,0,0:0:0:0:
448,192,68936,1,0,0:0:0:0:
64,192,69030,1,0,0:0:0:0:
192,192,69030,1,0,0:0:0:0:
448,192,69030,128,0,69217:0:0:0:0:
320,192,69123,128,0,69311:0:0:0:0:
192,192,69217,128,0,69405:0:0:0:0:
64,192,69311,128,0,69405:0:0:0:0:
320,192,69405,1,0,0:0:0:0:
448,192,69405,128,0,69592:0:0:0:0:
192,192,69498,128,0,69592:0:0:0:0:
320,192,69592,1,0,0:0:0:0:
64,192,69686,128,0,69780:0:0:0:0:
192,192,69686,128,0,69780:0:0:0:0:
448,192,69780,1,0,0:0:0:0:
320,192,69780,128,0,69967:0:0:0:0:
64,192,69873,128,0,69967:0:0:0:0:
448,192,69967,1,0,0:0:0:0:
448,192,70061,128,0,70155:0:0:0:0:
64,192,70155,1,0,0:0:0:0:
192,192,70155,128,0,70248:0:0:0:0:
448,192,70248,128,0,70342:0:0:0:0:
64,192,70342,128,0,70530:0:0:0:0:
320,192,70436,128,0,70530:0:0:0:0:
448,192,70530,1,0,0:0:0:0:
192,192,70530,128,0,70717:0:0:0:0:
64,192,70623,128,0,70717:0:0:0:0:
320,192,70717,128,0,70811:0:0:0:0:
448,192,70811,128,0,70905:0:0:0:0:
64,192,70905,1,0,0:0:0:0:
192,192,70905,128,0,70998:0:0:0:0:
320,192,70998,128,0,71092:0:0:0:0:
448,192,71092,128,0,71186:0:0:0:0:
64,192,71186,128,0,71280:0:0:0:0:
320,192,71280,128,0,71373:0:0:0:0:
448,192,71373,128,0,71467:0:0:0:0:
192,192,71467,1,0,0:0:0:0:
320,192,71561,128,0,71655:0:0:0:0:
192,192,71561,1,0,0:0:0:0:
448,192,71655,128,0,71748:0:0:0:0:
64,192,71655,1,0,0:0:0:0:
192,192,71701,1,0,0:0:0:0:
320,192,71748,1,0,0:0:0:0:
64,192,71842,1,0,0:0:0:0:
320,192,71842,128,0,71936:0:0:0:0:
192,192,71936,128,0,72030:0:0:0:0:
320,192,72030,1,0,0:0:0:0:
448,192,72030,1,0,0:0:0:0:
64,192,72076,1,0,0:0:0:0:
320,192,72123,1,0,0:0:0:0:
448,192,72123,1,0,0:0:0:0:
192,192,72170,1,0,0:0:0:0:
448,192,72217,128,0,72311:0:0:0:0:
64,192,72264,1,0,0:0:0:0:
192,192,72311,1,0,0:0:0:0:
320,192,72358,1,0,0:0:0:0:
448,192,72405,1,0,0:0:0:0:
64,192,72405,128,0,72498:0:0:0:0:
192,192,72451,1,0,0:0:0:0:
448,192,72498,1,0,0:0:0:0:
320,192,72545,1,0,0:0:0:0:
192,192,72592,128,0,72639:0:0:0:0:
448,192,72639,1,0,0:0:0:0:
64,192,72686,1,0,0:0:0:0:
192,192,72733,1,0,0:0:0:0:
320,192,72780,128,0,72873:0:0:0:0:
448,192,72780,128,0,72873:0:0:0:0:
320,192,72967,128,0,73155:0:0:0:0:
192,192,73061,128,0,73155:0:0:0:0:
64,192,73155,1,0,0:0:0:0:
448,192,73155,1,0,0:0:0:0:
320,192,73248,1,0,0:0:0:0:
192,192,73342,128,0,73389:0:0:0:0:
320,192,73436,1,0,0:0:0:0:
448,192,73530,1,0,0:0:0:0:
64,192,73530,1,0,0:0:0:0:
64,192,73717,128,0,73811:0:0:0:0:
448,192,73717,128,0,73764:0:0:0:0:
64,192,73905,1,0,0:0:0:0:
192,192,73905,128,0,73998:0:0:0:0:
320,192,74092,128,0,74373:0:0:0:0:
64,192,74155,1,0,0:0:0:0:
448,192,74217,1,0,0:0:0:0:
64,192,74280,1,0,0:0:0:0:
192,192,74280,128,0,74467:0:0:0:0:
320,192,74467,128,0,74561:0:0:0:0:
64,192,74655,1,0,0:0:0:0:
320,192,74655,1,0,0:0:0:0:
448,192,74686,1,0,0:0:0:0:
192,192,74842,128,0,74967:0:0:0:0:
320,192,74842,128,0,74889:0:0:0:0:
64,192,75030,128,0,75217:0:0:0:0:
192,192,75030,1,0,0:0:0:0:
320,192,75217,1,0,0:0:0:0:
448,192,75405,1,0,0:0:0:0:
64,192,75405,1,0,0:0:0:0:
192,192,75446,1,0,0:0:0:0:
448,192,75592,1,0,0:0:0:0:
64,192,75655,1,0,0:0:0:0:
448,192,75717,1,0,0:0:0:0:
192,192,75780,1,0,0:0:0:0:
320,192,75780,128,0,76014:0:0:0:0:
192,192,75967,128,0,76108:0:0:0:0:
64,192,76061,128,0,76155:0:0:0:0:
320,192,76155,1,0,0:0:0:0:
448,192,76155,1,0,0:0:0:0:
192,192,76248,1,0,0:0:0:0:
320,192,76342,128,0,76389:0:0:0:0:
192,192,76436,1,0,0:0:0:0:
448,192,76530,1,0,0:0:0:0:
64,192,76530,1,0,0:0:0:0:
448,192,76717,128,0,76764:0:0:0:0:
64,192,76905,128,0,77092:0:0:0:0:
320,192,76905,1,0,0:0:0:0:
192,192,77092,128,0,77186:0:0:0:0:
192,192,77280,128,0,77373:0:0:0:0:
448,192,77280,1,0,0:0:0:0:
320,192,77467,128,0,77561:0:0:0:0:
64,192,77655,1,0,0:0:0:0:
320,192,77655,1,0,0:0:0:0:
448,192,77696,1,0,0:0:0:0:
192,192,77842,128,0,77936:0:0:0:0:
64,192,77842,128,0,77889:0:0:0:0:
320,192,77936,128,0,78030:0:0:0:0:
64,192,78030,128,0,78217:0:0:0:0:
192,192,78030,1,0,0:0:0:0:
448,192,78217,1,0,0:0:0:0:
64,192,78405,128,0,78498:0:0:0:0:
192,192,78405,1,0,0:0:0:0:
320,192,78592,128,0,78686:0:0:0:0:
320,192,78780,128,0,79061:0:0:0:0:
448,192,78780,1,0,0:0:0:0:
192,192,78967,128,0,79061:0:0:0:0:
64,192,79155,1,0,0:0:0:0:
192,192,79155,1,0,0:0:0:0:
320,192,79248,1,0,0:0:0:0:
192,192,79342,128,0,79389:0:0:0:0:
320,192,79436,1,0,0:0:0:0:
64,192,79530,1,0,0:0:0:0:
448,192,79530,1,0,0:0:0:0:
448,192,79717,128,0,79764:0:0:0:0:
64,192,79905,128,0,80092:0:0:0:0:
448,192,79905,1,0,0:0:0:0:
320,192,80092,128,0,80186:0:0:0:0:
192,192,80280,128,0,80373:0:0:0:0:
64,192,80280,1,0,0:0:0:0:
320,192,80467,128,0,80561:0:0:0:0:
448,192,80655,128,0,80842:0:0:0:0:
64,192,80655,1,0,0:0:0:0:
192,192,80842,128,0,80936:0:0:0:0:
64,192,80842,128,0,80889:0:0:0:0:
320,192,80936,128,0,81030:0:0:0:0:
192,192,81030,128,0,81217:0:0:0:0:
64,192,81030,1,0,0:0:0:0:
320,192,81217,1,0,0:0:0:0:
64,192,81405,128,0,81498:0:0:0:0:
448,192,81405,1,0,0:0:0:0:
320,192,81592,128,0,81686:0:0:0:0:
448,192,81639,128,0,83842:0:0:0:0:
192,192,81717,1,0,0:0:0:0:
320,192,81780,1,0,0:0:0:0:
64,192,81780,128,0,83092:0:0:0:0:
320,192,81967,1,0,0:0:0:0:
192,192,82155,1,0,0:0:0:0:
320,192,82155,1,0,0:0:0:0:
192,192,82342,1,0,0:0:0:0:
320,192,82436,1,0,0:0:0:0:
192,192,82530,128,0,82811:0:0:0:0:
320,192,82717,1,0,0:0:0:0:
320,192,82905,1,0,0:0:0:0:
192,192,82905,1,0,0:0:0:0:
192,192,83092,1,0,0:0:0:0:
64,192,83155,1,0,0:0:0:0:
320,192,83217,1,0,0:0:0:0:
192,192,83280,1,0,0:0:0:0:
64,192,83280,1,0,0:0:0:0:
192,192,83467,128,0,83561:0:0:0:0:
64,192,83655,128,0,83842:0:0:0:0:
320,192,83655,1,0,0:0:0:0:
192,192,83842,1,0,0:0:0:0:
64,192,84030,5,0,0:0:0:0:
448,192,84030,128,0,84123:0:0:0:0:
320,192,84076,1,0,0:0:0:0:
192,192,84123,1,0,0:0:0:0:
448,192,84170,1,0,0:0:0:0:
64,192,84217,1,0,0:0:0:0:
192,192,84264,1,0,0:0:0:0:
320,192,84311,1,0,0:0:0:0:
448,192,84358,1,0,0:0:0:0:
192,192,84405,128,0,84451:0:0:0:0:
64,192,84451,1,0,0:0:0:0:
448,192,84498,1,0,0:0:0:0:
192,192,84545,1,0,0:0:0:0:
320,192,84592,128,0,84639:0:0:0:0:
448,192,84639,1,0,0:0:0:0:
64,192,84686,1,0,0:0:0:0:
192,192,84733,1,0,0:0:0:0:
448,192,84780,128,0,84873:0:0:0:0:
320,192,84780,128,0,84873:0:0:0:0:
448,192,84967,128,0,85108:0:0:0:0:
64,192,84967,1,0,0:0:0:0:
320,192,85061,128,0,85201:0:0:0:0:
64,192,85155,128,0,85248:0:0:0:0:
192,192,85155,128,0,85248:0:0:0:0:
448,192,85248,1,0,0:0:0:0:
64,192,85342,1,0,0:0:0:0:
64,192,85436,1,0,0:0:0:0:
448,192,85530,1,0,0:0:0:0:
320,192,85530,1,0,0:0:0:0:
192,192,85717,128,0,85811:0:0:0:0:
448,192,85717,1,0,0:0:0:0:
448,192,85811,1,0,0:0:0:0:
320,192,85905,128,0,85998:0:0:0:0:
64,192,85905,1,0,0:0:0:0:
448,192,86092,1,0,0:0:0:0:
192,192,86155,1,0,0:0:0:0:
448,192,86217,1,0,0:0:0:0:
64,192,86280,1,0,0:0:0:0:
320,192,86280,128,0,86467:0:0:0:0:
192,192,86467,1,0,0:0:0:0:
192,192,86561,1,0,0:0:0:0:
320,192,86655,1,0,0:0:0:0:
448,192,86655,1,0,0:0:0:0:
64,192,86686,1,0,0:0:0:0:
192,192,86842,128,0,86936:0:0:0:0:
320,192,86936,128,0,87030:0:0:0:0:
64,192,87030,1,0,0:0:0:0:
192,192,87030,128,0,87123:0:0:0:0:
320,192,87123,128,0,87217:0:0:0:0:
448,192,87217,1,0,0:0:0:0:
448,192,87311,1,0,0:0:0:0:
192,192,87405,1,0,0:0:0:0:
320,192,87405,1,0,0:0:0:0:
64,192,87446,1,0,0:0:0:0:
448,192,87592,128,0,87686:0:0:0:0:
192,192,87592,1,0,0:0:0:0:
192,192,87686,1,0,0:0:0:0:
448,192,87780,1,0,0:0:0:0:
64,192,87780,1,0,0:0:0:0:
320,192,87842,1,0,0:0:0:0:
192,192,87905,1,0,0:0:0:0:
448,192,87967,1,0,0:0:0:0:
448,192,88061,1,0,0:0:0:0:
64,192,88155,1,0,0:0:0:0:
192,192,88155,1,0,0:0:0:0:
320,192,88217,1,0,0:0:0:0:
192,192,88280,1,0,0:0:0:0:
64,192,88342,1,0,0:0:0:0:
448,192,88342,128,0,88389:0:0:0:0:
64,192,88436,1,0,0:0:0:0:
192,192,88530,1,0,0:0:0:0:
320,192,88530,1,0,0:0:0:0:
64,192,88717,128,0,88811:0:0:0:0:
448,192,88717,1,0,0:0:0:0:
448,192,88811,1,0,0:0:0:0:
64,192,88905,128,0,89092:0:0:0:0:
192,192,88905,1,0,0:0:0:0:
448,192,89092,1,0,0:0:0:0:
192,192,89155,1,0,0:0:0:0:
320,192,89217,1,0,0:0:0:0:
448,192,89280,1,0,0:0:0:0:
64,192,89280,128,0,89342:0:0:0:0:
320,192,89467,128,0,89561:0:0:0:0:
192,192,89467,1,0,0:0:0:0:
192,192,89561,1,0,0:0:0:0:
448,192,89655,1,0,0:0:0:0:
320,192,89655,1,0,0:0:0:0:
64,192,89696,1,0,0:0:0:0:
64,192,89842,128,0,89889:0:0:0:0:
192,192,89842,128,0,89936:0:0:0:0:
320,192,89936,128,0,90030:0:0:0:0:
192,192,90030,1,0,0:0:0:0:
448,192,90030,128,0,90217:0:0:0:0:
64,192,90123,1,0,0:0:0:0:
320,192,90217,1,0,0:0:0:0:
192,192,90264,1,0,0:0:0:0:
320,192,90311,1,0,0:0:0:0:
64,192,90405,128,0,90498:0:0:0:0:
448,192,90405,1,0,0:0:0:0:
192,192,90446,1,0,0:0:0:0:
320,192,90592,128,0,90686:0:0:0:0:
64,192,90592,1,0,0:0:0:0:
64,192,90686,1,0,0:0:0:0:
448,192,90780,1,0,0:0:0:0:
192,192,90780,128,0,91061:0:0:0:0:
64,192,90967,128,0,91061:0:0:0:0:
448,192,90967,1,0,0:0:0:0:
448,192,91061,1,0,0:0:0:0:
192,192,91155,1,0,0:0:0:0:
64,192,91155,1,0,0:0:0:0:
192,192,91342,128,0,91389:0:0:0:0:
320,192,91342,1,0,0:0:0:0:
320,192,91436,1,0,0:0:0:0:
64,192,91530,1,0,0:0:0:0:
448,192,91530,1,0,0:0:0:0:
448,192,91717,128,0,91764:0:0:0:0:
192,192,91717,1,0,0:0:0:0:
192,192,91811,1,0,0:0:0:0:
448,192,91905,1,0,0:0:0:0:
64,192,91905,1,0,0:0:0:0:
320,192,92092,128,0,92139:0:0:0:0:
448,192,92092,1,0,0:0:0:0:
448,192,92186,1,0,0:0:0:0:
64,192,92280,1,0,0:0:0:0:
192,192,92280,128,0,92373:0:0:0:0:
320,192,92467,128,0,92561:0:0:0:0:
192,192,92467,1,0,0:0:0:0:
192,192,92561,1,0,0:0:0:0:
64,192,92655,1,0,0:0:0:0:
448,192,92655,128,0,92842:0:0:0:0:
64,192,92842,128,0,92889:0:0:0:0:
192,192,92842,128,0,92936:0:0:0:0:
320,192,92936,128,0,93030:0:0:0:0:
64,192,93030,1,0,0:0:0:0:
192,192,93030,128,0,93217:0:0:0:0:
320,192,93217,1,0,0:0:0:0:
320,192,93311,1,0,0:0:0:0:
448,192,93405,1,0,0:0:0:0:
192,192,93405,1,0,0:0:0:0:
64,192,93436,1,0,0:0:0:0:
320,192,93592,128,0,93686:0:0:0:0:
192,192,93592,1,0,0:0:0:0:
192,192,93686,1,0,0:0:0:0:
64,192,93780,1,0,0:0:0:0:
320,192,93780,1,0,0:0:0:0:
448,192,93873,1,0,0:0:0:0:
192,192,93967,1,0,0:0:0:0:
192,192,94061,1,0,0:0:0:0:
64,192,94155,1,0,0:0:0:0:
448,192,94155,1,0,0:0:0:0:
192,192,94248,1,0,0:0:0:0:
320,192,94342,1,0,0:0:0:0:
320,192,94436,1,0,0:0:0:0:
64,192,94530,1,0,0:0:0:0:
192,192,94530,1,0,0:0:0:0:
448,192,94623,1,0,0:0:0:0:
64,192,94717,1,0,0:0:0:0:
64,192,94811,128,0,94905:0:0:0:0:
320,192,94905,1,0,0:0:0:0:
448,192,94905,1,0,0:0:0:0:
192,192,94998,1,0,0:0:0:0:
64,192,95045,1,0,0:0:0:0:
448,192,95092,128,0,95139:0:0:0:0:
448,192,95186,128,0,95280:0:0:0:0:
64,192,95280,1,0,0:0:0:0:
192,192,95280,1,0,0:0:0:0:
320,192,95342,1,0,0:0:0:0:
64,192,95405,1,0,0:0:0:0:
320,192,95467,1,0,0:0:0:0:
448,192,95467,1,0,0:0:0:0:
192,192,95530,1,0,0:0:0:0:
448,192,95592,1,0,0:0:0:0:
64,192,95655,1,0,0:0:0:0:
192,192,95655,1,0,0:0:0:0:
320,192,95717,1,0,0:0:0:0:
64,192,95748,1,0,0:0:0:0:
448,192,95780,1,0,0:0:0:0:
192,192,95842,1,0,0:0:0:0:
320,192,95905,1,0,0:0:0:0:
448,192,95936,1,0,0:0:0:0:
64,192,95967,1,0,0:0:0:0:
320,192,96030,128,0,96123:0:0:0:0:
448,192,96030,128,0,96123:0:0:0:0:
192,192,96030,1,0,0:0:0:0:
64,192,96123,1,0,0:0:0:0:
192,192,96170,1,0,0:0:0:0:
320,192,96217,128,0,96311:0:0:0:0:
448,192,96217,128,0,96311:0:0:0:0:
64,192,96311,1,0,0:0:0:0:
192,192,96358,1,0,0:0:0:0:
448,192,96405,1,0,0:0:0:0:
64,192,96451,1,0,0:0:0:0:
320,192,96498,1,0,0:0:0:0:
192,192,96545,1,0,0:0:0:0:
448,192,96592,1,0,0:0:0:0:
320,192,96639,1,0,0:0:0:0:
64,192,96686,1,0,0:0:0:0:
192,192,96733,1,0,0:0:0:0:
320,192,96780,1,0,0:0:0:0:
448,192,96780,128,0,96873:0:0:0:0:
192,192,96967,1,0,0:0:0:0:
448,192,96990,1,0,0:0:0:0:
192,192,97155,1,0,0:0:0:0:
448,192,97178,1,0,0:0:0:0:
64,192,97342,128,0,97905:0:0:0:0:
192,192,97363,1,0,0:0:0:0:
192,192,97717,1,0,0:0:0:0:
192,192,97905,1,0,0:0:0:0:
320,192,97946,1,0,0:0:0:0:
64,192,98092,1,0,0:0:0:0:
64,192,98280,128,0,98467:0:0:0:0:
320,192,98280,1,0,0:0:0:0:
320,192,98467,1,0,0:0:0:0:
320,192,98655,1,0,0:0:0:0:
64,192,98678,1,0,0:0:0:0:
192,192,98842,128,0,99592:0:0:0:0:
448,192,98863,1,0,0:0:0:0:
64,192,99030,1,0,0:0:0:0:
448,192,99217,1,0,0:0:0:0:
320,192,99405,1,0,0:0:0:0:
448,192,99446,1,0,0:0:0:0:
320,192,99592,1,0,0:0:0:0:
64,192,99613,1,0,0:0:0:0:
192,192,99780,1,0,0:0:0:0:
448,192,99803,1,0,0:0:0:0:
192,192,99967,1,0,0:0:0:0:
448,192,99990,1,0,0:0:0:0:
192,192,100155,1,0,0:0:0:0:
448,192,100178,1,0,0:0:0:0:
64,192,100342,128,0,100905:0:0:0:0:
192,192,100365,128,0,100717:0:0:0:0:
320,192,100717,1,0,0:0:0:0:
448,192,100738,1,0,0:0:0:0:
192,192,100905,128,0,100998:0:0:0:0:
320,192,100998,1,0,0:0:0:0:
320,192,101092,1,0,0:0:0:0:
320,192,101186,1,0,0:0:0:0:
64,192,101280,1,0,0:0:0:0:
448,192,101303,1,0,0:0:0:0:
64,192,101467,1,0,0:0:0:0:
448,192,101490,1,0,0:0:0:0:
64,192,101655,1,0,0:0:0:0:
448,192,101678,1,0,0:0:0:0:
192,192,101842,128,0,102592:0:0:0:0:
448,192,101865,128,0,102217:0:0:0:0:
64,192,102217,1,0,0:0:0:0:
320,192,102405,1,0,0:0:0:0:
448,192,102436,1,0,0:0:0:0:
320,192,102592,1,0,0:0:0:0:
64,192,102613,1,0,0:0:0:0:
192,192,102780,1,0,0:0:0:0:
448,192,102803,1,0,0:0:0:0:
192,192,102967,1,0,0:0:0:0:
448,192,102990,1,0,0:0:0:0:
192,192,103155,1,0,0:0:0:0:
448,192,103178,1,0,0:0:0:0:
64,192,103342,128,0,103905:0:0:0:0:
192,192,103363,1,0,0:0:0:0:
192,192,103717,1,0,0:0:0:0:
448,192,103811,1,0,0:0:0:0:
192,192,103905,1,0,0:0:0:0:
320,192,103946,1,0,0:0:0:0:
448,192,104092,128,0,104186:0:0:0:0:
320,192,104280,1,0,0:0:0:0:
64,192,104280,128,0,104467:0:0:0:0:
448,192,104280,128,0,104373:0:0:0:0:
320,192,104467,1,0,0:0:0:0:
448,192,104467,128,0,104655:0:0:0:0:
320,192,104655,1,0,0:0:0:0:
64,192,104678,1,0,0:0:0:0:
192,192,104842,128,0,105592:0:0:0:0:
448,192,104863,1,0,0:0:0:0:
64,192,105030,1,0,0:0:0:0:
448,192,105217,1,0,0:0:0:0:
320,192,105405,1,0,0:0:0:0:
448,192,105446,1,0,0:0:0:0:
320,192,105592,1,0,0:0:0:0:
64,192,105613,1,0,0:0:0:0:
320,192,105780,128,0,105873:0:0:0:0:
64,192,105803,1,0,0:0:0:0:
320,192,105967,128,0,106155:0:0:0:0:
64,192,106155,1,0,0:0:0:0:
448,192,106178,1,0,0:0:0:0:
320,192,106342,128,0,106436:0:0:0:0:
320,192,106530,128,0,106623:0:0:0:0:
320,192,106717,128,0,106905:0:0:0:0:
448,192,106740,1,0,0:0:0:0:
64,192,106998,1,0,0:0:0:0:
448,192,107022,1,0,0:0:0:0:
320,192,107092,128,0,107155:0:0:0:0:
320,192,107280,128,0,107373:0:0:0:0:
192,192,107303,1,0,0:0:0:0:
64,192,107326,1,0,0:0:0:0:
320,192,107467,128,0,107561:0:0:0:0:
64,192,107655,128,0,107701:0:0:0:0:
448,192,107678,128,0,107842:0:0:0:0:
320,192,107842,128,0,107889:0:0:0:0:
448,192,108030,1,0,0:0:0:0:
64,192,108076,1,0,0:0:0:0:
320,192,108123,1,0,0:0:0:0:
192,192,108170,1,0,0:0:0:0:
448,192,108217,1,0,0:0:0:0:
64,192,108264,1,0,0:0:0:0:
192,192,108311,1,0,0:0:0:0:
320,192,108358,1,0,0:0:0:0:
448,192,108405,1,0,0:0:0:0:
64,192,108405,1,0,0:0:0:0:
192,192,108405,1,0,0:0:0:0:
320,192,108592,1,0,0:0:0:0:
192,192,108592,1,0,0:0:0:0:
320,192,108686,1,0,0:0:0:0:
192,192,108686,1,0,0:0:0:0:
448,192,108780,1,0,0:0:0:0:
320,192,108780,128,0,109155:0:0:0:0:
64,192,108780,1,0,0:0:0:0:
192,192,108780,1,0,0:0:0:0:
448,192,108967,1,0,0:0:0:0:
448,192,109155,128,0,109342:0:0:0:0:
64,192,109155,1,0,0:0:0:0:
320,192,109342,128,0,109717:0:0:0:0:
64,192,109342,128,0,109389:0:0:0:0:
448,192,109530,1,0,0:0:0:0:
64,192,109530,1,0,0:0:0:0:
192,192,109717,128,0,109764:0:0:0:0:
64,192,109905,1,0,0:0:0:0:
448,192,109905,1,0,0:0:0:0:
320,192,110092,128,0,110139:0:0:0:0:
192,192,110280,128,0,110373:0:0:0:0:
64,192,110280,1,0,0:0:0:0:
448,192,110467,128,0,110561:0:0:0:0:
320,192,110655,128,0,110748:0:0:0:0:
64,192,110655,1,0,0:0:0:0:
192,192,110842,128,0,110936:0:0:0:0:
448,192,110842,128,0,110889:0:0:0:0:
64,192,111030,128,0,111405:0:0:0:0:
320,192,111030,1,0,0:0:0:0:
320,192,111217,1,0,0:0:0:0:
192,192,111405,128,0,111592:0:0:0:0:
448,192,111405,1,0,0:0:0:0:
320,192,111592,1,0,0:0:0:0:
320,192,111780,128,0,112155:0:0:0:0:
64,192,111780,1,0,0:0:0:0:
448,192,111967,1,0,0:0:0:0:
64,192,112155,1,0,0:0:0:0:
448,192,112155,128,0,112342:0:0:0:0:
320,192,112342,128,0,112717:0:0:0:0:
64,192,112342,128,0,112389:0:0:0:0:
448,192,112530,1,0,0:0:0:0:
64,192,112530,1,0,0:0:0:0:
448,192,112623,1,0,0:0:0:0:
192,192,112717,128,0,112764:0:0:0:0:
448,192,112905,1,0,0:0:0:0:
64,192,112905,128,0,113092:0:0:0:0:
320,192,113092,128,0,113139:0:0:0:0:
64,192,113280,1,0,0:0:0:0:
192,192,113280,128,0,113373:0:0:0:0:
448,192,113467,128,0,113561:0:0:0:0:
192,192,113561,1,0,0:0:0:0:
448,192,113655,1,0,0:0:0:0:
320,192,113655,128,0,113748:0:0:0:0:
64,192,113748,1,0,0:0:0:0:
192,192,113842,128,0,113936:0:0:0:0:
448,192,113842,128,0,113889:0:0:0:0:
320,192,113936,1,0,0:0:0:0:
192,192,114030,1,0,0:0:0:0:
64,192,114030,128,0,114217:0:0:0:0:
448,192,114123,1,0,0:0:0:0:
192,192,114217,1,0,0:0:0:0:
320,192,114311,1,0,0:0:0:0:
448,192,114405,1,0,0:0:0:0:
192,192,114405,128,0,114592:0:0:0:0:
64,192,114405,1,0,0:0:0:0:
320,192,114592,1,0,0:0:0:0:
64,192,114686,1,0,0:0:0:0:
320,192,114780,1,0,0:0:0:0:
448,192,114780,1,0,0:0:0:0:
64,192,114967,1,0,0:0:0:0:
448,192,114967,1,0,0:0:0:0:
192,192,115155,1,0,0:0:0:0:
64,192,115155,1,0,0:0:0:0:
192,192,115342,1,0,0:0:0:0:
320,192,115342,1,0,0:0:0:0:
320,192,115530,1,0,0:0:0:0:
448,192,115530,1,0,0:0:0:0:
64,192,115717,1,0,0:0:0:0:
448,192,115717,1,0,0:0:0:0:
320,192,115905,1,0,0:0:0:0:
64,192,115905,1,0,0:0:0:0:
192,192,116092,1,0,0:0:0:0:
320,192,116092,1,0,0:0:0:0:
192,192,116280,1,0,0:0:0:0:
448,192,116280,1,0,0:0:0:0:
64,192,116280,1,0,0:0:0:0:
448,192,116467,1,0,0:0:0:0:
320,192,116467,1,0,0:0:0:0:
64,192,116655,1,0,0:0:0:0:
320,192,116655,1,0,0:0:0:0:
192,192,116655,1,0,0:0:0:0:
64,192,116842,1,0,0:0:0:0:
448,192,116842,1,0,0:0:0:0:
448,192,117030,1,0,0:0:0:0:
320,192,117030,1,0,0:0:0:0:
192,192,117030,1,0,0:0:0:0:
192,192,117217,1,0,0:0:0:0:
320,192,117217,1,0,0:0:0:0:
64,192,117405,1,0,0:0:0:0:
448,192,117405,1,0,0:0:0:0:
192,192,117405,1,0,0:0:0:0:
448,192,117592,1,0,0:0:0:0:
448,192,117686,1,0,0:0:0:0:
64,192,117780,1,0,0:0:0:0:
192,192,117780,1,0,0:0:0:0:
320,192,117873,1,0,0:0:0:0:
192,192,117967,1,0,0:0:0:0:
192,192,118061,1,0,0:0:0:0:
320,192,118155,1,0,0:0:0:0:
448,192,118155,1,0,0:0:0:0:
64,192,118248,1,0,0:0:0:0:
320,192,118342,1,0,0:0:0:0:
320,192,118436,1,0,0:0:0:0:
192,192,118530,1,0,0:0:0:0:
192,192,118623,1,0,0:0:0:0:
448,192,118717,1,0,0:0:0:0:
448,192,118811,1,0,0:0:0:0:
64,192,118905,1,0,0:0:0:0:
64,192,118998,1,0,0:0:0:0:
320,192,119092,1,0,0:0:0:0:
320,192,119186,1,0,0:0:0:0:
64,192,119280,128,0,119561:0:0:0:0:
448,192,119280,128,0,119561:0:0:0:0:
448,192,119655,128,0,119936:0:0:0:0:
64,192,119655,128,0,119936:0:0:0:0:
448,192,120030,128,0,120311:0:0:0:0:
64,192,120030,1,0,0:0:0:0:
448,192,120405,128,0,120686:0:0:0:0:
448,192,120780,128,0,120873:0:0:0:0:
192,192,120873,1,0,0:0:0:0:
64,192,120967,128,0,121155:0:0:0:0:
320,192,120967,128,0,121108:0:0:0:0:
448,192,120967,128,0,121061:0:0:0:0:
192,192,121155,128,0,121201:0:0:0:0:
64,192,121342,128,0,121436:0:0:0:0:
448,192,121342,128,0,121483:0:0:0:0:
320,192,121342,128,0,121530:0:0:0:0:
64,192,121530,1,0,0:0:0:0:
192,192,121530,1,0,0:0:0:0:
448,192,121576,1,0,0:0:0:0:
64,192,121623,1,0,0:0:0:0:
192,192,121670,1,0,0:0:0:0:
320,192,121717,1,0,0:0:0:0:
448,192,121717,128,0,121811:0:0:0:0:
320,192,121811,1,0,0:0:0:0:
64,192,121905,1,0,0:0:0:0:
192,192,121905,1,0,0:0:0:0:
448,192,121905,1,0,0:0:0:0:
320,192,121998,1,0,0:0:0:0:
192,192,122092,128,0,122186:0:0:0:0:
320,192,122186,128,0,122280:0:0:0:0:
64,192,122280,128,0,122373:0:0:0:0:
448,192,122280,128,0,122467:0:0:0:0:
192,192,122280,128,0,122373:0:0:0:0:
320,192,122373,128,0,122467:0:0:0:0:
64,192,122467,128,0,122561:0:0:0:0:
192,192,122467,128,0,122561:0:0:0:0:
320,192,122561,128,0,122655:0:0:0:0:
448,192,122561,128,0,122655:0:0:0:0:
192,192,122655,128,0,122748:0:0:0:0:
64,192,122655,128,0,122842:0:0:0:0:
448,192,122748,128,0,122842:0:0:0:0:
192,192,122842,128,0,122936:0:0:0:0:
320,192,122842,128,0,122936:0:0:0:0:
64,192,122936,128,0,123030:0:0:0:0:
320,192,123030,128,0,123123:0:0:0:0:
448,192,123030,128,0,123217:0:0:0:0:
64,192,123123,128,0,123217:0:0:0:0:
320,192,123217,128,0,123311:0:0:0:0:
192,192,123217,128,0,123311:0:0:0:0:
448,192,123311,128,0,123405:0:0:0:0:
64,192,123405,128,0,123498:0:0:0:0:
192,192,123405,128,0,123498:0:0:0:0:
320,192,123451,1,0,0:0:0:0:
448,192,123498,128,0,123592:0:0:0:0:
64,192,123592,128,0,123686:0:0:0:0:
320,192,123686,128,0,123780:0:0:0:0:
448,192,123686,128,0,123780:0:0:0:0:
192,192,123780,128,0,123873:0:0:0:0:
64,192,123780,128,0,123967:0:0:0:0:
448,192,123873,128,0,123967:0:0:0:0:
192,192,123967,128,0,124061:0:0:0:0:
320,192,123967,128,0,124061:0:0:0:0:
448,192,124061,128,0,124155:0:0:0:0:
64,192,124155,128,0,124342:0:0:0:0:
192,192,124155,128,0,124248:0:0:0:0:
320,192,124155,128,0,124248:0:0:0:0:
448,192,124248,128,0,124342:0:0:0:0:
192,192,124342,128,0,124436:0:0:0:0:
320,192,124342,128,0,124436:0:0:0:0:
64,192,124436,128,0,124530:0:0:0:0:
320,192,124530,1,0,0:0:0:0:
448,192,124530,1,0,0:0:0:0:
320,192,124623,1,0,0:0:0:0:
64,192,124717,128,0,124811:0:0:0:0:
320,192,124717,128,0,124811:0:0:0:0:
448,192,124811,128,0,124905:0:0:0:0:
64,192,124905,1,0,0:0:0:0:
192,192,124905,1,0,0:0:0:0:
320,192,124951,1,0,0:0:0:0:
64,192,124998,128,0,125092:0:0:0:0:
320,192,125092,128,0,125186:0:0:0:0:
448,192,125092,128,0,125186:0:0:0:0:
64,192,125186,128,0,125280:0:0:0:0:
192,192,125186,128,0,125280:0:0:0:0:
448,192,125280,128,0,125467:0:0:0:0:
320,192,125280,128,0,125373:0:0:0:0:
64,192,125373,1,0,0:0:0:0:
192,192,125467,128,0,125561:0:0:0:0:
320,192,125467,128,0,125561:0:0:0:0:
448,192,125561,128,0,125655:0:0:0:0:
192,192,125655,128,0,125748:0:0:0:0:
64,192,125655,128,0,125842:0:0:0:0:
448,192,125748,128,0,125842:0:0:0:0:
192,192,125842,128,0,125936:0:0:0:0:
320,192,125842,128,0,125936:0:0:0:0:
64,192,125936,128,0,126030:0:0:0:0:
448,192,126030,1,0,0:0:0:0:
192,192,126030,1,0,0:0:0:0:
192,192,126123,1,0,0:0:0:0:
192,192,126217,1,0,0:0:0:0:
320,192,126217,128,0,126311:0:0:0:0:
448,192,126311,128,0,126405:0:0:0:0:
64,192,126405,128,0,126498:0:0:0:0:
192,192,126405,128,0,126592:0:0:0:0:
320,192,126498,1,0,0:0:0:0:
448,192,126592,128,0,126780:0:0:0:0:
320,192,126686,128,0,126780:0:0:0:0:
192,192,126780,128,0,126873:0:0:0:0:
64,192,126780,128,0,126967:0:0:0:0:
448,192,126873,128,0,126967:0:0:0:0:
192,192,126967,128,0,127061:0:0:0:0:
320,192,126967,128,0,127248:0:0:0:0:
64,192,127061,128,0,127155:0:0:0:0:
192,192,127155,128,0,127342:0:0:0:0:
448,192,127155,128,0,127342:0:0:0:0:
64,192,127248,128,0,127436:0:0:0:0:
320,192,127342,128,0,127530:0:0:0:0:
448,192,127436,128,0,127530:0:0:0:0:
64,192,127530,128,0,127623:0:0:0:0:
192,192,127530,128,0,127717:0:0:0:0:
448,192,127623,128,0,127717:0:0:0:0:
64,192,127717,128,0,127811:0:0:0:0:
320,192,127717,128,0,127811:0:0:0:0:
192,192,127811,128,0,127998:0:0:0:0:
448,192,127811,128,0,127905:0:0:0:0:
64,192,127905,128,0,128092:0:0:0:0:
320,192,127905,1,0,0:0:0:0:
448,192,127998,128,0,128092:0:0:0:0:
320,192,128092,128,0,128186:0:0:0:0:
192,192,128092,128,0,128186:0:0:0:0:
64,192,128186,128,0,128373:0:0:0:0:
448,192,128280,128,0,128467:0:0:0:0:
192,192,128280,128,0,128373:0:0:0:0:
320,192,128373,128,0,128467:0:0:0:0:
192,192,128467,128,0,128561:0:0:0:0:
64,192,128467,128,0,128561:0:0:0:0:
448,192,128561,128,0,128655:0:0:0:0:
320,192,128561,128,0,128655:0:0:0:0:
64,192,128655,128,0,128842:0:0:0:0:
192,192,128655,128,0,128748:0:0:0:0:
448,192,128748,128,0,128842:0:0:0:0:
320,192,128842,128,0,128936:0:0:0:0:
192,192,128842,128,0,128936:0:0:0:0:
64,192,128936,128,0,129030:0:0:0:0:
448,192,129030,128,0,129217:0:0:0:0:
320,192,129030,128,0,129123:0:0:0:0:
64,192,129123,128,0,129217:0:0:0:0:
192,192,129217,128,0,129311:0:0:0:0:
320,192,129217,128,0,129311:0:0:0:0:
448,192,129311,128,0,129405:0:0:0:0:
192,192,129405,128,0,129498:0:0:0:0:
64,192,129405,128,0,129498:0:0:0:0:
320,192,129451,1,0,0:0:0:0:
448,192,129498,128,0,129592:0:0:0:0:
64,192,129592,128,0,129686:0:0:0:0:
320,192,129686,128,0,129780:0:0:0:0:
64,192,129780,128,0,129967:0:0:0:0:
192,192,129780,128,0,129873:0:0:0:0:
448,192,129780,128,0,129873:0:0:0:0:
320,192,129967,128,0,130061:0:0:0:0:
192,192,129967,128,0,130061:0:0:0:0:
448,192,130061,128,0,130155:0:0:0:0:
192,192,130155,128,0,130248:0:0:0:0:
64,192,130155,128,0,130342:0:0:0:0:
320,192,130248,128,0,130342:0:0:0:0:
192,192,130342,128,0,130436:0:0:0:0:
448,192,130342,1,0,0:0:0:0:
64,192,130436,128,0,130530:0:0:0:0:
448,192,130436,1,0,0:0:0:0:
320,192,130530,1,0,0:0:0:0:
192,192,130530,128,0,130811:0:0:0:0:
64,192,130623,128,0,130811:0:0:0:0:
448,192,130623,128,0,130717:0:0:0:0:
320,192,130717,128,0,130811:0:0:0:0:
448,192,130811,128,0,130905:0:0:0:0:
320,192,130905,1,0,0:0:0:0:
64,192,130905,1,0,0:0:0:0:
192,192,130951,1,0,0:0:0:0:
448,192,130998,128,0,131092:0:0:0:0:
64,192,131092,128,0,131186:0:0:0:0:
320,192,131186,128,0,131280:0:0:0:0:
64,192,131280,128,0,131561:0:0:0:0:
192,192,131280,128,0,131467:0:0:0:0:
448,192,131280,128,0,131373:0:0:0:0:
320,192,131373,128,0,131561:0:0:0:0:
448,192,131467,128,0,131561:0:0:0:0:
192,192,131561,128,0,131655:0:0:0:0:
448,192,131655,128,0,132030:0:0:0:0:
64,192,131655,128,0,131748:0:0:0:0:
192,192,131748,128,0,131842:0:0:0:0:
320,192,131748,128,0,131842:0:0:0:0:
64,192,131842,128,0,131936:0:0:0:0:
320,192,131936,128,0,132030:0:0:0:0:
64,192,132030,128,0,132123:0:0:0:0:
192,192,132030,128,0,132217:0:0:0:0:
448,192,132123,128,0,132217:0:0:0:0:
64,192,132217,128,0,132311:0:0:0:0:
192,192,132311,128,0,132405:0:0:0:0:
320,192,132311,128,0,132405:0:0:0:0:
448,192,132405,128,0,132498:0:0:0:0:
64,192,132405,128,0,132592:0:0:0:0:
192,192,132498,128,0,132592:0:0:0:0:
448,192,132592,128,0,132686:0:0:0:0:
320,192,132592,128,0,132686:0:0:0:0:
192,192,132686,128,0,132780:0:0:0:0:
64,192,132780,128,0,132873:0:0:0:0:
320,192,132780,1,0,0:0:0:0:
448,192,132873,128,0,132967:0:0:0:0:
64,192,132967,128,0,133061:0:0:0:0:
192,192,132967,128,0,133061:0:0:0:0:
448,192,133061,1,0,0:0:0:0:
320,192,133108,1,0,0:0:0:0:
192,192,133155,1,0,0:0:0:0:
64,192,133155,1,0,0:0:0:0:
192,192,133248,1,0,0:0:0:0:
64,192,133342,1,0,0:0:0:0:
320,192,133342,1,0,0:0:0:0:
448,192,133436,1,0,0:0:0:0:
64,192,133530,1,0,0:0:0:0:
320,192,133530,1,0,0:0:0:0:
192,192,133576,1,0,0:0:0:0:
448,192,133623,1,0,0:0:0:0:
320,192,133670,1,0,0:0:0:0:
64,192,133717,1,0,0:0:0:0:
448,192,133764,1,0,0:0:0:0:
64,192,133811,1,0,0:0:0:0:
192,192,133858,1,0,0:0:0:0:
448,192,133905,1,0,0:0:0:0:
320,192,133905,1,0,0:0:0:0:
320,192,133998,1,0,0:0:0:0:
448,192,133998,1,0,0:0:0:0:
192,192,134092,1,0,0:0:0:0:
64,192,134092,1,0,0:0:0:0:
64,192,134186,1,0,0:0:0:0:
192,192,134186,1,0,0:0:0:0:
192,192,134280,128,0,134373:0:0:0:0:
448,192,134280,128,0,134467:0:0:0:0:
64,192,134280,128,0,134373:0:0:0:0:
320,192,134373,128,0,134467:0:0:0:0:
192,192,134467,128,0,134561:0:0:0:0:
64,192,134467,128,0,134561:0:0:0:0:
448,192,134561,128,0,134655:0:0:0:0:
320,192,134561,128,0,134655:0:0:0:0:
64,192,134655,128,0,134842:0:0:0:0:
192,192,134655,128,0,134748:0:0:0:0:
448,192,134748,128,0,134842:0:0:0:0:
320,192,134842,128,0,134936:0:0:0:0:
192,192,134842,128,0,134936:0:0:0:0:
64,192,134936,128,0,135030:0:0:0:0:
448,192,135030,128,0,135217:0:0:0:0:
320,192,135030,128,0,135123:0:0:0:0:
64,192,135123,128,0,135217:0:0:0:0:
192,192,135217,128,0,135311:0:0:0:0:
320,192,135217,128,0,135311:0:0:0:0:
448,192,135311,128,0,135405:0:0:0:0:
192,192,135405,128,0,135498:0:0:0:0:
64,192,135405,128,0,135498:0:0:0:0:
320,192,135451,1,0,0:0:0:0:
448,192,135498,128,0,135592:0:0:0:0:
64,192,135592,128,0,135686:0:0:0:0:
448,192,135686,128,0,135780:0:0:0:0:
320,192,135686,128,0,135780:0:0:0:0:
64,192,135780,128,0,135967:0:0:0:0:
192,192,135780,128,0,135873:0:0:0:0:
448,192,135873,128,0,135967:0:0:0:0:
320,192,135967,128,0,136061:0:0:0:0:
192,192,135967,128,0,136061:0:0:0:0:
448,192,136061,128,0,136155:0:0:0:0:
320,192,136155,128,0,136248:0:0:0:0:
192,192,136155,128,0,136248:0:0:0:0:
64,192,136155,128,0,136342:0:0:0:0:
448,192,136248,128,0,136342:0:0:0:0:
320,192,136342,128,0,136436:0:0:0:0:
192,192,136342,128,0,136436:0:0:0:0:
64,192,136436,128,0,136530:0:0:0:0:
448,192,136530,1,0,0:0:0:0:
320,192,136530,1,0,0:0:0:0:
320,192,136623,1,0,0:0:0:0:
320,192,136717,128,0,136811:0:0:0:0:
64,192,136717,128,0,136811:0:0:0:0:
448,192,136811,128,0,136905:0:0:0:0:
192,192,136905,1,0,0:0:0:0:
64,192,136905,1,0,0:0:0:0:
320,192,136951,1,0,0:0:0:0:
64,192,136998,128,0,137092:0:0:0:0:
448,192,137092,128,0,137186:0:0:0:0:
320,192,137092,128,0,137186:0:0:0:0:
192,192,137186,128,0,137280:0:0:0:0:
64,192,137186,128,0,137280:0:0:0:0:
320,192,137280,128,0,137373:0:0:0:0:
448,192,137280,128,0,137467:0:0:0:0:
64,192,137373,1,0,0:0:0:0:
320,192,137467,128,0,137561:0:0:0:0:
192,192,137467,128,0,137561:0:0:0:0:
448,192,137561,128,0,137655:0:0:0:0:
64,192,137655,128,0,137842:0:0:0:0:
192,192,137655,128,0,137748:0:0:0:0:
448,192,137748,128,0,137842:0:0:0:0:
320,192,137842,128,0,137936:0:0:0:0:
192,192,137842,128,0,137936:0:0:0:0:
64,192,137936,128,0,138030:0:0:0:0:
192,192,138030,1,0,0:0:0:0:
448,192,138030,1,0,0:0:0:0:
192,192,138123,1,0,0:0:0:0:
320,192,138217,128,0,138311:0:0:0:0:
192,192,138217,1,0,0:0:0:0:
448,192,138311,128,0,138405:0:0:0:0:
192,192,138405,128,0,138592:0:0:0:0:
64,192,138405,128,0,138498:0:0:0:0:
320,192,138498,1,0,0:0:0:0:
448,192,138592,128,0,138780:0:0:0:0:
320,192,138686,128,0,138780:0:0:0:0:
64,192,138780,128,0,138967:0:0:0:0:
192,192,138780,128,0,138873:0:0:0:0:
448,192,138873,128,0,138967:0:0:0:0:
320,192,138967,128,0,139248:0:0:0:0:
192,192,138967,128,0,139061:0:0:0:0:
64,192,139061,128,0,139155:0:0:0:0:
448,192,139155,128,0,139342:0:0:0:0:
192,192,139155,128,0,139342:0:0:0:0:
64,192,139248,128,0,139436:0:0:0:0:
320,192,139342,128,0,139530:0:0:0:0:
448,192,139436,128,0,139530:0:0:0:0:
192,192,139530,128,0,139717:0:0:0:0:
64,192,139530,128,0,139623:0:0:0:0:
448,192,139623,128,0,139717:0:0:0:0:
320,192,139717,128,0,139811:0:0:0:0:
64,192,139717,128,0,139811:0:0:0:0:
448,192,139811,128,0,139905:0:0:0:0:
192,192,139811,128,0,139998:0:0:0:0:
320,192,139905,1,0,0:0:0:0:
64,192,139905,128,0,140092:0:0:0:0:
448,192,139998,128,0,140092:0:0:0:0:
192,192,140092,128,0,140186:0:0:0:0:
320,192,140092,128,0,140186:0:0:0:0:
64,192,140186,128,0,140373:0:0:0:0:
192,192,140280,128,0,140373:0:0:0:0:
448,192,140280,128,0,140467:0:0:0:0:
320,192,140373,128,0,140467:0:0:0:0:
64,192,140467,128,0,140561:0:0:0:0:
192,192,140467,128,0,140561:0:0:0:0:
320,192,140561,128,0,140655:0:0:0:0:
448,192,140561,128,0,140655:0:0:0:0:
192,192,140655,128,0,140748:0:0:0:0:
64,192,140655,128,0,140842:0:0:0:0:
448,192,140748,128,0,140842:0:0:0:0:
192,192,140842,128,0,140936:0:0:0:0:
320,192,140842,128,0,140936:0:0:0:0:
64,192,140936,128,0,141030:0:0:0:0:
320,192,141030,128,0,141123:0:0:0:0:
448,192,141030,128,0,141217:0:0:0:0:
64,192,141123,128,0,141217:0:0:0:0:
320,192,141217,128,0,141311:0:0:0:0:
192,192,141217,128,0,141311:0:0:0:0:
448,192,141311,128,0,141405:0:0:0:0:
64,192,141405,128,0,141498:0:0:0:0:
192,192,141405,128,0,141498:0:0:0:0:
320,192,141451,1,0,0:0:0:0:
448,192,141498,128,0,141592:0:0:0:0:
64,192,141592,128,0,141686:0:0:0:0:
320,192,141686,128,0,141780:0:0:0:0:
64,192,141780,128,0,142061:0:0:0:0:
192,192,141780,128,0,141873:0:0:0:0:
448,192,141873,1,0,0:0:0:0:
192,192,141967,128,0,142061:0:0:0:0:
320,192,141967,128,0,142155:0:0:0:0:
448,192,142061,128,0,142155:0:0:0:0:
64,192,142155,128,0,142342:0:0:0:0:
192,192,142155,128,0,142248:0:0:0:0:
320,192,142248,128,0,142342:0:0:0:0:
448,192,142342,1,0,0:0:0:0:
192,192,142342,128,0,142436:0:0:0:0:
448,192,142436,1,0,0:0:0:0:
64,192,142436,128,0,142530:0:0:0:0:
192,192,142530,128,0,142717:0:0:0:0:
320,192,142530,1,0,0:0:0:0:
448,192,142623,128,0,142717:0:0:0:0:
64,192,142623,128,0,142811:0:0:0:0:
320,192,142717,128,0,142811:0:0:0:0:
448,192,142811,128,0,142905:0:0:0:0:
64,192,142905,1,0,0:0:0:0:
320,192,142905,1,0,0:0:0:0:
192,192,142951,1,0,0:0:0:0:
448,192,142998,128,0,143092:0:0:0:0:
64,192,143092,128,0,143186:0:0:0:0:
320,192,143186,128,0,143280:0:0:0:0:
448,192,143186,128,0,143373:0:0:0:0:
192,192,143280,128,0,143467:0:0:0:0:
64,192,143280,128,0,143561:0:0:0:0:
320,192,143373,128,0,143561:0:0:0:0:
448,192,143467,128,0,143561:0:0:0:0:
192,192,143561,128,0,143655:0:0:0:0:
64,192,143655,1,0,0:0:0:0:
448,192,143655,128,0,143936:0:0:0:0:
320,192,143655,128,0,143842:0:0:0:0:
192,192,143748,128,0,143936:0:0:0:0:
64,192,143842,128,0,143936:0:0:0:0:
320,192,143936,128,0,144030:0:0:0:0:
64,192,144030,128,0,144123:0:0:0:0:
192,192,144030,128,0,144217:0:0:0:0:
448,192,144123,128,0,144311:0:0:0:0:
64,192,144217,128,0,144311:0:0:0:0:
320,192,144311,128,0,144498:0:0:0:0:
192,192,144311,128,0,144405:0:0:0:0:
64,192,144405,1,0,0:0:0:0:
448,192,144405,128,0,144498:0:0:0:0:
192,192,144498,128,0,144592:0:0:0:0:
320,192,144592,128,0,144686:0:0:0:0:
448,192,144592,128,0,144780:0:0:0:0:
192,192,144686,128,0,144780:0:0:0:0:
320,192,144780,1,0,0:0:0:0:
64,192,144780,128,0,144873:0:0:0:0:
448,192,144873,128,0,144967:0:0:0:0:
192,192,144967,128,0,145061:0:0:0:0:
64,192,144967,128,0,145061:0:0:0:0:
448,192,145061,1,0,0:0:0:0:
320,192,145108,1,0,0:0:0:0:
64,192,145155,1,0,0:0:0:0:
192,192,145155,1,0,0:0:0:0:
448,192,145201,1,0,0:0:0:0:
192,192,145248,1,0,0:0:0:0:
64,192,145342,1,0,0:0:0:0:
320,192,145342,1,0,0:0:0:0:
448,192,145436,128,0,145530:0:0:0:0:
192,192,145530,1,0,0:0:0:0:
64,192,145530,1,0,0:0:0:0:
320,192,145576,1,0,0:0:0:0:
448,192,145623,1,0,0:0:0:0:
192,192,145670,1,0,0:0:0:0:
64,192,145717,1,0,0:0:0:0:
448,192,145717,1,0,0:0:0:0:
320,192,145764,1,0,0:0:0:0:
64,192,145811,1,0,0:0:0:0:
192,192,145858,1,0,0:0:0:0:
320,192,145905,1,0,0:0:0:0:
448,192,145905,1,0,0:0:0:0:
448,192,145998,1,0,0:0:0:0:
320,192,145998,1,0,0:0:0:0:
64,192,146092,1,0,0:0:0:0:
192,192,146092,1,0,0:0:0:0:
192,192,146186,1,0,0:0:0:0:
64,192,146186,1,0,0:0:0:0:
64,192,146280,128,0,146561:0:0:0:0:
192,192,146280,128,0,146373:0:0:0:0:
448,192,146280,128,0,146467:0:0:0:0:
320,192,146373,128,0,146467:0:0:0:0:
192,192,146467,128,0,146561:0:0:0:0:
448,192,146561,128,0,146655:0:0:0:0:
64,192,146655,128,0,146748:0:0:0:0:
192,192,146655,128,0,146936:0:0:0:0:
320,192,146655,128,0,146842:0:0:0:0:
448,192,146748,128,0,146842:0:0:0:0:
64,192,146842,128,0,146936:0:0:0:0:
320,192,146936,128,0,147030:0:0:0:0:
448,192,146936,128,0,147030:0:0:0:0:
192,192,147030,128,0,147311:0:0:0:0:
64,192,147030,128,0,147123:0:0:0:0:
320,192,147123,128,0,147217:0:0:0:0:
448,192,147123,128,0,147217:0:0:0:0:
64,192,147217,128,0,147311:0:0:0:0:
448,192,147311,128,0,147405:0:0:0:0:
320,192,147405,128,0,147592:0:0:0:0:
64,192,147405,128,0,147498:0:0:0:0:
192,192,147451,1,0,0:0:0:0:
448,192,147498,128,0,147592:0:0:0:0:
64,192,147592,128,0,147686:0:0:0:0:
192,192,147592,128,0,147780:0:0:0:0:
320,192,147686,128,0,147780:0:0:0:0:
64,192,147780,128,0,147967:0:0:0:0:
448,192,147780,128,0,147967:0:0:0:0:
192,192,147873,128,0,147967:0:0:0:0:
320,192,147967,128,0,148061:0:0:0:0:
64,192,148061,128,0,148155:0:0:0:0:
320,192,148155,128,0,148248:0:0:0:0:
448,192,148155,128,0,148342:0:0:0:0:
192,192,148155,128,0,148248:0:0:0:0:
64,192,148342,128,0,148436:0:0:0:0:
320,192,148389,1,0,0:0:0:0:
192,192,148436,1,0,0:0:0:0:
448,192,148483,1,0,0:0:0:0:
64,192,148530,1,0,0:0:0:0:
192,192,148530,1,0,0:0:0:0:
320,192,148530,128,0,148811:0:0:0:0:
64,192,148623,1,0,0:0:0:0:
448,192,148623,128,0,148717:0:0:0:0:
64,192,148717,1,0,0:0:0:0:
448,192,148811,128,0,148905:0:0:0:0:
64,192,148905,128,0,148998:0:0:0:0:
192,192,148905,128,0,148998:0:0:0:0:
320,192,148951,1,0,0:0:0:0:
448,192,148998,128,0,149092:0:0:0:0:
192,192,149092,128,0,149186:0:0:0:0:
64,192,149092,1,0,0:0:0:0:
320,192,149186,128,0,149280:0:0:0:0:
448,192,149280,128,0,149467:0:0:0:0:
192,192,149280,128,0,149373:0:0:0:0:
64,192,149280,128,0,149561:0:0:0:0:
320,192,149373,128,0,149467:0:0:0:0:
192,192,149467,128,0,149561:0:0:0:0:
448,192,149561,128,0,149655:0:0:0:0:
320,192,149655,128,0,149842:0:0:0:0:
192,192,149655,128,0,149936:0:0:0:0:
64,192,149655,128,0,149748:0:0:0:0:
448,192,149748,128,0,149842:0:0:0:0:
64,192,149842,128,0,149936:0:0:0:0:
448,192,149936,128,0,150030:0:0:0:0:
320,192,149936,128,0,150030:0:0:0:0:
64,192,150030,128,0,150123:0:0:0:0:
192,192,150030,128,0,150311:0:0:0:0:
448,192,150123,128,0,150217:0:0:0:0:
320,192,150123,128,0,150217:0:0:0:0:
64,192,150217,128,0,150311:0:0:0:0:
448,192,150311,128,0,150405:0:0:0:0:
64,192,150405,128,0,150498:0:0:0:0:
320,192,150405,128,0,150592:0:0:0:0:
192,192,150451,1,0,0:0:0:0:
448,192,150498,128,0,150592:0:0:0:0:
192,192,150592,128,0,150780:0:0:0:0:
64,192,150592,128,0,150686:0:0:0:0:
320,192,150686,128,0,150780:0:0:0:0:
448,192,150780,128,0,150967:0:0:0:0:
64,192,150780,128,0,150967:0:0:0:0:
192,192,150873,128,0,150967:0:0:0:0:
320,192,150967,128,0,151061:0:0:0:0:
64,192,151061,128,0,151155:0:0:0:0:
192,192,151061,128,0,151155:0:0:0:0:
448,192,151155,128,0,151342:0:0:0:0:
320,192,151155,128,0,151248:0:0:0:0:
192,192,151248,128,0,151342:0:0:0:0:
320,192,151342,128,0,151436:0:0:0:0:
64,192,151389,1,0,0:0:0:0:
448,192,151436,1,0,0:0:0:0:
192,192,151483,1,0,0:0:0:0:
320,192,151530,128,0,151811:0:0:0:0:
448,192,151530,1,0,0:0:0:0:
64,192,151623,128,0,151717:0:0:0:0:
192,192,151623,1,0,0:0:0:0:
448,192,151717,1,0,0:0:0:0:
448,192,151811,128,0,151905:0:0:0:0:
320,192,151905,128,0,151998:0:0:0:0:
64,192,151905,128,0,151998:0:0:0:0:
192,192,151951,1,0,0:0:0:0:
448,192,151998,128,0,152092:0:0:0:0:
64,192,152092,128,0,152186:0:0:0:0:
320,192,152186,128,0,152280:0:0:0:0:
192,192,152186,128,0,152373:0:0:0:0:
64,192,152280,128,0,152561:0:0:0:0:
448,192,152280,128,0,152467:0:0:0:0:
320,192,152373,128,0,152467:0:0:0:0:
192,192,152467,128,0,152561:0:0:0:0:
448,192,152561,128,0,152655:0:0:0:0:
64,192,152655,128,0,152748:0:0:0:0:
192,192,152655,128,0,152936:0:0:0:0:
320,192,152655,128,0,152842:0:0:0:0:
448,192,152748,128,0,152842:0:0:0:0:
64,192,152842,128,0,152936:0:0:0:0:
320,192,152936,128,0,153030:0:0:0:0:
448,192,152936,128,0,153030:0:0:0:0:
192,192,153030,128,0,153311:0:0:0:0:
64,192,153030,128,0,153123:0:0:0:0:
320,192,153123,128,0,153217:0:0:0:0:
448,192,153123,128,0,153217:0:0:0:0:
64,192,153217,128,0,153311:0:0:0:0:
448,192,153311,128,0,153405:0:0:0:0:
320,192,153405,128,0,153592:0:0:0:0:
64,192,153405,128,0,153498:0:0:0:0:
192,192,153451,1,0,0:0:0:0:
448,192,153498,128,0,153592:0:0:0:0:
64,192,153592,128,0,153686:0:0:0:0:
192,192,153592,128,0,153780:0:0:0:0:
320,192,153686,128,0,153780:0:0:0:0:
64,192,153780,128,0,153967:0:0:0:0:
448,192,153780,128,0,153967:0:0:0:0:
192,192,153873,128,0,153967:0:0:0:0:
320,192,153967,128,0,154061:0:0:0:0:
64,192,154061,128,0,154155:0:0:0:0:
320,192,154155,128,0,154248:0:0:0:0:
448,192,154155,128,0,154342:0:0:0:0:
192,192,154155,128,0,154248:0:0:0:0:
64,192,154342,128,0,154436:0:0:0:0:
320,192,154389,1,0,0:0:0:0:
192,192,154436,1,0,0:0:0:0:
448,192,154483,1,0,0:0:0:0:
64,192,154530,1,0,0:0:0:0:
192,192,154530,1,0,0:0:0:0:
320,192,154530,128,0,154811:0:0:0:0:
64,192,154623,1,0,0:0:0:0:
448,192,154623,128,0,154717:0:0:0:0:
64,192,154717,1,0,0:0:0:0:
448,192,154811,128,0,154905:0:0:0:0:
64,192,154905,128,0,154998:0:0:0:0:
192,192,154905,128,0,154998:0:0:0:0:
320,192,154951,1,0,0:0:0:0:
448,192,154998,128,0,155092:0:0:0:0:
64,192,155092,1,0,0:0:0:0:
192,192,155139,1,0,0:0:0:0:
448,192,155186,128,0,155373:0:0:0:0:
320,192,155233,1,0,0:0:0:0:
192,192,155280,128,0,155467:0:0:0:0:
64,192,155280,128,0,155561:0:0:0:0:
320,192,155373,128,0,155561:0:0:0:0:
448,192,155467,128,0,155561:0:0:0:0:
192,192,155561,128,0,155655:0:0:0:0:
64,192,155655,1,0,0:0:0:0:
448,192,155655,128,0,155936:0:0:0:0:
320,192,155655,128,0,155842:0:0:0:0:
192,192,155748,128,0,155936:0:0:0:0:
64,192,155842,128,0,155936:0:0:0:0:
320,192,155936,128,0,156030:0:0:0:0:
64,192,156030,128,0,156123:0:0:0:0:
192,192,156030,128,0,156217:0:0:0:0:
448,192,156123,128,0,156311:0:0:0:0:
64,192,156217,128,0,156311:0:0:0:0:
320,192,156311,128,0,156498:0:0:0:0:
192,192,156311,128,0,156405:0:0:0:0:
64,192,156405,1,0,0:0:0:0:
448,192,156405,128,0,156498:0:0:0:0:
192,192,156498,128,0,156592:0:0:0:0:
320,192,156592,128,0,156686:0:0:0:0:
448,192,156592,128,0,156780:0:0:0:0:
192,192,156686,128,0,156780:0:0:0:0:
320,192,156780,1,0,0:0:0:0:
64,192,156780,128,0,156873:0:0:0:0:
448,192,156873,128,0,156967:0:0:0:0:
192,192,156967,128,0,157061:0:0:0:0:
64,192,156967,128,0,157061:0:0:0:0:
448,192,157061,1,0,0:0:0:0:
320,192,157108,1,0,0:0:0:0:
64,192,157155,1,0,0:0:0:0:
192,192,157155,1,0,0:0:0:0:
192,192,157248,1,0,0:0:0:0:
320,192,157342,1,0,0:0:0:0:
448,192,157342,1,0,0:0:0:0:
64,192,157389,1,0,0:0:0:0:
448,192,157436,128,0,157530:0:0:0:0:
192,192,157530,1,0,0:0:0:0:
64,192,157530,1,0,0:0:0:0:
320,192,157576,1,0,0:0:0:0:
448,192,157623,1,0,0:0:0:0:
192,192,157670,1,0,0:0:0:0:
64,192,157717,1,0,0:0:0:0:
448,192,157717,1,0,0:0:0:0:
320,192,157764,1,0,0:0:0:0:
64,192,157811,1,0,0:0:0:0:
192,192,157858,1,0,0:0:0:0:
320,192,157905,1,0,0:0:0:0:
448,192,157905,1,0,0:0:0:0:
448,192,157998,1,0,0:0:0:0:
320,192,157998,1,0,0:0:0:0:
64,192,158092,1,0,0:0:0:0:
192,192,158092,1,0,0:0:0:0:
192,192,158186,1,0,0:0:0:0:
64,192,158186,1,0,0:0:0:0:
64,192,158280,128,0,158561:0:0:0:0:
192,192,158280,128,0,158373:0:0:0:0:
448,192,158280,128,0,158467:0:0:0:0:
320,192,158373,128,0,158467:0:0:0:0:
192,192,158467,128,0,158561:0:0:0:0:
448,192,158561,128,0,158655:0:0:0:0:
64,192,158655,128,0,158748:0:0:0:0:
192,192,158655,128,0,158936:0:0:0:0:
320,192,158655,128,0,158842:0:0:0:0:
448,192,158748,128,0,158842:0:0:0:0:
64,192,158842,128,0,158936:0:0:0:0:
320,192,158936,128,0,159030:0:0:0:0:
448,192,158936,128,0,159030:0:0:0:0:
192,192,159030,128,0,159311:0:0:0:0:
64,192,159030,128,0,159123:0:0:0:0:
320,192,159123,128,0,159217:0:0:0:0:
448,192,159123,128,0,159217:0:0:0:0:
64,192,159217,128,0,159311:0:0:0:0:
448,192,159311,128,0,159405:0:0:0:0:
320,192,159405,128,0,159592:0:0:0:0:
64,192,159405,128,0,159498:0:0:0:0:
192,192,159451,1,0,0:0:0:0:
448,192,159498,128,0,159592:0:0:0:0:
64,192,159592,128,0,159686:0:0:0:0:
192,192,159592,128,0,159780:0:0:0:0:
320,192,159686,128,0,159780:0:0:0:0:
64,192,159780,128,0,159967:0:0:0:0:
448,192,159780,128,0,159967:0:0:0:0:
192,192,159873,128,0,159967:0:0:0:0:
320,192,159967,128,0,160061:0:0:0:0:
64,192,160061,128,0,160155:0:0:0:0:
320,192,160155,128,0,160248:0:0:0:0:
448,192,160155,128,0,160342:0:0:0:0:
192,192,160155,128,0,160248:0:0:0:0:
64,192,160342,128,0,160436:0:0:0:0:
320,192,160389,1,0,0:0:0:0:
192,192,160436,1,0,0:0:0:0:
448,192,160483,1,0,0:0:0:0:
64,192,160530,1,0,0:0:0:0:
192,192,160530,1,0,0:0:0:0:
320,192,160530,128,0,160811:0:0:0:0:
64,192,160623,1,0,0:0:0:0:
448,192,160623,128,0,160717:0:0:0:0:
64,192,160717,1,0,0:0:0:0:
448,192,160811,128,0,160905:0:0:0:0:
64,192,160905,128,0,160998:0:0:0:0:
192,192,160905,128,0,160998:0:0:0:0:
320,192,160951,1,0,0:0:0:0:
448,192,160998,128,0,161092:0:0:0:0:
192,192,161092,128,0,161186:0:0:0:0:
64,192,161092,1,0,0:0:0:0:
320,192,161186,128,0,161280:0:0:0:0:
448,192,161280,128,0,161467:0:0:0:0:
192,192,161280,128,0,161373:0:0:0:0:
64,192,161280,128,0,161561:0:0:0:0:
320,192,161373,128,0,161467:0:0:0:0:
192,192,161467,128,0,161561:0:0:0:0:
448,192,161561,128,0,161655:0:0:0:0:
320,192,161655,128,0,161842:0:0:0:0:
192,192,161655,128,0,161936:0:0:0:0:
64,192,161655,128,0,161748:0:0:0:0:
448,192,161748,128,0,161842:0:0:0:0:
64,192,161842,128,0,161936:0:0:0:0:
448,192,161936,128,0,162030:0:0:0:0:
320,192,161936,128,0,162030:0:0:0:0:
64,192,162030,128,0,162123:0:0:0:0:
192,192,162030,128,0,162311:0:0:0:0:
448,192,162123,128,0,162217:0:0:0:0:
320,192,162123,128,0,162217:0:0:0:0:
64,192,162217,128,0,162311:0:0:0:0:
448,192,162311,128,0,162405:0:0:0:0:
64,192,162405,128,0,162498:0:0:0:0:
320,192,162405,128,0,162592:0:0:0:0:
192,192,162451,1,0,0:0:0:0:
448,192,162498,128,0,162592:0:0:0:0:
192,192,162592,128,0,162780:0:0:0:0:
64,192,162592,128,0,162686:0:0:0:0:
320,192,162686,128,0,162780:0:0:0:0:
448,192,162780,128,0,162967:0:0:0:0:
64,192,162780,128,0,162967:0:0:0:0:
192,192,162873,128,0,162967:0:0:0:0:
320,192,162967,128,0,163061:0:0:0:0:
64,192,163061,128,0,163155:0:0:0:0:
192,192,163061,128,0,163155:0:0:0:0:
448,192,163155,128,0,163342:0:0:0:0:
320,192,163155,128,0,163248:0:0:0:0:
192,192,163248,128,0,163342:0:0:0:0:
320,192,163342,128,0,163436:0:0:0:0:
64,192,163389,1,0,0:0:0:0:
448,192,163436,1,0,0:0:0:0:
192,192,163483,1,0,0:0:0:0:
320,192,163530,128,0,163811:0:0:0:0:
448,192,163530,1,0,0:0:0:0:
64,192,163623,128,0,163717:0:0:0:0:
192,192,163623,1,0,0:0:0:0:
448,192,163717,1,0,0:0:0:0:
448,192,163811,128,0,163905:0:0:0:0:
320,192,163905,128,0,163998:0:0:0:0:
64,192,163905,128,0,163998:0:0:0:0:
192,192,163951,1,0,0:0:0:0:
448,192,163998,128,0,164092:0:0:0:0:
64,192,164092,128,0,164186:0:0:0:0:
192,192,164186,1,0,0:0:0:0:
64,192,164280,128,0,164561:0:0:0:0:
448,192,164280,128,0,164467:0:0:0:0:
192,192,164280,128,0,164373:0:0:0:0:
320,192,164280,1,0,0:0:0:0:
320,192,164373,128,0,164467:0:0:0:0:
192,192,164467,128,0,164561:0:0:0:0:
448,192,164561,128,0,164655:0:0:0:0:
64,192,164655,128,0,164748:0:0:0:0:
192,192,164655,128,0,164936:0:0:0:0:
320,192,164655,128,0,164842:0:0:0:0:
448,192,164748,128,0,164842:0:0:0:0:
64,192,164842,128,0,164936:0:0:0:0:
320,192,164936,128,0,165030:0:0:0:0:
448,192,164936,128,0,165030:0:0:0:0:
192,192,165030,128,0,165311:0:0:0:0:
64,192,165030,128,0,165123:0:0:0:0:
320,192,165123,128,0,165217:0:0:0:0:
448,192,165123,128,0,165217:0:0:0:0:
64,192,165217,128,0,165311:0:0:0:0:
448,192,165311,128,0,165405:0:0:0:0:
320,192,165405,128,0,165592:0:0:0:0:
64,192,165405,128,0,165498:0:0:0:0:
192,192,165451,1,0,0:0:0:0:
448,192,165498,128,0,165592:0:0:0:0:
64,192,165592,128,0,165686:0:0:0:0:
192,192,165592,128,0,165686:0:0:0:0:
320,192,165686,1,0,0:0:0:0:
64,192,165780,128,0,165967:0:0:0:0:
448,192,165780,128,0,165967:0:0:0:0:
192,192,165780,1,0,0:0:0:0:
320,192,165780,128,0,165873:0:0:0:0:
192,192,165873,128,0,165967:0:0:0:0:
320,192,165967,128,0,166061:0:0:0:0:
64,192,166061,128,0,166155:0:0:0:0:
320,192,166155,128,0,166248:0:0:0:0:
448,192,166155,128,0,166342:0:0:0:0:
192,192,166155,128,0,166248:0:0:0:0:
64,192,166342,128,0,166436:0:0:0:0:
320,192,166389,1,0,0:0:0:0:
192,192,166436,1,0,0:0:0:0:
448,192,166483,1,0,0:0:0:0:
64,192,166530,1,0,0:0:0:0:
192,192,166530,1,0,0:0:0:0:
320,192,166530,128,0,166811:0:0:0:0:
64,192,166623,1,0,0:0:0:0:
448,192,166623,128,0,166717:0:0:0:0:
64,192,166717,1,0,0:0:0:0:
448,192,166811,128,0,166905:0:0:0:0:
64,192,166905,128,0,166998:0:0:0:0:
192,192,166905,128,0,166998:0:0:0:0:
320,192,166951,1,0,0:0:0:0:
448,192,166998,128,0,167092:0:0:0:0:
64,192,167092,1,0,0:0:0:0:
192,192,167139,1,0,0:0:0:0:
320,192,167186,1,0,0:0:0:0:
448,192,167233,1,0,0:0:0:0:
192,192,167280,128,0,167373:0:0:0:0:
64,192,167280,128,0,167561:0:0:0:0:
320,192,167321,128,0,167467:0:0:0:0:
448,192,167363,128,0,167561:0:0:0:0:
192,192,167467,1,0,0:0:0:0:
192,192,167561,128,0,167655:0:0:0:0:
64,192,167655,1,0,0:0:0:0:
448,192,167655,128,0,167842:0:0:0:0:
320,192,167655,128,0,167842:0:0:0:0:
192,192,167748,128,0,167842:0:0:0:0:
64,192,167842,1,0,0:0:0:0:
448,192,167889,1,0,0:0:0:0:
192,192,167936,1,0,0:0:0:0:
320,192,167983,1,0,0:0:0:0:
64,192,168030,128,0,168123:0:0:0:0:
192,192,168030,128,0,168217:0:0:0:0:
448,192,168030,1,0,0:0:0:0:
320,192,168123,128,0,168217:0:0:0:0:
64,192,168217,128,0,168311:0:0:0:0:
448,192,168311,128,0,168498:0:0:0:0:
192,192,168311,128,0,168405:0:0:0:0:
64,192,168405,1,0,0:0:0:0:
320,192,168405,128,0,168498:0:0:0:0:
192,192,168498,128,0,168592:0:0:0:0:
64,192,168592,1,0,0:0:0:0:
448,192,168639,1,0,0:0:0:0:
320,192,168686,1,0,0:0:0:0:
192,192,168733,1,0,0:0:0:0:
64,192,168780,128,0,168873:0:0:0:0:
320,192,168780,1,0,0:0:0:0:
448,192,168780,1,0,0:0:0:0:
448,192,168873,128,0,168967:0:0:0:0:
64,192,168967,1,0,0:0:0:0:
192,192,169014,1,0,0:0:0:0:
448,192,169061,1,0,0:0:0:0:
320,192,169108,1,0,0:0:0:0:
64,192,169155,1,0,0:0:0:0:
192,192,169155,1,0,0:0:0:0:
448,192,169155,1,0,0:0:0:0:
192,192,169248,1,0,0:0:0:0:
320,192,169342,1,0,0:0:0:0:
448,192,169342,1,0,0:0:0:0:
64,192,169389,1,0,0:0:0:0:
448,192,169436,128,0,169530:0:0:0:0:
192,192,169530,1,0,0:0:0:0:
64,192,169530,1,0,0:0:0:0:
320,192,169576,1,0,0:0:0:0:
448,192,169623,1,0,0:0:0:0:
192,192,169670,1,0,0:0:0:0:
64,192,169717,1,0,0:0:0:0:
320,192,169717,1,0,0:0:0:0:
448,192,169764,1,0,0:0:0:0:
64,192,169811,1,0,0:0:0:0:
192,192,169858,1,0,0:0:0:0:
320,192,169905,1,0,0:0:0:0:
448,192,169905,1,0,0:0:0:0:
64,192,169951,1,0,0:0:0:0:
320,192,169998,1,0,0:0:0:0:
192,192,170045,1,0,0:0:0:0:
64,192,170092,1,0,0:0:0:0:
448,192,170139,1,0,0:0:0:0:
64,192,170186,1,0,0:0:0:0:
192,192,170233,1,0,0:0:0:0:
320,192,170280,128,0,170655:0:0:0:0:
448,192,170280,128,0,170373:0:0:0:0:
64,192,170373,1,0,0:0:0:0:
192,192,170467,128,0,170530:0:0:0:0:
192,192,170655,128,0,170748:0:0:0:0:
448,192,170655,1,0,0:0:0:0:
64,192,170655,1,0,0:0:0:0:
64,192,170842,128,0,170936:0:0:0:0:
320,192,170842,128,0,170905:0:0:0:0:
320,192,171030,128,0,171405:0:0:0:0:
64,192,171030,1,0,0:0:0:0:
192,192,171123,1,0,0:0:0:0:
448,192,171217,128,0,171311:0:0:0:0:
64,192,171238,1,0,0:0:0:0:
192,192,171405,128,0,171498:0:0:0:0:
64,192,171405,1,0,0:0:0:0:
64,192,171592,128,0,171686:0:0:0:0:
192,192,171686,1,0,0:0:0:0:
448,192,171780,128,0,172061:0:0:0:0:
64,192,171780,128,0,171842:0:0:0:0:
192,192,171873,1,0,0:0:0:0:
320,192,171967,128,0,172030:0:0:0:0:
64,192,172061,1,0,0:0:0:0:
192,192,172155,128,0,172248:0:0:0:0:
448,192,172155,1,0,0:0:0:0:
320,192,172155,1,0,0:0:0:0:
64,192,172342,128,0,172436:0:0:0:0:
192,192,172436,1,0,0:0:0:0:
448,192,172530,128,0,172811:0:0:0:0:
64,192,172530,1,0,0:0:0:0:
320,192,172530,128,0,172592:0:0:0:0:
192,192,172623,1,0,0:0:0:0:
320,192,172717,128,0,172780:0:0:0:0:
192,192,172905,128,0,172998:0:0:0:0:
64,192,172905,1,0,0:0:0:0:
448,192,172905,1,0,0:0:0:0:
64,192,173092,128,0,173186:0:0:0:0:
192,192,173186,1,0,0:0:0:0:
320,192,173280,128,0,173655:0:0:0:0:
64,192,173280,1,0,0:0:0:0:
448,192,173373,1,0,0:0:0:0:
192,192,173467,128,0,173530:0:0:0:0:
448,192,173561,1,0,0:0:0:0:
192,192,173655,128,0,173748:0:0:0:0:
64,192,173655,1,0,0:0:0:0:
448,192,173655,1,0,0:0:0:0:
64,192,173842,128,0,173936:0:0:0:0:
320,192,173842,128,0,173905:0:0:0:0:
448,192,173936,1,0,0:0:0:0:
320,192,174030,128,0,174405:0:0:0:0:
64,192,174030,1,0,0:0:0:0:
192,192,174123,1,0,0:0:0:0:
448,192,174217,128,0,174311:0:0:0:0:
64,192,174238,1,0,0:0:0:0:
192,192,174405,128,0,174498:0:0:0:0:
64,192,174405,1,0,0:0:0:0:
64,192,174592,128,0,174686:0:0:0:0:
192,192,174686,1,0,0:0:0:0:
448,192,174780,128,0,175061:0:0:0:0:
64,192,174780,128,0,174842:0:0:0:0:
192,192,174873,1,0,0:0:0:0:
320,192,174967,128,0,175030:0:0:0:0:
64,192,175061,1,0,0:0:0:0:
192,192,175155,128,0,175248:0:0:0:0:
448,192,175155,1,0,0:0:0:0:
320,192,175155,1,0,0:0:0:0:
64,192,175342,128,0,175436:0:0:0:0:
192,192,175436,1,0,0:0:0:0:
448,192,175530,128,0,175811:0:0:0:0:
64,192,175530,1,0,0:0:0:0:
320,192,175530,128,0,175592:0:0:0:0:
192,192,175623,1,0,0:0:0:0:
320,192,175717,128,0,175780:0:0:0:0:
192,192,175905,128,0,175998:0:0:0:0:
64,192,175905,1,0,0:0:0:0:
448,192,175905,1,0,0:0:0:0:
64,192,176092,128,0,176186:0:0:0:0:
448,192,176186,1,0,0:0:0:0:
64,192,176280,1,0,0:0:0:0:
320,192,176280,128,0,176655:0:0:0:0:
448,192,176373,1,0,0:0:0:0:
192,192,176467,128,0,176530:0:0:0:0:
64,192,176488,1,0,0:0:0:0:
64,192,176655,1,0,0:0:0:0:
448,192,176655,1,0,0:0:0:0:
192,192,176655,128,0,176748:0:0:0:0:
320,192,176842,128,0,176905:0:0:0:0:
64,192,176842,128,0,176936:0:0:0:0:
64,192,177030,1,0,0:0:0:0:
320,192,177030,128,0,177405:0:0:0:0:
192,192,177123,1,0,0:0:0:0:
448,192,177217,128,0,177311:0:0:0:0:
64,192,177238,1,0,0:0:0:0:
64,192,177405,1,0,0:0:0:0:
192,192,177405,128,0,177498:0:0:0:0:
448,192,177405,1,0,0:0:0:0:
64,192,177592,128,0,177686:0:0:0:0:
192,192,177686,1,0,0:0:0:0:
64,192,177780,128,0,177842:0:0:0:0:
448,192,177780,128,0,178061:0:0:0:0:
192,192,177873,1,0,0:0:0:0:
320,192,177967,128,0,178030:0:0:0:0:
64,192,178061,1,0,0:0:0:0:
320,192,178155,1,0,0:0:0:0:
448,192,178155,1,0,0:0:0:0:
192,192,178155,128,0,178248:0:0:0:0:
64,192,178342,128,0,178436:0:0:0:0:
192,192,178436,1,0,0:0:0:0:
320,192,178530,128,0,178592:0:0:0:0:
64,192,178530,1,0,0:0:0:0:
448,192,178530,128,0,178811:0:0:0:0:
192,192,178623,1,0,0:0:0:0:
320,192,178717,128,0,178780:0:0:0:0:
448,192,178905,1,0,0:0:0:0:
64,192,178905,1,0,0:0:0:0:
192,192,178905,128,0,178998:0:0:0:0:
64,192,179092,128,0,179186:0:0:0:0:
448,192,179186,1,0,0:0:0:0:
64,192,179280,1,0,0:0:0:0:
192,192,179280,1,0,0:0:0:0:
320,192,179373,1,0,0:0:0:0:
192,192,179467,1,0,0:0:0:0:
448,192,179488,1,0,0:0:0:0:
192,192,179561,1,0,0:0:0:0:
448,192,179655,1,0,0:0:0:0:
64,192,179655,1,0,0:0:0:0:
320,192,179748,1,0,0:0:0:0:
320,192,179842,1,0,0:0:0:0:
192,192,179863,1,0,0:0:0:0:
64,192,179936,1,0,0:0:0:0:
192,192,180030,1,0,0:0:0:0:
448,192,180030,1,0,0:0:0:0:
448,192,180123,1,0,0:0:0:0:
64,192,180217,1,0,0:0:0:0:
448,192,180238,1,0,0:0:0:0:
320,192,180280,1,0,0:0:0:0:
192,192,180342,1,0,0:0:0:0:
64,192,180405,1,0,0:0:0:0:
448,192,180405,1,0,0:0:0:0:
320,192,180467,1,0,0:0:0:0:
448,192,180530,1,0,0:0:0:0:
192,192,180592,1,0,0:0:0:0:
320,192,180613,1,0,0:0:0:0:
64,192,180686,1,0,0:0:0:0:
448,192,180780,1,0,0:0:0:0:
192,192,180780,1,0,0:0:0:0:
448,192,180873,1,0,0:0:0:0:
320,192,180967,1,0,0:0:0:0:
64,192,180988,1,0,0:0:0:0:
192,192,181061,1,0,0:0:0:0:
448,192,181155,1,0,0:0:0:0:
320,192,181155,1,0,0:0:0:0:
448,192,181248,1,0,0:0:0:0:
64,192,181342,1,0,0:0:0:0:
192,192,181342,1,0,0:0:0:0:
448,192,181389,1,0,0:0:0:0:
64,192,181436,1,0,0:0:0:0:
192,192,181530,1,0,0:0:0:0:
64,192,181530,1,0,0:0:0:0:
320,192,181576,1,0,0:0:0:0:
448,192,181623,1,0,0:0:0:0:
192,192,181670,1,0,0:0:0:0:
320,192,181717,1,0,0:0:0:0:
64,192,181764,1,0,0:0:0:0:
320,192,181811,1,0,0:0:0:0:
192,192,181858,1,0,0:0:0:0:
448,192,181905,1,0,0:0:0:0:
64,192,181905,1,0,0:0:0:0:
320,192,181951,1,0,0:0:0:0:
64,192,181998,1,0,0:0:0:0:
448,192,182045,1,0,0:0:0:0:
192,192,182092,1,0,0:0:0:0:
320,192,182139,1,0,0:0:0:0:
64,192,182186,1,0,0:0:0:0:
192,192,182233,1,0,0:0:0:0:
448,192,182280,128,0,182373:0:0:0:0:
320,192,182280,128,0,182655:0:0:0:0:
192,192,182467,1,0,0:0:0:0:
448,192,182655,1,0,0:0:0:0:
192,192,182655,128,0,182748:0:0:0:0:
64,192,182842,128,0,182936:0:0:0:0:
64,192,183030,1,0,0:0:0:0:
320,192,183030,128,0,183405:0:0:0:0:
448,192,183217,1,0,0:0:0:0:
192,192,183238,1,0,0:0:0:0:
64,192,183405,1,0,0:0:0:0:
192,192,183405,128,0,183498:0:0:0:0:
64,192,183592,128,0,183686:0:0:0:0:
448,192,183613,1,0,0:0:0:0:
320,192,183686,1,0,0:0:0:0:
64,192,183780,1,0,0:0:0:0:
192,192,183780,1,0,0:0:0:0:
320,192,183873,1,0,0:0:0:0:
448,192,183967,128,0,184061:0:0:0:0:
448,192,184155,1,0,0:0:0:0:
192,192,184155,128,0,184248:0:0:0:0:
64,192,184342,128,0,184436:0:0:0:0:
64,192,184530,1,0,0:0:0:0:
448,192,184530,128,0,184811:0:0:0:0:
64,192,184717,1,0,0:0:0:0:
448,192,184905,1,0,0:0:0:0:
192,192,184905,128,0,184998:0:0:0:0:
64,192,185092,128,0,185186:0:0:0:0:
64,192,185280,1,0,0:0:0:0:
320,192,185280,128,0,185655:0:0:0:0:
448,192,185373,1,0,0:0:0:0:
192,192,185467,1,0,0:0:0:0:
448,192,185655,1,0,0:0:0:0:
192,192,185655,128,0,185748:0:0:0:0:
64,192,185842,128,0,185936:0:0:0:0:
64,192,186030,1,0,0:0:0:0:
320,192,186030,128,0,186405:0:0:0:0:
448,192,186217,1,0,0:0:0:0:
192,192,186238,1,0,0:0:0:0:
64,192,186405,1,0,0:0:0:0:
192,192,186405,128,0,186498:0:0:0:0:
64,192,186592,128,0,186686:0:0:0:0:
64,192,186780,1,0,0:0:0:0:
448,192,186780,1,0,0:0:0:0:
192,192,186873,1,0,0:0:0:0:
448,192,186967,128,0,187061:0:0:0:0:
320,192,186988,1,0,0:0:0:0:
192,192,187155,128,0,187248:0:0:0:0:
448,192,187155,1,0,0:0:0:0:
64,192,187342,128,0,187436:0:0:0:0:
448,192,187530,128,0,187623:0:0:0:0:
64,192,187530,1,0,0:0:0:0:
448,192,187717,1,0,0:0:0:0:
192,192,187905,128,0,187998:0:0:0:0:
320,192,187905,1,0,0:0:0:0:
64,192,188092,128,0,188186:0:0:0:0:
192,192,188186,1,0,0:0:0:0:
320,192,188280,128,0,188655:0:0:0:0:
64,192,188280,1,0,0:0:0:0:
448,192,188280,1,0,0:0:0:0:
64,192,188467,1,0,0:0:0:0:
192,192,188655,128,0,188748:0:0:0:0:
448,192,188655,1,0,0:0:0:0:
64,192,188842,128,0,188936:0:0:0:0:
320,192,188842,1,0,0:0:0:0:
320,192,189030,128,0,189405:0:0:0:0:
64,192,189030,1,0,0:0:0:0:
448,192,189217,1,0,0:0:0:0:
192,192,189238,1,0,0:0:0:0:
192,192,189405,128,0,189498:0:0:0:0:
64,192,189405,1,0,0:0:0:0:
64,192,189592,128,0,189686:0:0:0:0:
448,192,189613,1,0,0:0:0:0:
320,192,189686,1,0,0:0:0:0:
192,192,189780,1,0,0:0:0:0:
64,192,189780,1,0,0:0:0:0:
448,192,189780,1,0,0:0:0:0:
448,192,189967,1,0,0:0:0:0:
192,192,189967,128,0,190061:0:0:0:0:
320,192,190155,128,0,190248:0:0:0:0:
64,192,190248,1,0,0:0:0:0:
64,192,190342,1,0,0:0:0:0:
448,192,190342,128,0,190436:0:0:0:0:
320,192,190530,128,0,190623:0:0:0:0:
64,192,190717,128,0,190811:0:0:0:0:
192,192,190905,128,0,190998:0:0:0:0:
448,192,190905,128,0,191092:0:0:0:0:
320,192,191092,128,0,191186:0:0:0:0:
64,192,191092,1,0,0:0:0:0:
448,192,191186,1,0,0:0:0:0:
64,192,191280,1,0,0:0:0:0:
192,192,191280,1,0,0:0:0:0:
320,192,191280,1,0,0:0:0:0:
448,192,191373,1,0,0:0:0:0:
64,192,191467,1,0,0:0:0:0:
192,192,191561,1,0,0:0:0:0:
448,192,191655,1,0,0:0:0:0:
64,192,191655,1,0,0:0:0:0:
320,192,191748,1,0,0:0:0:0:
320,192,191842,1,0,0:0:0:0:
64,192,191936,1,0,0:0:0:0:
192,192,192030,1,0,0:0:0:0:
448,192,192030,1,0,0:0:0:0:
320,192,192030,128,0,192123:0:0:0:0:
64,192,192123,1,0,0:0:0:0:
448,192,192217,1,0,0:0:0:0:
192,192,192311,1,0,0:0:0:0:
320,192,192405,1,0,0:0:0:0:
448,192,192405,1,0,0:0:0:0:
64,192,192498,1,0,0:0:0:0:
320,192,192592,1,0,0:0:0:0:
64,192,192686,1,0,0:0:0:0:
192,192,192780,1,0,0:0:0:0:
448,192,192780,1,0,0:0:0:0:
320,192,192826,1,0,0:0:0:0:
64,192,192873,1,0,0:0:0:0:
192,192,192920,1,0,0:0:0:0:
448,192,192967,1,0,0:0:0:0:
64,192,193014,1,0,0:0:0:0:
320,192,193061,1,0,0:0:0:0:
192,192,193108,1,0,0:0:0:0:
64,192,193155,1,0,0:0:0:0:
448,192,193155,1,0,0:0:0:0:
320,192,193201,1,0,0:0:0:0:
192,192,193248,1,0,0:0:0:0:
448,192,193295,1,0,0:0:0:0:
64,192,193342,1,0,0:0:0:0:
192,192,193389,1,0,0:0:0:0:
320,192,193436,1,0,0:0:0:0:
448,192,193483,1,0,0:0:0:0:
64,192,193530,128,0,193623:0:0:0:0:
192,192,193530,128,0,193623:0:0:0:0:
320,192,193623,1,0,0:0:0:0:
64,192,193717,128,0,193764:0:0:0:0:
192,192,193717,128,0,193764:0:0:0:0:
64,192,193905,128,0,194233:0:0:0:0:
192,192,193905,128,0,194186:0:0:0:0:
320,192,193905,128,0,194139:0:0:0:0:
448,192,193905,128,0,194092:0:0:0:0:
