osu file format v14

[General]
AudioFilename: audioNew.mp3
AudioLeadIn: 0
PreviewTime: 51221
Countdown: 0
SampleSet: Normal
StackLeniency: 0.7
Mode: 1
LetterboxInBreaks: 0
WidescreenStoryboard: 1

[Editor]
Bookmarks: 730,12700,20435,35902,51352,66721,81891,97133,112440,127626,142859,158071,173241,188319,203303,214552
DistanceSpacing: 0.85
BeatDivisor: 4
GridSize: 32
TimelineZoom: 1.493633

[Metadata]
Title:September
TitleUnicode:September
Artist:Earth, Wind & Fire
ArtistUnicode:Earth, Wind & Fire
Creator:HomieLove
Version:Muzukashii
Source:
Tags:Greenshell The Best of Earth, Wind & Fire Vol. 1 1970's EWF and English Disco Funk Soul Maurice White Philip Bailey Verdine White Johnny Graham Al McKay Larry Dunn Ralph Johnson Fred White Rahmlee Michael Davis Michael Harris Louis Satterfield Andrew Woolfolk Phenix Horns
BeatmapID:4314018
BeatmapSetID:2059468

[Difficulty]
HPDrainRate:5
CircleSize:3
OverallDifficulty:4
ApproachRate:10
SliderMultiplier:1.4
SliderTickRate:1

[Events]
//Background and Video events
0,0,"EWF2_20181121032541__0cfef257.jpg",0,30
//Break Periods
//Storyboard Layer 0 (Background)
//Storyboard Layer 1 (Fail)
//Storyboard Layer 2 (Pass)
//Storyboard Layer 3 (Foreground)
//Storyboard Layer 4 (Overlay)
//Storyboard Sound Samples

[TimingPoints]
730,508.474576271186,4,1,0,40,1,0
730,-93.6494676108796,4,1,0,40,0,0
2763,504.625735912532,4,1,0,40,1,0
2763,-94.3530714123156,4,1,0,40,0,0
4781,503.14465408805,4,1,0,40,1,0
4781,-94.6201984966161,4,1,0,40,0,0
8303,467.836257309941,4,1,0,40,1,8
8303,-101.740106668976,4,1,0,40,0,0
8770,500,4,1,0,40,1,0
8770,-95.1941883058191,4,1,0,40,0,0
10270,495.867768595041,4,1,0,40,1,8
10270,-95.9781455297448,4,1,0,40,0,0
10765,487.80487804878,4,1,0,40,1,0
10765,-97.5632220301874,4,1,0,40,0,0
12228,437.956204379562,4,1,0,40,1,8
12228,-108.65914329768,4,1,0,40,0,0
12700,483.870967741935,4,1,0,40,1,0
12700,-98.3458418198933,4,1,0,40,0,0
15119,478.08764940239,4,1,0,40,1,8
15119,-99.5221262267126,4,1,0,40,0,0
16553,485.82995951417,4,1,0,40,1,0
16553,-97.92831493125,4,1,0,40,0,0
17524,471.512770137524,4,1,0,40,1,8
17524,-100.895089778092,4,1,0,40,0,0
18467,495.867768595041,4,1,0,40,1,0
18467,-95.9357564269577,4,1,0,40,0,0
19458,488.798370672097,4,1,0,40,1,8
19458,-97.3178986122175,4,1,0,40,0,0
20435,487.80487804878,4,1,0,40,1,0
20435,-97.5108161679283,4,1,0,40,0,0
22386,482.897384305835,4,1,0,40,1,0
22386,-98.4911083784462,4,1,0,40,0,0
26249,484.848484848484,4,1,0,40,1,0
26249,-98.0737203398151,4,1,0,40,0,0
29642,476.190476190476,4,1,0,40,1,8
29642,-99.838066400319,4,1,0,40,0,0
30118,484.848484848484,4,1,0,40,1,0
30118,-98.0526541927711,4,1,0,40,0,0
32057,483.870967741935,4,1,0,40,1,0
32057,-98.2401646839425,4,1,0,40,0,0
33992,475.247524752474,4,1,0,40,1,0
33992,-100.012002685387,4,1,0,40,0,0
35417,485.82995951417,4,1,0,40,1,8
35417,-97.8257856165725,4,1,0,40,0,0
35902,485.82995951417,4,1,0,40,1,0
35902,-97.823152383035,4,1,0,40,0,0
39788,482.897384305835,4,1,0,40,1,0
39788,-98.3960048066021,4,1,0,40,0,0
41719,480.961923847695,4,1,0,40,1,0
41719,-98.7813778386079,4,1,0,40,0,0
43642,479.041916167665,4,1,0,40,1,0
43642,-99.1667148286418,4,1,0,40,0,0
45558,483.870967741935,4,1,0,40,1,0
45558,-98.1665919942042,4,1,0,40,0,0
47493,485.82995951417,4,1,0,40,1,0
47493,-97.7602629670423,4,1,0,40,0,0
49436,479.041916167665,4,1,0,40,1,0
49436,-99.1348499243211,4,1,0,40,0,0
51352,485.82995951417,4,1,0,40,1,1
51352,-97.7393430866912,4,1,0,40,0,1
53295,482.897384305835,4,1,0,40,1,1
53295,-98.3223142848923,4,1,0,40,0,1
55226,481.927710843374,4,1,0,40,1,1
55226,-98.5095889669245,4,1,0,40,0,1
59081,480.000000000001,4,1,0,40,1,1
59081,-98.8840793743128,4,1,0,40,0,1
61001,477.13717693837,4,1,0,40,1,1
61001,-99.4668016655867,4,1,0,40,0,1
62909,480.000000000001,4,1,0,40,1,1
62909,-98.8631024348498,4,1,0,40,0,1
64829,478.087649402391,4,1,0,40,1,1
64829,-99.247993413202,4,1,0,40,0,1
66263,458.015267175573,4,1,0,40,1,8
66263,-103.589280554221,4,1,0,40,0,0
66721,476.190476190477,4,1,0,40,1,0
66721,-99.6329613942628,4,1,0,40,0,0
68625,472.440944881891,4,1,0,40,1,0
68625,-100.413106035772,4,1,0,40,0,0
72404,476.190476190477,4,1,0,40,1,0
72404,-99.6015999498305,4,1,0,40,0,0
73832,483.870967741936,4,1,0,40,1,8
73832,-98.0128714260701,4,1,0,40,0,0
74315,469.667318982389,4,1,0,40,1,0
74315,-100.974268495321,4,1,0,40,0,0
76193,471.512770137526,4,1,0,40,1,0
76193,-100.568607301941,4,1,0,40,0,0
78079,477.137176938371,4,1,0,40,1,0
78079,-99.37274403466,4,1,0,40,0,0
79987,473.37278106509,4,1,0,40,1,0
79987,-100.152399109937,4,1,0,40,0,0
81407,484.848484848486,4,1,0,40,1,8
81407,-97.7742457268871,4,1,0,40,0,0
81891,476.190476190477,4,1,0,40,1,0
81891,-99.5492902256103,4,1,0,40,0,0
87605,478.087649402392,4,1,0,40,1,0
87605,-99.1228957925166,4,1,0,40,0,0
91429,475.247524752476,4,1,0,40,1,0
91429,-99.6941676016153,4,1,0,40,0,0
93329,477.137176938371,4,1,0,40,1,0
93329,-99.2889043887991,4,1,0,40,0,0
96191,465.116279069769,4,1,0,40,1,8
96191,-101.838893667984,4,1,0,40,0,0
96656,477.137176938371,4,1,0,40,1,8
96656,-99.2706323967116,4,1,0,40,0,0
97133,498.9604989605,4,1,0,40,1,0
97133,-94.9262744637025,4,1,0,40,0,0
97631,481.927710843375,4,1,0,40,1,8
97631,-98.2785397332323,4,1,0,40,0,0
99076,479.041916167666,4,1,0,40,1,0
99076,-98.8626848614986,4,1,0,40,0,0
100992,477.137176938371,4,1,0,40,1,0
100992,-99.2468290351974,4,1,0,40,0,0
102900,476.190476190477,4,1,0,40,1,0
102900,-99.4336454659008,4,1,0,40,0,0
104804,479.041916167665,4,1,0,40,1,0
104804,-98.8313756522927,4,1,0,40,0,0
106720,476.190476190477,4,1,0,40,1,0
106720,-99.412647007623,4,1,0,40,0,0
108624,477.137176938371,4,1,0,40,1,0
108624,-99.2049593230134,4,1,0,40,0,0
111009,474.308300395258,4,1,0,40,1,8
111009,-99.7834815109467,4,1,0,40,0,0
111957,483.870967741936,4,1,0,40,1,8
111957,-97.8063534155522,4,1,0,40,0,0
112440,478.087649402391,4,1,0,40,1,1
112440,-98.9868479934831,4,1,0,40,0,1
114352,477.13717693837,4,1,0,40,1,1
114352,-99.1735582940787,4,1,0,40,0,1
116260,476.190476190477,4,1,0,40,1,1
116260,-99.3602445432663,4,1,0,40,0,1
118164,474.308300395257,4,1,0,40,1,1
118164,-99.7440372064353,4,1,0,40,0,1
120061,473.372781065089,4,1,0,40,1,1
120061,-99.930684378959,4,1,0,40,0,1
123847,476.190476190477,4,1,0,40,1,1
123847,-99.3186091748299,4,1,0,40,0,1
125751,468.75,4,1,0,40,1,1
125751,-100.88448611885,4,1,0,40,0,1
126688,-100.88448611885,4,1,0,40,0,0
126864,-100.88448611885,4,1,0,30,0,0
126981,-100.88448611885,4,1,0,40,0,0
127098,-100.88448611885,4,1,0,50,0,0
127333,-100.88448611885,4,1,0,40,0,0
127626,474.308300395257,4,1,0,40,1,1
127626,-99.6919226641527,4,1,0,40,0,1
129523,475.247524752475,4,1,0,40,1,1
129523,-99.4844813866913,4,1,0,40,0,1
131423,476.190476190476,4,1,0,40,1,1
131423,-99.277068974266,4,1,0,40,0,1
133327,479.041916167665,4,1,0,40,1,1
133327,-98.6757639019572,4,1,0,40,0,1
135243,475.737392959087,4,1,0,40,1,1
135243,-99.3506656617958,4,1,0,40,0,1
139048,476.947535771065,4,1,0,40,1,1
139048,-99.0777837797293,4,1,0,40,0,1
141909,475.247524752475,4,1,0,40,1,9
141909,-99.4164932612528,4,1,0,40,0,1
142384,-99.4164932612528,4,1,0,40,0,0
142859,477.13717693837,4,1,0,40,1,0
142859,-99.0175774382723,4,1,0,40,0,0
144767,476.190476190476,4,1,0,40,1,0
144767,-99.2039865152338,4,1,0,40,0,0
146671,473.372781065088,4,1,0,40,1,0
146671,-99.7840025578797,4,1,0,40,0,0
148564,476.190476190476,4,1,0,40,1,0
148564,-99.1832107546422,4,1,0,40,0,0
150468,471.512770137524,4,1,0,40,1,0
150468,-100.156655220628,4,1,0,40,0,0
152354,479.041916167664,4,1,0,40,1,0
152354,-98.5722312708877,4,1,0,40,0,0
154270,477.13717693837,4,1,0,40,1,0
154270,-98.95527765234,4,1,0,40,0,0
156178,473.372781065088,4,1,0,40,1,0
156178,-99.7317016437146,4,1,0,40,0,0
158071,476.947535771065,4,1,0,40,1,1
158071,-98.9738839504052,4,1,0,40,0,1
161886,471.512770137525,4,1,0,40,1,1
161886,-100.093626561449,4,1,0,40,0,1
163772,474.308300395257,4,1,0,40,1,1
163772,-99.493339104066,4,1,0,40,0,1
165669,472.44094488189,4,1,0,40,1,1
165669,-99.8761524255373,4,1,0,40,0,1
167558,476.190476190476,4,1,0,40,1,1
167558,-99.0794132125005,4,1,0,40,0,1
169462,474.308300395257,4,1,0,40,1,1
169462,-99.4621506974043,4,1,0,40,0,1
171359,470.588235294118,4,1,0,40,1,1
171359,-100.237937547346,4,1,0,40,0,1
172770,-100.237937547346,4,1,0,40,0,0
173241,-100.237937547346,4,1,0,40,0,1
175123,473.372781065089,4,1,0,40,1,1
175123,-99.6276427199619,4,1,0,40,0,1
177016,465.116279069767,4,1,0,40,1,1
177016,-101.38561466544,4,1,0,40,0,1
178876,474.308300395257,4,1,0,40,1,1
178876,-99.4105929690867,4,1,0,40,0,1
180773,468.75,4,1,0,40,1,1
180773,-100.578869384562,4,1,0,40,0,1
182648,472.44094488189,4,1,0,40,1,1
182648,-99.782795733932,4,1,0,40,0,1
184537,473.372781065089,4,1,0,40,1,1
184537,-99.5760152992585,4,1,0,40,0,1
186430,472.44094488189,4,1,0,40,1,1
186430,-99.7620246902033,4,1,0,40,0,1
187847,-99.7620246902033,4,1,0,40,0,0
188319,467.836257309942,4,1,0,40,1,1
188319,-100.73346063321,4,1,0,40,0,1
189722,483.870967741935,4,1,0,40,1,9
189722,-97.387797304515,4,1,0,40,0,1
190205,468.75,4,1,0,40,1,1
190205,-100.526665665729,4,1,0,40,0,1
190673,478.087649402391,4,1,0,40,1,9
190673,-98.5607130033229,4,1,0,40,0,1
191151,465.116279069768,4,1,0,40,1,9
191151,-101.306757630363,4,1,0,40,0,1
191616,-101.306757630363,4,1,0,40,0,0
192081,468.75,4,1,0,40,1,1
192081,-100.516288943759,4,1,0,40,0,1
193956,469.667318982387,4,1,0,40,1,1
193956,-100.309620015975,4,1,0,40,0,1
195365,-100.309620015975,4,1,0,40,0,0
195834,466.019417475728,4,1,0,40,1,1
195834,-101.084375565442,4,1,0,40,0,1
198630,462.42774566474,4,1,0,40,1,9
198630,-101.85383462281,4,1,0,40,0,1
199092,-101.85383462281,4,1,0,40,0,0
199554,473.372781065089,4,1,0,40,1,1
199554,-99.4937710666877,4,1,0,40,0,1
201447,464.2166344294,4,1,0,40,1,1
201447,-101.445612139111,4,1,0,40,0,1
202839,-101.445612139111,4,1,0,40,0,0
203303,470.588235294118,4,1,0,40,1,0
203303,-100.061861854182,4,1,0,40,0,1
205185,471.512770137525,4,1,0,40,1,1
205185,-99.8553302413794,4,1,0,40,0,1
206599,-99.8553302413794,4,1,0,40,0,0
207071,467.836257309942,4,1,0,20,1,1
207071,-100.629609949643,4,1,0,20,0,1
208942,466.926070038911,4,1,0,15,1,1
208942,-100.815399666985,4,1,0,15,0,1
212677,468.75,4,1,0,10,1,1
212677,-100.402506958052,4,1,0,10,0,1
214552,470.588235294118,4,1,0,5,1,1
214552,-100.000004416921,4,1,0,5,0,0

[HitObjects]
224,160,730,5,0,0:0:0:0:
288,160,984,1,8,0:0:0:0:
288,160,1492,1,8,0:0:0:0:
288,160,2001,1,8,0:0:0:0:
288,160,2763,1,8,0:0:0:0:
288,160,3015,1,8,0:0:0:0:
288,160,3519,1,8,0:0:0:0:
288,160,4024,1,8,0:0:0:0:
224,160,4781,1,0,0:0:0:0:
288,160,5032,1,8,0:0:0:0:
288,160,5535,1,8,0:0:0:0:
288,160,6038,1,8,0:0:0:0:
288,160,6542,1,8,0:0:0:0:
288,160,7045,1,8,0:0:0:0:
288,160,7296,1,8,0:0:0:0:
288,160,7548,1,8,0:0:0:0:
288,160,8051,1,8,0:0:0:0:
224,160,8770,1,0,0:0:0:0:
288,160,9020,1,8,0:0:0:0:
288,160,9520,1,8,0:0:0:0:
224,160,9770,1,0,0:0:0:0:
288,160,10020,1,8,0:0:0:0:
288,160,10517,1,8,0:0:0:0:
224,160,10765,1,0,0:0:0:0:
288,160,11008,1,8,0:0:0:0:
288,160,11496,1,8,0:0:0:0:
224,160,11740,1,0,0:0:0:0:
288,160,12228,1,8,0:0:0:0:
288,160,12337,1,8,0:0:0:0:
288,160,12446,1,8,0:0:0:0:
224,160,12700,1,0,0:0:0:0:
224,160,12820,1,0,0:0:0:0:
288,160,13183,1,8,0:0:0:0:
288,160,13304,1,8,0:0:0:0:
288,160,13425,1,8,0:0:0:0:
288,160,13667,1,8,0:0:0:0:
224,160,13788,1,0,0:0:0:0:
288,160,14151,1,8,0:0:0:0:
288,160,14272,1,8,0:0:0:0:
288,160,14393,1,8,0:0:0:0:
288,160,14635,1,8,0:0:0:0:
288,160,14756,1,8,0:0:0:0:
288,160,15119,1,8,0:0:0:0:
224,160,15597,1,0,0:0:0:0:
288,160,16075,1,8,0:0:0:0:
288,160,16314,1,8,0:0:0:0:
224,224,16553,1,4,0:0:0:0:
224,160,16795,1,0,0:0:0:0:
288,160,17038,1,8,0:0:0:0:
288,160,17281,1,8,0:0:0:0:
224,160,17759,1,0,0:0:0:0:
288,160,17995,1,8,0:0:0:0:
288,160,18231,1,8,0:0:0:0:
224,224,18467,1,4,0:0:0:0:
288,160,18962,1,8,0:0:0:0:
224,160,19210,1,0,0:0:0:0:
288,224,19458,1,12,0:0:0:0:
224,160,20435,1,0,0:0:0:0:
224,160,20678,1,0,0:0:0:0:
288,160,20922,1,8,0:0:0:0:
288,160,21166,1,8,0:0:0:0:
288,160,21288,1,8,0:0:0:0:
288,160,21410,1,8,0:0:0:0:
224,160,21898,1,0,0:0:0:0:
288,160,22386,1,8,0:0:0:0:
288,160,22627,1,8,0:0:0:0:
224,160,22868,1,0,0:0:0:0:
288,160,23110,1,8,0:0:0:0:
224,160,23351,1,0,0:0:0:0:
288,160,23834,1,8,0:0:0:0:
288,160,24076,1,8,0:0:0:0:
224,160,24317,1,0,0:0:0:0:
224,160,24559,1,0,0:0:0:0:
288,160,24800,1,8,0:0:0:0:
288,160,25041,1,8,0:0:0:0:
288,160,25162,1,8,0:0:0:0:
288,160,25283,1,8,0:0:0:0:
224,160,25766,1,0,0:0:0:0:
224,160,26007,1,0,0:0:0:0:
288,160,26249,1,8,0:0:0:0:
288,160,26491,1,8,0:0:0:0:
224,160,26733,1,0,0:0:0:0:
288,160,26976,1,8,0:0:0:0:
224,160,27218,1,0,0:0:0:0:
288,160,27703,1,8,0:0:0:0:
288,160,27945,1,8,0:0:0:0:
224,160,28188,1,0,0:0:0:0:
224,160,28430,1,0,0:0:0:0:
288,160,28673,1,8,0:0:0:0:
288,160,28915,1,8,0:0:0:0:
288,160,29036,1,8,0:0:0:0:
288,160,29158,1,8,0:0:0:0:
224,160,29642,1,0,0:0:0:0:
224,160,29880,1,0,0:0:0:0:
288,160,30118,1,8,0:0:0:0:
288,160,30360,1,8,0:0:0:0:
224,160,30602,1,0,0:0:0:0:
288,160,30845,1,8,0:0:0:0:
288,160,31087,1,8,0:0:0:0:
224,160,31572,1,0,0:0:0:0:
224,160,31814,1,0,0:0:0:0:
224,160,31936,1,0,0:0:0:0:
224,160,32057,1,0,0:0:0:0:
288,160,32540,1,8,0:0:0:0:
288,160,32782,1,8,0:0:0:0:
288,160,32903,1,8,0:0:0:0:
288,160,33024,1,8,0:0:0:0:
288,160,33508,1,8,0:0:0:0:
288,160,33750,1,8,0:0:0:0:
224,160,33992,1,0,0:0:0:0:
288,160,34467,1,8,0:0:0:0:
224,160,34704,1,0,0:0:0:0:
224,160,34823,1,0,0:0:0:0:
288,160,34942,1,8,0:0:0:0:
288,224,35417,1,12,0:0:0:0:
224,160,35902,1,0,0:0:0:0:
224,160,36144,1,0,0:0:0:0:
288,160,36387,1,8,0:0:0:0:
224,160,36630,1,0,0:0:0:0:
224,160,37116,1,0,0:0:0:0:
288,160,37359,1,8,0:0:0:0:
288,160,37602,1,8,0:0:0:0:
288,160,38088,1,8,0:0:0:0:
224,160,38331,1,0,0:0:0:0:
288,160,38574,1,8,0:0:0:0:
224,160,38816,1,0,0:0:0:0:
288,160,39302,1,8,0:0:0:0:
288,160,39545,1,8,0:0:0:0:
224,160,39908,1,0,0:0:0:0:
224,160,40029,1,0,0:0:0:0:
288,160,40270,1,8,0:0:0:0:
224,160,40512,1,0,0:0:0:0:
288,160,41236,1,8,0:0:0:0:
224,160,41478,1,0,0:0:0:0:
288,160,41719,1,8,0:0:0:0:
288,160,41959,1,8,0:0:0:0:
224,160,42199,1,0,0:0:0:0:
288,160,42440,1,8,0:0:0:0:
288,160,43161,1,8,0:0:0:0:
288,160,43402,1,8,0:0:0:0:
224,160,43642,1,0,0:0:0:0:
224,160,43881,1,0,0:0:0:0:
288,160,44121,1,8,0:0:0:0:
224,160,44360,1,0,0:0:0:0:
288,160,45079,1,8,0:0:0:0:
224,160,45318,1,0,0:0:0:0:
288,160,45558,1,8,0:0:0:0:
288,160,45799,1,8,0:0:0:0:
224,160,46041,1,0,0:0:0:0:
288,160,46283,1,8,0:0:0:0:
224,160,46525,1,0,0:0:0:0:
224,160,47009,1,0,0:0:0:0:
288,160,47251,1,8,0:0:0:0:
224,160,47493,1,0,0:0:0:0:
288,160,47978,1,8,0:0:0:0:
288,160,48221,1,8,0:0:0:0:
224,160,48707,1,0,0:0:0:0:
288,160,48950,1,8,0:0:0:0:
288,160,49193,1,8,0:0:0:0:
288,160,49675,1,8,0:0:0:0:
288,160,50154,1,8,0:0:0:0:
288,160,50633,1,8,0:0:0:0:
288,160,50753,1,8,0:0:0:0:
288,160,50873,1,8,0:0:0:0:
224,224,51352,1,4,0:0:0:0:
288,160,51837,1,8,0:0:0:0:
224,224,52080,1,4,0:0:0:0:
224,160,52566,1,0,0:0:0:0:
288,160,52809,1,8,0:0:0:0:
288,160,53295,1,8,0:0:0:0:
288,160,53536,1,8,0:0:0:0:
224,160,53777,1,0,0:0:0:0:
224,160,54019,1,0,0:0:0:0:
288,160,54260,1,8,0:0:0:0:
288,160,54381,1,8,0:0:0:0:
288,160,54502,1,8,0:0:0:0:
224,160,54743,1,0,0:0:0:0:
224,224,55226,1,4,0:0:0:0:
288,160,55707,1,8,0:0:0:0:
224,224,55948,1,4,0:0:0:0:
224,160,56430,1,0,0:0:0:0:
288,160,56671,1,8,0:0:0:0:
288,160,57153,1,8,0:0:0:0:
288,160,57394,1,8,0:0:0:0:
288,160,57635,1,8,0:0:0:0:
224,160,57876,1,0,0:0:0:0:
288,160,58117,1,8,0:0:0:0:
288,160,58238,1,8,0:0:0:0:
288,160,58358,1,8,0:0:0:0:
224,160,58599,1,0,0:0:0:0:
224,224,59081,1,4,0:0:0:0:
288,160,59561,1,8,0:0:0:0:
224,224,59801,1,4,0:0:0:0:
224,160,60281,1,0,0:0:0:0:
288,160,60521,1,8,0:0:0:0:
288,160,61001,1,8,0:0:0:0:
288,160,61239,1,8,0:0:0:0:
224,160,61478,1,0,0:0:0:0:
224,160,61716,1,0,0:0:0:0:
288,160,61955,1,8,0:0:0:0:
288,160,62432,1,8,0:0:0:0:
288,160,62670,1,8,0:0:0:0:
224,160,62909,1,0,0:0:0:0:
288,160,63149,1,8,0:0:0:0:
288,160,63389,1,8,0:0:0:0:
288,160,63509,1,8,0:0:0:0:
288,160,63629,1,8,0:0:0:0:
288,160,64109,1,8,0:0:0:0:
288,160,64349,1,8,0:0:0:0:
288,160,64589,1,8,0:0:0:0:
288,160,65068,1,8,0:0:0:0:
288,160,65307,1,8,0:0:0:0:
288,160,65546,1,8,0:0:0:0:
288,224,65785,1,12,0:0:0:0:
288,224,66024,1,12,0:0:0:0:
288,224,66263,1,12,0:0:0:0:
288,224,66721,1,12,0:0:0:0:
224,160,67197,1,0,0:0:0:0:
224,160,67435,1,0,0:0:0:0:
288,160,67673,1,8,0:0:0:0:
224,160,68149,1,0,0:0:0:0:
224,160,68387,1,0,0:0:0:0:
288,160,68861,1,8,0:0:0:0:
224,160,69097,1,0,0:0:0:0:
224,160,69333,1,0,0:0:0:0:
288,160,69569,1,8,0:0:0:0:
224,160,70042,1,0,0:0:0:0:
224,160,70278,1,0,0:0:0:0:
288,160,70514,1,8,0:0:0:0:
224,160,70987,1,0,0:0:0:0:
224,160,71223,1,0,0:0:0:0:
288,160,71459,1,8,0:0:0:0:
224,160,71932,1,0,0:0:0:0:
224,160,72168,1,0,0:0:0:0:
288,160,72642,1,8,0:0:0:0:
224,160,72880,1,0,0:0:0:0:
224,160,73118,1,0,0:0:0:0:
288,160,73356,1,8,0:0:0:0:
224,160,73832,1,0,0:0:0:0:
224,160,74073,1,0,0:0:0:0:
288,160,74315,1,8,0:0:0:0:
224,160,74784,1,0,0:0:0:0:
224,160,75019,1,0,0:0:0:0:
288,160,75254,1,8,0:0:0:0:
224,160,75724,1,0,0:0:0:0:
224,160,75958,1,0,0:0:0:0:
288,160,76428,1,8,0:0:0:0:
224,160,76664,1,0,0:0:0:0:
288,160,76900,1,8,0:0:0:0:
288,160,77136,1,8,0:0:0:0:
224,160,77607,1,0,0:0:0:0:
224,160,77843,1,0,0:0:0:0:
224,160,78079,1,0,0:0:0:0:
224,160,78198,1,0,0:0:0:0:
224,160,78317,1,0,0:0:0:0:
288,160,78556,1,8,0:0:0:0:
288,160,79033,1,8,0:0:0:0:
288,160,79152,1,8,0:0:0:0:
288,160,79271,1,8,0:0:0:0:
224,160,79510,1,0,0:0:0:0:
288,160,79987,1,8,0:0:0:0:
288,160,80105,1,8,0:0:0:0:
224,160,80223,1,0,0:0:0:0:
288,160,80460,1,8,0:0:0:0:
288,160,80578,1,8,0:0:0:0:
224,160,80697,1,0,0:0:0:0:
288,160,80933,1,8,0:0:0:0:
288,160,81407,1,8,0:0:0:0:
224,160,81891,1,0,0:0:0:0:
224,160,82129,1,0,0:0:0:0:
288,160,82367,1,8,0:0:0:0:
224,160,82605,1,0,0:0:0:0:
224,160,83081,1,0,0:0:0:0:
288,160,83319,1,8,0:0:0:0:
288,160,83557,1,8,0:0:0:0:
224,160,84033,1,0,0:0:0:0:
288,160,84271,1,8,0:0:0:0:
224,160,84510,1,0,0:0:0:0:
224,160,84748,1,0,0:0:0:0:
288,160,85224,1,8,0:0:0:0:
288,160,85462,1,8,0:0:0:0:
224,160,85819,1,0,0:0:0:0:
224,160,85938,1,0,0:0:0:0:
288,160,86176,1,8,0:0:0:0:
224,160,86414,1,0,0:0:0:0:
288,160,87129,1,8,0:0:0:0:
224,160,87367,1,0,0:0:0:0:
288,160,87605,1,8,0:0:0:0:
288,160,87844,1,8,0:0:0:0:
224,160,88083,1,0,0:0:0:0:
288,160,88322,1,8,0:0:0:0:
224,160,88561,1,0,0:0:0:0:
288,160,89039,1,8,0:0:0:0:
288,160,89278,1,8,0:0:0:0:
224,160,89517,1,0,0:0:0:0:
224,160,89756,1,0,0:0:0:0:
288,160,89995,1,8,0:0:0:0:
224,160,90234,1,0,0:0:0:0:
288,160,90951,1,8,0:0:0:0:
288,160,91190,1,8,0:0:0:0:
224,160,91429,1,0,0:0:0:0:
224,160,91666,1,0,0:0:0:0:
288,160,91904,1,8,0:0:0:0:
288,160,92141,1,8,0:0:0:0:
224,160,92379,1,0,0:0:0:0:
288,160,92854,1,8,0:0:0:0:
224,160,93092,1,0,0:0:0:0:
224,160,93329,1,0,0:0:0:0:
224,160,93448,1,0,0:0:0:0:
224,160,93567,1,0,0:0:0:0:
288,160,93806,1,8,0:0:0:0:
288,160,94283,1,8,0:0:0:0:
288,160,94402,1,8,0:0:0:0:
288,160,94521,1,8,0:0:0:0:
224,160,94760,1,0,0:0:0:0:
288,160,95237,1,8,0:0:0:0:
288,160,95356,1,8,0:0:0:0:
224,160,95476,1,0,0:0:0:0:
288,160,95714,1,8,0:0:0:0:
288,160,95833,1,8,0:0:0:0:
224,160,95953,1,0,0:0:0:0:
288,160,96191,1,8,0:0:0:0:
288,160,96656,1,8,0:0:0:0:
224,160,97133,1,0,0:0:0:0:
224,160,97382,1,0,0:0:0:0:
288,160,97631,1,8,0:0:0:0:
224,160,97871,1,0,0:0:0:0:
224,160,98353,1,0,0:0:0:0:
288,160,98594,1,8,0:0:0:0:
288,160,98835,1,8,0:0:0:0:
288,160,98956,1,8,0:0:0:0:
288,160,99076,1,8,0:0:0:0:
224,160,99555,1,0,0:0:0:0:
224,160,99794,1,0,0:0:0:0:
224,160,99914,1,0,0:0:0:0:
224,160,100034,1,0,0:0:0:0:
288,160,100513,1,8,0:0:0:0:
288,160,100752,1,8,0:0:0:0:
224,160,100992,1,0,0:0:0:0:
224,160,101230,1,0,0:0:0:0:
288,160,101469,1,8,0:0:0:0:
224,160,101707,1,0,0:0:0:0:
224,160,102184,1,0,0:0:0:0:
288,160,102423,1,8,0:0:0:0:
224,160,102661,1,0,0:0:0:0:
224,160,102781,1,0,0:0:0:0:
224,160,102900,1,0,0:0:0:0:
224,160,103138,1,0,0:0:0:0:
288,160,103376,1,8,0:0:0:0:
224,160,103614,1,0,0:0:0:0:
224,160,103852,1,0,0:0:0:0:
288,160,104328,1,8,0:0:0:0:
288,160,104566,1,8,0:0:0:0:
224,160,104804,1,0,0:0:0:0:
224,160,105043,1,0,0:0:0:0:
288,160,105283,1,8,0:0:0:0:
224,160,105522,1,0,0:0:0:0:
288,160,106241,1,8,0:0:0:0:
224,160,106480,1,0,0:0:0:0:
224,160,106720,1,0,0:0:0:0:
288,160,106958,1,8,0:0:0:0:
288,160,107196,1,8,0:0:0:0:
288,160,107434,1,8,0:0:0:0:
224,160,107672,1,0,0:0:0:0:
288,160,108148,1,8,0:0:0:0:
288,160,108386,1,8,0:0:0:0:
224,160,108624,1,0,0:0:0:0:
224,160,108743,1,0,0:0:0:0:
224,160,108862,1,0,0:0:0:0:
288,160,109101,1,8,0:0:0:0:
288,160,109578,1,8,0:0:0:0:
288,160,109697,1,8,0:0:0:0:
288,160,109816,1,8,0:0:0:0:
224,160,110055,1,0,0:0:0:0:
224,160,110532,1,0,0:0:0:0:
288,160,110771,1,8,0:0:0:0:
288,160,110890,1,8,0:0:0:0:
224,160,111009,1,0,0:0:0:0:
288,160,111246,1,8,0:0:0:0:
288,160,111364,1,8,0:0:0:0:
224,160,111483,1,0,0:0:0:0:
288,160,111957,1,8,0:0:0:0:
224,224,112440,1,4,0:0:0:0:
288,160,112918,1,8,0:0:0:0:
224,224,113157,1,4,0:0:0:0:
224,160,113635,1,0,0:0:0:0:
288,160,113874,1,8,0:0:0:0:
288,160,114352,1,8,0:0:0:0:
288,160,114590,1,8,0:0:0:0:
224,160,114829,1,0,0:0:0:0:
224,160,115067,1,0,0:0:0:0:
288,160,115306,1,8,0:0:0:0:
288,160,115425,1,8,0:0:0:0:
288,160,115544,1,8,0:0:0:0:
224,160,115783,1,0,0:0:0:0:
224,224,116260,1,4,0:0:0:0:
288,160,116736,1,8,0:0:0:0:
224,224,116974,1,4,0:0:0:0:
224,160,117450,1,0,0:0:0:0:
288,160,117688,1,8,0:0:0:0:
288,160,118164,1,8,0:0:0:0:
288,160,118401,1,8,0:0:0:0:
288,160,118638,1,8,0:0:0:0:
224,160,118875,1,0,0:0:0:0:
288,160,119112,1,8,0:0:0:0:
288,160,119231,1,8,0:0:0:0:
288,160,119349,1,8,0:0:0:0:
224,160,119586,1,0,0:0:0:0:
224,224,120061,1,4,0:0:0:0:
288,160,120534,1,8,0:0:0:0:
224,224,120771,1,4,0:0:0:0:
224,160,121244,1,0,0:0:0:0:
288,160,121481,1,8,0:0:0:0:
288,160,121954,1,8,0:0:0:0:
288,160,122191,1,8,0:0:0:0:
224,160,122427,1,0,0:0:0:0:
224,160,122664,1,0,0:0:0:0:
288,160,122901,1,8,0:0:0:0:
288,160,123374,1,8,0:0:0:0:
288,160,123611,1,8,0:0:0:0:
224,160,123847,1,0,0:0:0:0:
288,160,124085,1,8,0:0:0:0:
288,160,124323,1,8,0:0:0:0:
288,160,124561,1,8,0:0:0:0:
288,160,125037,1,8,0:0:0:0:
288,160,125275,1,8,0:0:0:0:
288,160,125513,1,8,0:0:0:0:
288,160,125985,1,8,0:0:0:0:
288,160,126219,1,8,0:0:0:0:
288,160,126454,1,8,0:0:0:0:
224,160,126688,1,0,0:0:0:0:
288,160,126922,1,8,0:0:0:0:
288,160,127040,1,8,0:0:0:0:
288,160,127157,1,8,0:0:0:0:
224,224,127626,1,4,0:0:0:0:
288,160,128100,1,8,0:0:0:0:
224,224,128337,1,4,0:0:0:0:
224,160,128811,1,0,0:0:0:0:
288,160,129048,1,8,0:0:0:0:
288,160,129523,1,8,0:0:0:0:
288,160,129760,1,8,0:0:0:0:
224,160,129998,1,0,0:0:0:0:
224,160,130235,1,0,0:0:0:0:
288,160,130473,1,8,0:0:0:0:
288,160,130592,1,8,0:0:0:0:
288,160,130711,1,8,0:0:0:0:
224,160,130948,1,0,0:0:0:0:
224,224,131423,1,4,0:0:0:0:
288,160,131899,1,8,0:0:0:0:
224,224,132137,1,4,0:0:0:0:
224,160,132613,1,0,0:0:0:0:
288,160,132851,1,8,0:0:0:0:
288,160,133327,1,8,0:0:0:0:
288,160,133566,1,8,0:0:0:0:
288,160,133806,1,8,0:0:0:0:
224,160,134045,1,0,0:0:0:0:
288,160,134285,1,8,0:0:0:0:
288,160,134404,1,8,0:0:0:0:
288,160,134524,1,8,0:0:0:0:
224,160,134764,1,0,0:0:0:0:
224,224,135243,1,4,0:0:0:0:
288,160,135718,1,8,0:0:0:0:
224,224,135956,1,4,0:0:0:0:
224,160,136432,1,0,0:0:0:0:
288,160,136670,1,8,0:0:0:0:
288,160,137145,1,8,0:0:0:0:
288,160,137383,1,8,0:0:0:0:
224,160,137621,1,0,0:0:0:0:
224,160,137859,1,0,0:0:0:0:
288,160,138097,1,8,0:0:0:0:
288,160,138573,1,8,0:0:0:0:
224,160,138811,1,0,0:0:0:0:
288,160,139048,1,8,0:0:0:0:
288,160,139286,1,8,0:0:0:0:
288,160,139763,1,8,0:0:0:0:
288,160,140001,1,8,0:0:0:0:
288,160,140478,1,8,0:0:0:0:
288,160,140717,1,8,0:0:0:0:
288,160,141194,1,8,0:0:0:0:
288,160,141432,1,8,0:0:0:0:
288,160,141909,1,8,0:0:0:0:
288,160,142146,1,8,0:0:0:0:
288,160,142265,1,8,0:0:0:0:
288,160,142384,1,8,0:0:0:0:
224,224,142859,1,4,0:0:0:0:
288,160,143097,1,8,0:0:0:0:
224,160,143336,1,0,0:0:0:0:
288,160,143574,1,8,0:0:0:0:
224,160,144051,1,0,0:0:0:0:
288,160,144290,1,8,0:0:0:0:
288,160,144528,1,8,0:0:0:0:
224,160,144767,1,0,0:0:0:0:
288,160,145243,1,8,0:0:0:0:
288,160,145362,1,8,0:0:0:0:
288,160,145481,1,8,0:0:0:0:
224,160,145719,1,0,0:0:0:0:
288,160,145957,1,8,0:0:0:0:
288,160,146195,1,8,0:0:0:0:
224,160,146671,1,0,0:0:0:0:
288,160,146907,1,8,0:0:0:0:
224,160,147144,1,0,0:0:0:0:
288,160,147381,1,8,0:0:0:0:
288,160,147499,1,8,0:0:0:0:
288,160,147617,1,8,0:0:0:0:
224,160,148091,1,0,0:0:0:0:
224,160,148327,1,0,0:0:0:0:
288,160,148564,1,8,0:0:0:0:
224,160,148802,1,0,0:0:0:0:
288,160,149040,1,8,0:0:0:0:
288,160,149159,1,8,0:0:0:0:
288,160,149278,1,8,0:0:0:0:
224,160,149516,1,0,0:0:0:0:
288,160,149992,1,8,0:0:0:0:
224,160,150230,1,0,0:0:0:0:
224,160,150468,1,0,0:0:0:0:
224,160,150703,1,0,0:0:0:0:
288,160,150939,1,8,0:0:0:0:
224,160,151175,1,0,0:0:0:0:
288,160,151411,1,8,0:0:0:0:
288,160,151646,1,8,0:0:0:0:
288,160,152354,1,8,0:0:0:0:
288,160,152593,1,8,0:0:0:0:
224,160,152833,1,0,0:0:0:0:
288,160,153072,1,8,0:0:0:0:
288,160,153312,1,8,0:0:0:0:
288,160,153791,1,8,0:0:0:0:
224,160,154030,1,0,0:0:0:0:
288,160,154270,1,8,0:0:0:0:
288,160,154508,1,8,0:0:0:0:
288,160,154985,1,8,0:0:0:0:
288,160,155224,1,8,0:0:0:0:
288,160,155701,1,8,0:0:0:0:
288,160,155939,1,8,0:0:0:0:
288,160,156414,1,8,0:0:0:0:
288,160,156651,1,8,0:0:0:0:
288,160,157124,1,8,0:0:0:0:
288,160,157361,1,8,0:0:0:0:
288,160,157598,1,8,0:0:0:0:
224,224,158071,1,4,0:0:0:0:
288,160,158547,1,8,0:0:0:0:
224,224,158786,1,4,0:0:0:0:
224,160,159263,1,0,0:0:0:0:
288,160,159501,1,8,0:0:0:0:
288,160,159978,1,8,0:0:0:0:
288,160,160217,1,8,0:0:0:0:
224,160,160455,1,0,0:0:0:0:
224,160,160694,1,0,0:0:0:0:
288,160,160932,1,8,0:0:0:0:
288,160,161051,1,8,0:0:0:0:
288,160,161171,1,8,0:0:0:0:
224,160,161409,1,0,0:0:0:0:
288,160,161648,1,8,0:0:0:0:
224,224,161886,1,4,0:0:0:0:
288,160,162357,1,8,0:0:0:0:
224,224,162593,1,4,0:0:0:0:
224,160,163064,1,0,0:0:0:0:
288,160,163300,1,8,0:0:0:0:
288,160,163772,1,8,0:0:0:0:
288,160,164009,1,8,0:0:0:0:
288,160,164246,1,8,0:0:0:0:
224,160,164483,1,0,0:0:0:0:
288,160,164720,1,8,0:0:0:0:
288,160,164839,1,8,0:0:0:0:
288,160,164957,1,8,0:0:0:0:
224,160,165194,1,0,0:0:0:0:
288,160,165432,1,8,0:0:0:0:
224,224,165669,1,4,0:0:0:0:
288,160,166141,1,8,0:0:0:0:
224,224,166377,1,4,0:0:0:0:
224,160,166850,1,0,0:0:0:0:
288,160,167086,1,8,0:0:0:0:
288,160,167558,1,8,0:0:0:0:
288,160,167796,1,8,0:0:0:0:
224,160,168034,1,0,0:0:0:0:
224,160,168272,1,0,0:0:0:0:
288,160,168510,1,8,0:0:0:0:
288,160,168986,1,8,0:0:0:0:
224,160,169224,1,0,0:0:0:0:
288,160,169462,1,8,0:0:0:0:
288,160,169699,1,8,0:0:0:0:
288,160,170173,1,8,0:0:0:0:
288,160,170410,1,8,0:0:0:0:
288,160,170884,1,8,0:0:0:0:
288,160,171122,1,8,0:0:0:0:
288,160,171594,1,8,0:0:0:0:
288,160,171829,1,8,0:0:0:0:
288,160,172300,1,8,0:0:0:0:
288,160,172535,1,8,0:0:0:0:
288,160,172653,1,8,0:0:0:0:
288,160,172770,1,8,0:0:0:0:
224,224,173241,1,4,0:0:0:0:
288,160,173711,1,8,0:0:0:0:
224,224,173947,1,4,0:0:0:0:
224,160,174417,1,0,0:0:0:0:
288,160,174653,1,8,0:0:0:0:
288,160,175123,1,8,0:0:0:0:
288,160,175359,1,8,0:0:0:0:
224,160,175596,1,0,0:0:0:0:
224,160,175833,1,0,0:0:0:0:
288,160,176069,1,8,0:0:0:0:
288,160,176188,1,8,0:0:0:0:
288,160,176306,1,8,0:0:0:0:
224,160,176543,1,0,0:0:0:0:
288,160,176779,1,8,0:0:0:0:
224,224,177016,1,4,0:0:0:0:
288,160,177481,1,8,0:0:0:0:
224,224,177713,1,4,0:0:0:0:
224,160,178178,1,0,0:0:0:0:
288,160,178411,1,8,0:0:0:0:
288,160,178876,1,8,0:0:0:0:
288,160,179113,1,8,0:0:0:0:
288,160,179350,1,8,0:0:0:0:
224,160,179587,1,0,0:0:0:0:
288,160,179824,1,8,0:0:0:0:
288,160,179943,1,8,0:0:0:0:
288,160,180061,1,8,0:0:0:0:
224,160,180298,1,0,0:0:0:0:
288,160,180536,1,8,0:0:0:0:
224,224,180773,1,4,0:0:0:0:
288,160,181241,1,8,0:0:0:0:
224,224,181476,1,4,0:0:0:0:
224,160,181944,1,0,0:0:0:0:
288,160,182179,1,8,0:0:0:0:
288,160,182648,1,8,0:0:0:0:
288,160,182884,1,8,0:0:0:0:
224,160,183120,1,0,0:0:0:0:
224,160,183356,1,0,0:0:0:0:
288,160,183592,1,8,0:0:0:0:
288,160,184065,1,8,0:0:0:0:
224,160,184301,1,0,0:0:0:0:
288,160,184537,1,8,0:0:0:0:
288,160,184773,1,8,0:0:0:0:
288,160,185247,1,8,0:0:0:0:
288,160,185483,1,8,0:0:0:0:
288,160,185957,1,8,0:0:0:0:
288,160,186193,1,8,0:0:0:0:
288,160,186666,1,8,0:0:0:0:
288,160,186902,1,8,0:0:0:0:
288,160,187374,1,8,0:0:0:0:
288,160,187611,1,8,0:0:0:0:
288,160,187847,1,8,0:0:0:0:
224,224,188319,1,4,0:0:0:0:
288,160,188552,1,8,0:0:0:0:
224,160,188786,1,0,0:0:0:0:
288,160,189020,1,8,0:0:0:0:
288,160,189254,1,8,0:0:0:0:
288,160,189722,1,8,0:0:0:0:
288,160,189963,1,8,0:0:0:0:
288,160,190439,1,8,0:0:0:0:
288,160,190673,1,8,0:0:0:0:
224,160,190912,1,0,0:0:0:0:
288,160,191151,1,8,0:0:0:0:
288,160,191383,1,8,0:0:0:0:
288,160,191616,1,8,0:0:0:0:
288,160,192081,1,8,0:0:0:0:
288,160,192315,1,8,0:0:0:0:
224,160,192549,1,0,0:0:0:0:
288,160,192784,1,8,0:0:0:0:
288,160,193018,1,8,0:0:0:0:
288,160,193487,1,8,0:0:0:0:
288,160,193721,1,8,0:0:0:0:
288,160,194190,1,8,0:0:0:0:
288,160,194425,1,8,0:0:0:0:
224,160,194660,1,0,0:0:0:0:
288,160,194895,1,8,0:0:0:0:
288,160,195130,1,8,0:0:0:0:
288,160,195365,1,8,0:0:0:0:
288,160,195834,1,8,0:0:0:0:
288,160,196067,1,8,0:0:0:0:
224,160,196300,1,0,0:0:0:0:
288,160,196533,1,8,0:0:0:0:
288,160,196766,1,8,0:0:0:0:
288,160,197232,1,8,0:0:0:0:
288,160,197465,1,8,0:0:0:0:
288,160,197931,1,8,0:0:0:0:
288,160,198164,1,8,0:0:0:0:
224,160,198397,1,0,0:0:0:0:
288,160,198630,1,8,0:0:0:0:
288,160,198861,1,8,0:0:0:0:
288,160,199092,1,8,0:0:0:0:
288,160,199554,1,8,0:0:0:0:
288,160,199790,1,8,0:0:0:0:
288,160,200264,1,8,0:0:0:0:
288,160,200500,1,8,0:0:0:0:
288,160,200974,1,8,0:0:0:0:
288,160,201210,1,8,0:0:0:0:
288,160,201329,1,8,0:0:0:0:
288,160,201447,1,8,0:0:0:0:
288,160,201679,1,8,0:0:0:0:
288,160,201911,1,8,0:0:0:0:
224,160,202143,1,0,0:0:0:0:
224,160,202259,1,0,0:0:0:0:
224,160,202375,1,0,0:0:0:0:
224,160,202607,1,0,0:0:0:0:
224,160,202839,1,0,0:0:0:0:
224,224,203303,1,4,0:0:0:0:
288,160,203538,1,8,0:0:0:0:
224,160,203773,1,0,0:0:0:0:
288,160,204008,1,8,0:0:0:0:
288,160,204244,1,8,0:0:0:0:
288,160,204714,1,8,0:0:0:0:
288,160,204950,1,8,0:0:0:0:
288,160,205420,1,8,0:0:0:0:
288,160,205656,1,8,0:0:0:0:
224,160,205892,1,0,0:0:0:0:
288,160,206128,1,8,0:0:0:0:
288,160,206363,1,8,0:0:0:0:
288,160,206599,1,8,0:0:0:0:
256,192,207071,12,0,214552,0:0:0:0:
