osu file format v14

[General]
AudioFilename: audio.mp3
AudioLeadIn: 0
PreviewTime: 10830
Countdown: 0
SampleSet: Normal
StackLeniency: 0.7
Mode: 1
LetterboxInBreaks: 0
WidescreenStoryboard: 0

[Editor]
Bookmarks: 504,3982,7460,10938,17895,24851,31808,37025,40503,43982
DistanceSpacing: 1
BeatDivisor: 4
GridSize: 32
TimelineZoom: 1.6

[Metadata]
Title:Yumeiro Toridori Parade (TV Size)
TitleUnicode:夢色トリドリパレード♫ (TV Size)
Artist:Earth Star Dream
ArtistUnicode:アース・スター ドリーム
Creator:Roger
Version:Muzukashii
Source:魔法少女なんてもういいですから。
Tags:taiko mahou shoujo nante mou ii desukara. opening Yuki Nakashima Kanon Takao Hikaru Koide Arisa Aihara Eri Sogabe Maria Tanijiri Izumi Araida 新井田いづみ 高尾奏音 小出ひかる 曽我部英理 中島由貴 谷尻まりあ 愛原ありさ genjuro yuki_momoiro722 rhytoly ][ -GH- ][
BeatmapID:2033353
BeatmapSetID:971087

[Difficulty]
HPDrainRate:7.5
CircleSize:2
OverallDifficulty:4
ApproachRate:0
SliderMultiplier:1.4
SliderTickRate:1

[Events]
//Background and Video events
0,0,"bg.jpg",0,0
//Break Periods
//Storyboard Layer 0 (Background)
//Storyboard Layer 1 (Fail)
//Storyboard Layer 2 (Pass)
//Storyboard Layer 3 (Foreground)
//Storyboard Layer 4 (Overlay)
//Storyboard Sound Samples

[TimingPoints]
504,434.782608695652,4,1,0,80,1,0
10938,-100,4,1,0,90,0,1
24417,-100,4,1,0,90,0,0
24851,-100,4,1,0,90,0,1
37025,-100,4,1,0,80,0,0

[HitObjects]
256,192,504,5,8,0:0:0:0:
256,192,793,1,0,0:0:0:0:
256,192,938,1,8,0:0:0:0:
256,192,1373,1,8,0:0:0:0:
256,192,1808,1,0,0:0:0:0:
256,192,2243,1,0,0:0:0:0:
256,192,2677,1,8,0:0:0:0:
256,192,2967,1,8,0:0:0:0:
256,192,3112,1,8,0:0:0:0:
256,192,3547,1,8,0:0:0:0:
256,192,3982,1,0,0:0:0:0:
256,192,4272,1,0,0:0:0:0:
256,192,4417,1,8,0:0:0:0:
256,192,4851,1,8,0:0:0:0:
256,192,5069,1,0,0:0:0:0:
256,192,5286,1,8,0:0:0:0:
256,192,5503,1,8,0:0:0:0:
256,192,5721,1,0,0:0:0:0:
256,192,6156,1,8,0:0:0:0:
256,192,6590,1,8,0:0:0:0:
256,192,6808,1,8,0:0:0:0:
256,192,7025,1,0,0:0:0:0:
256,192,7243,1,0,0:0:0:0:
256,192,7460,1,12,0:0:0:0:
256,192,8330,1,12,0:0:0:0:
256,192,9199,1,0,0:0:0:0:
256,192,10938,1,12,0:0:0:0:
256,192,11373,1,8,0:0:0:0:
256,192,11590,1,8,0:0:0:0:
256,192,11808,1,0,0:0:0:0:
256,192,12025,1,0,0:0:0:0:
256,192,12243,1,8,0:0:0:0:
256,192,12677,1,0,0:0:0:0:
256,192,12895,1,0,0:0:0:0:
256,192,13112,1,8,0:0:0:0:
256,192,13547,1,0,0:0:0:0:
256,192,13764,1,0,0:0:0:0:
256,192,13873,1,0,0:0:0:0:
256,192,13982,1,0,0:0:0:0:
256,192,14199,1,0,0:0:0:0:
256,192,14417,1,8,0:0:0:0:
256,192,15069,1,0,0:0:0:0:
256,192,15286,1,8,0:0:0:0:
256,192,15721,1,0,0:0:0:0:
256,192,15938,1,0,0:0:0:0:
256,192,16156,1,8,0:0:0:0:
256,192,16590,1,8,0:0:0:0:
256,192,16808,1,8,0:0:0:0:
256,192,16917,1,8,0:0:0:0:
256,192,17025,1,8,0:0:0:0:
256,192,17243,1,0,0:0:0:0:
256,192,17460,1,8,0:0:0:0:
256,192,17677,1,0,0:0:0:0:
256,192,17895,1,12,0:0:0:0:
256,192,18330,1,0,0:0:0:0:
256,192,18547,1,0,0:0:0:0:
256,192,18764,1,8,0:0:0:0:
256,192,19199,1,8,0:0:0:0:
256,192,19634,1,0,0:0:0:0:
256,192,19851,1,8,0:0:0:0:
256,192,20069,1,8,0:0:0:0:
256,192,20286,1,0,0:0:0:0:
256,192,20503,1,8,0:0:0:0:
256,192,20938,1,8,0:0:0:0:
256,192,21373,1,0,0:0:0:0:
256,192,21590,1,0,0:0:0:0:
256,192,21808,1,8,0:0:0:0:
256,192,22243,1,0,0:0:0:0:
256,192,22460,1,8,0:0:0:0:
256,192,22677,1,8,0:0:0:0:
256,192,22895,1,4,0:0:0:0:
256,192,23330,1,4,0:0:0:0:
256,192,23547,1,4,0:0:0:0:
256,192,23764,1,4,0:0:0:0:
256,192,23982,1,4,0:0:0:0:
256,192,24851,1,12,0:0:0:0:
256,192,25286,1,8,0:0:0:0:
256,192,25503,1,8,0:0:0:0:
256,192,25721,1,0,0:0:0:0:
256,192,25938,1,0,0:0:0:0:
256,192,26156,1,8,0:0:0:0:
256,192,26590,1,0,0:0:0:0:
256,192,26808,1,0,0:0:0:0:
256,192,27025,1,8,0:0:0:0:
256,192,27460,1,0,0:0:0:0:
256,192,27677,1,8,0:0:0:0:
256,192,27786,1,8,0:0:0:0:
256,192,27895,1,8,0:0:0:0:
256,192,28112,1,0,0:0:0:0:
256,192,28330,1,8,0:0:0:0:
256,192,28982,1,8,0:0:0:0:
256,192,29199,1,8,0:0:0:0:
256,192,29634,1,8,0:0:0:0:
256,192,29851,1,8,0:0:0:0:
256,192,30069,1,0,0:0:0:0:
256,192,30503,1,8,0:0:0:0:
256,192,30721,1,0,0:0:0:0:
256,192,30830,1,0,0:0:0:0:
256,192,30938,1,0,0:0:0:0:
256,192,31156,1,0,0:0:0:0:
256,192,31373,1,8,0:0:0:0:
256,192,31590,1,0,0:0:0:0:
256,192,31808,1,12,0:0:0:0:
256,192,32243,1,8,0:0:0:0:
256,192,32460,1,0,0:0:0:0:
256,192,32895,1,8,0:0:0:0:
256,192,33112,1,0,0:0:0:0:
256,192,33330,1,8,0:0:0:0:
256,192,33547,1,0,0:0:0:0:
256,192,33982,1,8,0:0:0:0:
256,192,34417,1,8,0:0:0:0:
256,192,34634,1,8,0:0:0:0:
256,192,35286,1,0,0:0:0:0:
256,192,35721,1,8,0:0:0:0:
256,192,36156,1,0,0:0:0:0:
256,192,36373,1,0,0:0:0:0:
256,192,36590,1,8,0:0:0:0:
256,192,37025,1,12,0:0:0:0:
256,192,37460,1,8,0:0:0:0:
256,192,37677,1,0,0:0:0:0:
256,192,37895,1,0,0:0:0:0:
256,192,38112,1,8,0:0:0:0:
256,192,38330,1,0,0:0:0:0:
256,192,38547,1,8,0:0:0:0:
256,192,38656,1,8,0:0:0:0:
256,192,38764,1,8,0:0:0:0:
256,192,39199,1,0,0:0:0:0:
256,192,39417,1,8,0:0:0:0:
256,192,39634,1,8,0:0:0:0:
256,192,39851,1,0,0:0:0:0:
256,192,40069,1,8,0:0:0:0:
256,192,40286,1,0,0:0:0:0:
256,192,40395,1,0,0:0:0:0:
256,192,40503,1,0,0:0:0:0:
256,192,40721,1,12,0:0:0:0:
256,192,41156,1,12,0:0:0:0:
256,192,41590,1,0,0:0:0:0:
256,192,41808,1,0,0:0:0:0:
256,192,42025,1,12,0:0:0:0:
256,192,42460,1,4,0:0:0:0:
256,192,42895,1,12,0:0:0:0:
256,192,43330,1,4,0:0:0:0:
256,192,43764,1,12,0:0:0:0:
256,192,43982,1,0,0:0:0:0:
