osu file format v14

[General]
AudioFilename: audio.mp3
AudioLeadIn: 1435
PreviewTime: 9586
Countdown: 0
SampleSet: None
StackLeniency: 0.7
Mode: 0
LetterboxInBreaks: 0
WidescreenStoryboard: 0

[Editor]
Bookmarks: 10999,24912,37086
DistanceSpacing: 1
BeatDivisor: 2
GridSize: 4
TimelineZoom: 1

[Metadata]
Title:Yumeiro Toridori Parade
TitleUnicode:夢色トリドリパレード♫
Artist:Earth Star Dream
ArtistUnicode:アース・スター ドリーム
Creator:Pata-Mon
Version:Normal
Source:魔法少女なんてもういいですから。
Tags:Mahou Shoujo Nante Mou Iidesukara Anime OP opening tv size 中島由貴 高尾奏音 小出ひかる 愛原ありさ 曽我部英理 谷尻まりあ 新井田いづみ
BeatmapID:916696
BeatmapSetID:424327

[Difficulty]
HPDrainRate:4
CircleSize:3
OverallDifficulty:4
ApproachRate:5
SliderMultiplier:1.3
SliderTickRate:1

[Events]
//Background and Video events
0,0,"BG.jpg",0,0
Video,158,"video.flv"
//Break Periods
//Storyboard Layer 0 (Background)
//Storyboard Layer 1 (Fail)
//Storyboard Layer 2 (Pass)
//Storyboard Layer 3 (Foreground)
//Storyboard Sound Samples

[TimingPoints]
565,434.782608695652,4,2,1,45,1,0
4043,-100,4,3,1,60,0,0
7521,-100,4,3,1,65,0,0
10999,-100,4,3,1,70,0,0

[Colours]
Combo1 : 95,111,159
Combo2 : 223,191,159
Combo3 : 223,255,63
Combo4 : 192,127,127

[HitObjects]
383,141,565,5,4,0:3:0:0:
318,28,999,1,2,0:0:0:0:
254,141,1434,2,0,P|235:202|189:247,1,130,2|0,0:0|0:0,0:0:0:0:
61,247,2304,5,4,0:3:0:0:
125,134,2738,1,2,0:0:0:0:
190,247,3173,2,0,P|208:308|254:353,1,130,2|0,0:0|0:0,0:0:0:0:
383,353,4043,5,2,0:0:0:0:
454,244,4477,1,2,0:0:0:0:
383,135,4912,2,0,L|320:122,1,65,2|2,0:0|0:0,0:0:0:0:
284,177,5347,2,0,L|221:164,1,65,2|2,0:0|0:0,0:0:0:0:
184,218,5782,6,0,P|128:188|95:133,1,130,2|2,0:0|0:0,0:0:0:0:
187,39,6652,2,0,L|214:99,1,65,2|2,0:0|0:0,0:0:0:0:
274,121,7086,2,0,L|300:180,1,65,2|2,0:0|0:0,0:0:0:0:
264,235,7521,6,0,B|192:226|192:226|152:168|78:168|31:221,2,260,6|6|4,0:0|0:0|0:0,0:0:0:0:
252,166,10999,6,0,L|269:228,1,65,4|0,0:0|0:0,0:0:0:0:
329,254,11434,2,0,L|311:316,1,65,2|0,0:0|0:0,0:0:0:0:
250,341,11869,2,0,P|192:313|157:259,1,130,4|2,0:0|0:0,0:0:0:0:
33,221,12739,6,0,P|41:156|73:101,1,130,4|2,0:0|0:0,0:0:0:0:
185,28,13608,1,4,0:0:0:0:
246,50,13825,1,0,0:0:0:0:
307,72,14043,2,0,L|319:135,1,65,2|0,0:0|0:0,0:0:0:0:
333,200,14478,6,0,P|270:182|205:185,1,130,4|2,0:0|0:0,0:0:0:0:
141,194,15130,1,0,0:0:0:0:
80,216,15347,2,0,L|68:152,2,65,4|0|2,0:0|0:0|0:0,0:0:0:0:
130,258,15999,1,0,0:0:0:0:
183,295,16217,6,0,P|241:321|306:331,1,130,4|2,0:0|0:0,0:0:0:0:
360,294,16869,1,0,0:0:0:0:
413,256,17086,2,0,L|477:265,2,65,4|2|2,0:0|0:0|0:0,0:0:0:0:
421,125,17956,6,0,L|357:134,1,65,4|0,0:0|0:0,0:0:0:0:
296,111,18391,2,0,L|232:120,1,65,2|0,0:0|0:0,0:0:0:0:
171,97,18825,1,4,0:0:0:0:
220,217,19260,1,2,0:0:0:0:
296,111,19695,6,0,L|360:120,1,65,4|0,0:0|0:0,0:0:0:0:
402,170,20130,2,0,L|466:161,1,65,2|0,0:0|0:0,0:0:0:0:
483,224,20565,1,4,0:0:0:0:
363,274,20999,1,2,0:0:0:0:
242,323,21434,6,0,P|184:297|139:250,1,130,4|2,0:0|0:0,0:0:0:0:
267,221,22304,2,0,P|325:194|370:147,1,130,4|2,0:0|0:0,0:0:0:0:
398,88,22956,5,4,0:0:0:0:
267,88,23391,1,4,0:0:0:0:
215,48,23608,2,0,L|162:9,2,65,4|4|4,0:0|0:0|0:0,0:0:0:0:
253,172,24478,1,2,2:0:0:0:
127,143,24912,6,4,L|97:211,1,65,4|0,0:0|0:0,0:0:0:0:
143,251,25347,2,0,L|113:318,1,65,2|0,0:0|0:0,0:0:0:0:
159,358,25782,2,0,P|218:335|253:281,1,130,4|2,0:0|0:0,0:0:0:0:
179,174,26652,6,0,P|183:109|202:47,1,130,4|2,0:0|0:0,0:0:0:0:
332,63,27521,2,0,L|395:77,1,65,4|0,0:0|0:0,0:0:0:0:
430,133,27956,2,0,L|493:118,2,65,2|0|4,0:0|0:0|0:0,0:0:0:0:
309,182,28825,6,0,L|245:167,2,65,2|0|4,0:0|0:0|0:0,0:0:0:0:
373,196,29478,1,0,0:0:0:0:
437,210,29695,2,0,L|436:274,1,65,2|0,0:0|0:0,0:0:0:0:
435,339,30130,6,0,P|370:344|312:373,1,130,4|2,0:0|0:0,0:0:0:0:
260,334,30782,1,0,0:0:0:0:
197,352,30999,2,0,L|132:352,2,65,4|2|2,0:0|0:0|0:0,0:0:0:0:
150,230,31869,5,4,0:0:0:0:
188,177,32086,2,0,L|193:110,1,65,0|2,0:0|0:0,0:0:0:0:
151,63,32521,2,0,L|278:87,1,130
311,31,33173,2,0,L|374:18,1,65,2|0,0:0|0:0,0:0:0:0:
402,75,33608,6,0,P|409:139|385:199,1,130,4|2,0:0|0:0,0:0:0:0:
281,123,34478,2,0,L|217:115,2,65,4|2|2,0:0|0:0|0:0,0:0:0:0:
174,198,35347,6,0,P|131:152|127:88,1,130,4|2,0:0|0:0,0:0:0:0:
256,72,36217,2,0,L|320:64,2,65,4|0|2,0:0|0:0|0:0,0:0:0:0:
256,192,37086,12,4,38825,0:0:0:0:
136,49,40565,5,4,0:0:0:0:
88,93,40782,2,0,L|69:155,2,65,2|0|2,0:0|0:0|0:0,0:0:0:0:
200,158,41652,2,0,L|218:220,2,65,2|0|2,0:0|0:0|0:0,0:0:0:0:
88,223,42521,5,2,0:0:0:0:
156,334,42956,1,2,0:0:0:0:
218,220,43391,1,2,0:0:0:0:
156,334,43825,2,0,L|91:335,1,65,2|4,0:0|0:0,0:0:0:0:
