osu file format v14

[General]
AudioFilename: audio.mp3
AudioLeadIn: 0
PreviewTime: 11528
Countdown: 0
SampleSet: Normal
StackLeniency: 0.7
Mode: 0
LetterboxInBreaks: 0
WidescreenStoryboard: 0

[Editor]
DistanceSpacing: 0.8
BeatDivisor: 4
GridSize: 4
TimelineZoom: 4.199999

[Metadata]
Title:Yumeiro Toridori Parade
TitleUnicode:夢色トリドリパレード♫
Artist:Earth Star Dream
ArtistUnicode:アース・スター ドリーム
Creator:Moester
Version:Yumeiro
Source:魔法少女なんてもういいですから。
Tags:Mahou Shoujo Nante Mouiidesukara
BeatmapID:964534
BeatmapSetID:438957

[Difficulty]
HPDrainRate:6.5
CircleSize:4
OverallDifficulty:7
ApproachRate:9
SliderMultiplier:2.2
SliderTickRate:1

[Events]
//Background and Video events
0,0,"BG.jpg",0,0
Video,761,"video.flv"
//Break Periods
//Storyboard Layer 0 (Background)
//Storyboard Layer 1 (Fail)
//Storyboard Layer 2 (Pass)
//Storyboard Layer 3 (Foreground)
//Storyboard Sound Samples

[TimingPoints]
1094,434.782608695652,4,2,0,50,1,0
11528,-100,4,1,0,50,0,0
17180,-66.6666666666667,4,1,0,50,0,0
17398,-100,4,1,0,50,0,0
19354,-86.9565217391304,4,1,0,50,0,0
20007,-100,4,1,0,50,0,0
21093,-86.9565217391304,4,1,0,50,0,0
21746,-100,4,1,0,50,0,0
21963,-90.9090909090909,4,1,0,50,0,0
22833,-83.3333333333333,4,1,0,50,0,0
23485,-76.9230769230769,4,1,0,50,0,0
25007,-76.9230769230769,4,1,1,50,0,0
25441,-100,4,1,0,50,0,0
31093,-66.6666666666667,4,1,0,50,0,0
31311,-100,4,1,0,50,0,0
35115,-100,4,1,0,30,0,0
35224,-100,4,1,0,50,0,0
44572,-66.6666666666667,4,1,0,50,0,0
44680,-100,4,1,0,10,0,0

[Colours]
Combo1 : 192,192,192
Combo2 : 255,128,128
Combo3 : 255,255,85

[HitObjects]
184,40,1095,5,0,0:0:0:0:
208,108,1239,2,0,L|200:184,1,73.3333333333334
144,228,1529,2,0,L|160:376,1,146.666666666667,2|0,0:0|0:0,0:0:0:0:
312,48,1964,2,0,L|296:196,1,146.666666666667
292,268,2399,2,0,P|328:288|432:280,1,146.666666666667,2|0,0:0|0:0,0:0:0:0:
220,288,2833,6,0,P|148:316|68:308,1,146.666666666667
236,216,3268,2,0,L|404:192,1,146.666666666667,2|0,0:0|0:0,0:0:0:0:
184,160,3703,2,0,P|132:140|32:148,1,146.666666666667
256,144,4138,2,0,P|264:112|228:4,1,146.666666666667,2|0,0:0|0:0,0:0:0:0:
184,284,4573,5,0,0:0:0:0:
256,320,4718,2,0,P|292:328|332:328,1,73.3333333333334
184,284,5008,2,0,P|108:300|28:300,1,146.666666666667,2|0,0:0|0:0,0:0:0:0:
252,244,5442,2,0,P|304:260|360:256,1,110,2|0,0:0|0:0,0:0:0:0:
188,188,5877,2,0,P|133:183|81:200,1,110,2|0,0:0|0:0,0:0:0:0:
256,328,6312,5,0,0:0:0:0:
358,256,6529,1,0,0:0:0:0:
232,308,6747,2,0,P|156:324|60:308,1,165,2|0,0:0|0:0,0:0:0:0:
231,308,7181,6,0,P|285:294|339:288,1,110
448,316,7616,1,2,0:0:0:0:
340,288,7834,1,0,0:0:0:0:
464,216,8051,6,0,L|476:140,2,73.3333333333334,6|0|0,0:0|0:0|0:0,0:0:0:0:
340,288,8486,2,0,L|352:364,2,73.3333333333334,2|0|0,0:0|0:0|0:0,0:0:0:0:
220,120,8921,2,0,L|232:44,2,73.3333333333334,6|0|0,0:0|0:0|0:0,0:0:0:0:
96,304,9354,2,0,L|108:380,2,73.3333333333334,2|0|0,0:0|0:0|0:0,0:0:0:0:
48,88,9790,5,0,1:0:0:0:
72,92,10223,1,2,0:0:0:0:
96,96,10659,1,2,0:0:0:0:
120,100,11093,1,2,0:0:0:0:
308,132,11529,6,0,P|308:196|296:272,1,110,4|0,0:0|0:0,0:0:0:0:
180,344,11964,1,8,0:2:0:0:
120,208,12181,1,0,0:0:0:0:
120,208,12290,1,0,0:0:0:0:
120,208,12399,2,0,P|176:188|236:188,1,110
56,256,12834,1,8,0:2:0:0:
80,140,13051,1,0,0:0:0:0:
364,88,13268,6,0,P|264:112|192:96,1,165
424,12,13703,2,0,P|452:52|460:120,1,110,8|0,0:2|0:0,0:0:0:0:
256,296,14138,1,0,0:0:0:0:
96,88,14355,2,0,L|112:168,1,55
200,300,14573,2,0,L|352:284,1,110,8|0,0:2|0:0,0:0:0:0:
488,272,15008,1,0,0:0:0:0:
380,56,15225,5,0,0:0:0:0:
400,152,15334,2,0,L|392:228,1,55,0|8,0:0|0:2,0:0:0:0:
228,344,15660,1,0,0:0:0:0:
248,248,15767,2,0,L|240:172,1,55
48,168,16094,1,0,0:0:0:0:
284,104,16312,1,8,0:0:0:0:
32,60,16529,2,0,L|40:128,1,55
76,324,16747,6,0,P|184:328|272:284,1,165
405,253,17181,6,0,P|440:306|370:306,1,165.000006294251,8|0,0:2|0:0,0:0:0:0:
335,125,17616,6,0,L|236:96,1,55
76,52,17834,1,0,0:0:0:0:
335,125,18051,6,0,L|259:141,1,55,8|0,0:0|0:0,0:0:0:0:
108,240,18268,2,0,L|161:251,1,55,8|0,0:2|0:0,0:0:0:0:
360,356,18486,6,0,P|366:301|367:246,1,110,4|0,0:0|0:0,0:0:0:0:
340,136,18812,2,0,L|264:152,1,55,0|8,0:0|0:2,0:0:0:0:
108,240,19138,6,0,L|161:251,1,55
64,52,19355,2,0,P|51:128|72:169,1,126.500002412796
256,352,19790,2,0,P|268:275|247:234,1,126.500002412796,8|0,0:2|0:0,0:0:0:0:
364,180,20116,1,0,0:0:0:0:
364,180,20225,2,0,B|408:176|408:176|424:180|424:180|504:172,1,110
432,308,20551,2,0,L|424:368,1,55,0|8,0:0|0:2,0:0:0:0:
264,64,20877,6,0,L|272:124,1,55
256,247,21094,2,0,P|200:253|133:236,1,126.500002412796
364,180,21529,2,0,B|403:183|403:183|448:180|448:180|488:187,1,126.500002412796,8|0,0:2|0:0,0:0:0:0:
232,336,21964,6,0,P|160:340|160:292,1,121.000003692627
140,308,22290,2,0,L|15:330,1,121.000003692627,8|0,0:2|0:0,0:0:0:0:
208,260,22616,1,0,0:0:0:0:
293,162,22834,6,0,P|368:166|368:116,1,131.99999597168
380,128,23160,2,0,L|509:150,1,131.99999597168,8|0,0:2|0:0,0:0:0:0:
231,35,23486,6,0,P|198:134|256:232,1,214.49999018097
369,232,23921,2,0,L|349:321,1,71.4999967269899,8|0,0:3|0:0,0:0:0:0:
166,305,24138,2,0,L|186:395,1,71.4999967269899,8|0,0:3|0:0,0:0:0:0:
48,102,24355,2,0,L|130:94,1,71.4999967269899,8|0,0:3|0:0,0:0:0:0:
40,362,24573,2,0,P|20:297|24:224,1,142.99999345398
448,64,25008,1,4,0:1:0:0:
304,328,25442,6,0,P|248:344|188:340,1,110,4|0,0:0|0:0,0:0:0:0:
32,264,25877,1,8,0:2:0:0:
320,248,26094,2,0,L|388:236,1,55
472,128,26312,2,0,L|476:8,1,110
256,108,26747,1,8,0:0:0:0:
464,224,26964,1,0,0:0:0:0:
368,72,27181,2,0,B|328:72|304:40|304:40|260:16|216:36,1,165
40,276,27616,2,0,P|104:280|156:248,1,110,8|0,0:2|0:0,0:0:0:0:
256,108,28051,5,0,0:0:0:0:
440,216,28268,2,0,L|428:288,1,55
312,344,28486,2,0,L|202:338,1,110,8|0,0:2|0:0,0:0:0:0:
76,176,28921,6,0,P|64:96|84:40,1,110
184,240,29355,2,0,P|120:290|62:301,1,110,8|0,0:0|0:0,0:0:0:0:
192,116,29681,1,0,0:0:0:0:
191,115,29790,2,0,P|244:130|288:164,1,110
48,328,30225,1,8,0:0:0:0:
370,254,30442,1,0,0:0:0:0:
48,328,30660,6,0,P|132:344|244:312,1,165
404,208,31094,6,0,P|351:186|372:255,1,165.000006294251,8|0,0:2|0:0,0:0:0:0:
448,44,31529,6,0,L|376:56,1,55
224,84,31747,1,0,0:0:0:0:
448,44,31964,6,0,L|376:56,1,55,8|0,0:2|0:0,0:0:0:0:
336,240,32181,2,8,L|408:228,1,55,8|8,0:2|0:2,0:0:0:0:
224,83,32399,6,0,P|224:152|248:212,1,110,4|0,0:0|0:0,0:0:0:0:
112,320,32725,2,0,L|124:248,1,55,0|8,0:0|0:2,0:0:0:0:
60,60,33051,1,0,0:0:0:0:
112,320,33268,2,0,P|180:336|248:312,1,110
432,260,33703,2,0,L|352:240,1,55,8|0,0:2|0:0,0:0:0:0:
188,144,33921,2,0,L|268:124,1,55
392,20,34138,6,0,P|408:88|400:144,1,110
378,246,34464,1,0,0:0:0:0:
264,184,34573,2,0,P|256:252|276:336,1,110,8|0,0:2|0:0,0:0:0:0:
352,368,34899,1,0,0:0:0:0:
192,360,35008,2,0,L|104:368,1,55
272,328,35225,1,0,0:0:0:0:
23,96,35442,6,0,P|49:84|76:79,1,55,8|0,0:2|0:0,0:0:0:0:
207,80,35660,2,0,P|235:82|261:91,1,55
472,100,35877,2,0,P|426:117|362:126,1,110
40,184,36312,2,0,P|85:201|149:210,1,110,8|0,0:2|0:0,0:0:0:0:
288,320,36747,1,0,0:0:0:0:
368,72,36964,2,0,P|368:136|376:148,1,55
448,324,37181,2,0,P|440:232|452:192,1,110,8|0,0:2|0:0,0:0:0:0:
464,84,37615,6,0,L|400:76,1,55
332,96,37833,2,0,L|268:88,1,55
208,60,38050,1,0,0:0:0:0:
204,104,38159,1,0,0:0:0:0:
188,144,38267,1,0,0:0:0:0:
156,172,38376,1,0,0:0:0:0:
116,192,38485,6,0,L|56:184,1,55
184,240,38702,2,0,L|244:232,1,55
120,284,38920,1,0,0:0:0:0:
140,324,39028,1,0,0:0:0:0:
176,348,39137,1,0,0:0:0:0:
220,360,39246,1,0,0:0:0:0:
264,360,39354,6,0,P|272:332|292:304,1,55
352,288,39572,2,0,P|380:280|414:284,1,55
503,347,39789,2,0,P|491:323|472:304,1,55
404,264,40007,2,0,P|376:262|350:269,1,55
284,220,40224,5,0,0:0:0:0:
264,180,40333,1,0,0:0:0:0:
264,136,40441,1,0,0:0:0:0:
276,92,40550,1,0,0:0:0:0:
308,60,40659,2,0,L|376:48,1,55
420,156,40876,2,0,L|352:144,1,55
464,52,41093,1,0,0:0:0:0:
496,192,41312,5,0,0:0:0:0:
356,60,41529,2,0,L|280:40,1,55,8|0,0:2|0:0,0:0:0:0:
176,192,41747,2,0,P|176:276|160:328,1,110,8|0,0:2|0:0,0:0:0:0:
80,120,42181,2,0,L|180:108,1,55
302,46,42399,2,0,L|202:34,1,55,8|0,0:0|0:0,0:0:0:0:
284,260,42616,2,0,P|275:206|279:152,1,110,8|0,0:0|0:0,0:0:0:0:
472,352,43051,6,0,L|388:348,1,55
192,336,43268,1,8,0:0:0:0:
216,20,43486,1,0,0:0:0:0:
385,293,43703,1,8,0:0:0:0:
88,171,43921,1,8,0:0:0:0:
296,352,44138,1,0,0:0:0:0:
397,99,44355,1,8,0:0:0:0:
244,205,44573,6,0,P|268:185|240:201,1,82.5000031471254,4|0,0:0|0:0,0:0:0:0:
