osu file format v14

[General]
AudioFilename: audio.mp3
AudioLeadIn: 0
PreviewTime: 11528
Countdown: 0
SampleSet: Normal
StackLeniency: 0.7
Mode: 0
LetterboxInBreaks: 0
WidescreenStoryboard: 0

[Editor]
DistanceSpacing: 0.8
BeatDivisor: 4
GridSize: 4
TimelineZoom: 2.5

[Metadata]
Title:Yumeiro Toridori Parade
TitleUnicode:夢色トリドリパレード♫
Artist:Earth Star Dream
ArtistUnicode:アース・スター ドリーム
Creator:Moester
Version:Normal
Source:魔法少女なんてもういいですから。
Tags:Mahou Shoujo Nante Mouiidesukara
BeatmapID:964399
BeatmapSetID:438957

[Difficulty]
HPDrainRate:4
CircleSize:3
OverallDifficulty:3
ApproachRate:4
SliderMultiplier:1.4
SliderTickRate:1

[Events]
//Background and Video events
0,0,"BG.jpg",0,0
Video,761,"video.flv"
//Break Periods
//Storyboard Layer 0 (Background)
//Storyboard Layer 1 (Fail)
//Storyboard Layer 2 (Pass)
//Storyboard Layer 3 (Foreground)
//Storyboard Sound Samples

[TimingPoints]
1094,434.782608695652,4,2,0,50,1,0
11528,-100,4,1,0,50,0,0
24572,-100,4,1,0,50,0,0
25007,-100,4,1,1,50,0,0
25441,-100,4,1,0,50,0,0

[Colours]
Combo1 : 192,192,192
Combo2 : 255,128,128
Combo3 : 255,255,85

[HitObjects]
76,128,1094,6,0,P|124:148|240:124,1,140,0|2,0:0|0:0,0:0:0:0:
308,88,1963,2,0,P|356:68|472:92,1,140,0|2,0:0|0:0,0:0:0:0:
456,188,2833,5,0,0:0:0:0:
408,290,3267,1,2,0:0:0:0:
305,242,3702,1,0,0:0:0:0:
353,140,4137,1,2,0:0:0:0:
305,242,4572,6,0,P|260:284|176:296,1,140,0|2,0:0|0:0,0:0:0:0:
140,196,5441,2,0,P|185:154|269:142,1,140,2|2,0:0|0:0,0:0:0:0:
372,152,6311,1,0,0:0:0:0:
300,360,7180,5,0,0:0:0:0:
228,275,7615,1,2,0:0:0:0:
338,255,8050,1,6,0:0:0:0:
256,192,8159,12,0,9789,0:0:0:0:
256,296,11528,5,4,0:0:0:0:
204,312,11746,2,0,P|148:320|56:296,1,140,0|0,0:0|0:0,0:0:0:0:
56,248,12398,2,0,L|40:100,1,140,0|8,0:0|0:2,0:0:0:0:
152,84,13267,2,0,L|168:232,1,140,0|8,0:0|0:2,0:0:0:0:
276,244,14137,6,0,P|316:240|345:223,1,70,0|0,0:0|0:0,0:0:0:0:
370,178,14572,2,0,P|367:255|425:310,2,140,8|0|8,0:2|0:0|0:2,0:0:0:0:
416,75,15876,6,0,P|382:84|347:86,1,70
292,100,16311,2,0,P|257:96|222:93,1,70,8|0,0:0|0:0,0:0:0:0:
176,60,16746,2,0,P|192:136|156:200,1,140,0|8,0:0|0:2,0:0:0:0:
64,144,17615,2,0,L|96:284,1,140,0|8,0:0|0:0,0:0:0:0:
200,316,18485,6,0,P|244:312|280:296,1,70,4|0,0:0|0:0,0:0:0:0:
356,236,19137,1,0,0:0:0:0:
356,236,19354,2,0,P|356:184|396:100,1,140,0|8,0:0|0:2,0:0:0:0:
300,40,20224,2,0,P|248:48|220:40,1,70
144,112,20876,1,0,0:0:0:0:
144,112,21093,2,0,P|132:164|148:268,1,140,0|8,0:0|0:2,0:0:0:0:
220,328,21963,6,0,P|293:347|343:344,1,105,0|8,0:0|0:2,0:0:0:0:
404,232,22833,2,0,P|330:251|280:248,1,105,0|8,0:0|0:2,0:0:0:0:
224,220,23485,2,0,P|144:208|68:212,2,140
244,168,24572,2,0,L|244:24,1,140,0|4,0:0|0:1,0:0:0:0:
132,28,25441,5,4,0:0:0:0:
155,79,25659,2,0,P|157:149|125:210,1,140
88,252,26311,2,0,P|86:321|118:382,1,140,0|8,0:0|0:0,0:0:0:0:
224,356,27180,2,0,P|225:286|193:225,1,140,0|8,0:0|0:2,0:0:0:0:
252,128,28050,2,0,P|292:120|328:124,1,70,0|0,0:0|0:0,0:0:0:0:
376,132,28485,2,0,L|352:284,2,140,8|0|8,0:2|0:0|0:0,0:0:0:0:
280,76,29789,6,0,P|232:72|208:76,1,70,0|0,0:0|0:0,0:0:0:0:
156,84,30224,2,0,P|121:88|86:84,1,70,8|0,0:0|0:0,0:0:0:0:
40,52,30659,2,0,P|62:117|49:185,1,140,0|8,0:0|0:2,0:0:0:0:
152,232,31528,2,0,P|99:277|84:348,1,140,0|8,0:0|0:2,0:0:0:0:
188,332,32398,5,4,0:0:0:0:
244,344,32615,2,0,P|312:344|368:300,1,140
340,252,33267,2,0,L|348:172,1,70
396,152,33702,2,0,L|388:72,1,70,8|0,0:2|0:0,0:0:0:0:
424,40,34137,6,0,P|352:56|280:56,1,140,0|8,0:0|0:2,0:0:0:0:
176,80,35007,2,0,L|92:68,1,70,0|0,0:0|0:0,0:0:0:0:
96,124,35441,2,0,L|165:133,1,70,8|0,0:2|0:0,0:0:0:0:
188,182,35876,6,0,P|187:234|141:314,1,140,0|8,0:0|0:2,0:0:0:0:
56,244,36746,2,0,P|76:212|80:172,1,70,0|0,0:0|0:0,0:0:0:0:
44,140,37180,2,0,L|204:132,1,140,8|4,0:2|0:0,0:0:0:0:
256,192,37833,12,0,40224,0:0:0:0:
352,192,41311,6,0,L|368:268,2,70,8|8|8,0:0|0:2|0:0,0:0:0:0:
256,248,42180,2,0,L|256:324,2,70,0|8|8,0:0|0:0|0:0,0:0:0:0:
160,192,43050,2,0,L|144:268,2,70,0|8|0,0:0|0:0|0:0,0:0:0:0:
172,136,43702,5,8,0:0:0:0:
256,60,44137,1,0,0:0:0:0:
340,136,44572,1,4,0:0:0:0:
