osu file format v14

[General]
AudioFilename: audio.mp3
AudioLeadIn: 0
PreviewTime: 11528
Countdown: 0
SampleSet: Normal
StackLeniency: 0.7
Mode: 0
LetterboxInBreaks: 0
WidescreenStoryboard: 0

[Editor]
DistanceSpacing: 1.2
BeatDivisor: 4
GridSize: 4
TimelineZoom: 2.7

[Metadata]
Title:Yumeiro Toridori Parade
TitleUnicode:夢色トリドリパレード♫
Artist:Earth Star Dream
ArtistUnicode:アース・スター ドリーム
Creator:Moester
Version:Insane
Source:魔法少女なんてもういいですから。
Tags:Mahou Shoujo Nante Mouiidesukara
BeatmapID:964533
BeatmapSetID:438957

[Difficulty]
HPDrainRate:6
CircleSize:4
OverallDifficulty:6
ApproachRate:8.5
SliderMultiplier:1.8
SliderTickRate:1

[Events]
//Background and Video events
0,0,"BG.jpg",0,0
Video,761,"video.flv"
//Break Periods
//Storyboard Layer 0 (Background)
//Storyboard Layer 1 (Fail)
//Storyboard Layer 2 (Pass)
//Storyboard Layer 3 (Foreground)
//Storyboard Sound Samples

[TimingPoints]
1094,434.782608695652,4,2,0,50,1,0
11528,-100,4,1,0,50,0,0
24572,-133.333333333333,4,1,0,50,0,0
24898,-133.333333333333,4,1,0,20,0,0
25007,-66.6666666666667,4,1,1,50,0,0
25224,-100,4,1,1,50,0,0
25441,-100,4,1,0,50,0,0

[Colours]
Combo1 : 192,192,192
Combo2 : 255,128,128
Combo3 : 255,255,85

[HitObjects]
340,256,1095,6,0,P|384:256|436:228,2,60,0|0|0,0:0|0:0|0:0,0:0:0:0:
268,244,1529,2,0,P|200:236|124:244,1,120,2|0,0:0|0:0,0:0:0:0:
76,256,1964,2,0,P|53:200|45:141,1,120
48,68,2399,1,2,0:0:0:0:
48,68,2834,6,0,P|107:77|166:68,1,120,0|0,0:0|0:0,0:0:0:0:
236,56,3268,2,0,P|320:48|400:76,1,120,2|0,0:0|0:0,0:0:0:0:
420,84,3703,2,0,P|416:164|440:240,1,120
452,268,4138,1,2,0:0:0:0:
244,320,4573,6,0,L|156:344,2,60,0|0|0,0:0|0:0|0:0,0:0:0:0:
292,268,5008,2,0,P|272:208|284:140,1,120,2|0,0:0|0:0,0:0:0:0:
340,112,5442,2,0,L|452:120,1,90,2|0,0:0|0:0,0:0:0:0:
200,176,5877,2,0,L|88:184,1,90,2|0,0:0|0:0,0:0:0:0:
48,272,6312,6,0,P|68:188|44:92,1,180,0|2,0:0|0:0,0:0:0:0:
47,98,7181,2,0,L|143:106,1,90
308,140,7616,2,0,L|212:148,1,90,2|0,0:0|0:0,0:0:0:0:
164,216,8051,6,0,L|156:280,2,60,6|0|0,0:0|0:0|0:0,0:0:0:0:
256,256,8486,2,0,L|256:316,2,60,2|0|0,0:0|0:0|0:0,0:0:0:0:
348,216,8921,2,0,L|356:280,2,60,6|0|0,0:0|0:0|0:0,0:0:0:0:
443,237,9355,2,0,P|448:173|396:136,1,135,2|0,0:0|0:0,0:0:0:0:
308,140,9790,1,0,1:0:0:0:
308,140,10225,5,2,0:0:0:0:
200,124,10660,1,2,0:0:0:0:
84,108,11094,1,2,0:0:0:0:
124,340,11529,6,0,L|112:244,1,90,4|0,0:0|0:0,0:0:0:0:
220,268,11964,1,8,0:2:0:0:
20,320,12181,1,0,0:0:0:0:
20,320,12290,1,0,0:0:0:0:
20,320,12399,2,0,P|0:240|20:184,1,135,0|0,0:0|0:0,0:0:0:0:
104,176,12834,2,0,L|216:164,1,90,8|0,0:2|0:0,0:0:0:0:
340,208,13268,6,0,P|360:128|340:72,1,135
256,64,13703,2,0,L|144:52,1,90,8|0,0:2|0:0,0:0:0:0:
15,191,14138,5,0,0:0:0:0:
132,336,14355,1,0,0:0:0:0:
132,336,14464,1,0,0:0:0:0:
132,336,14573,2,0,L|104:232,1,90,8|0,0:2|0:0,0:0:0:0:
284,232,15008,6,0,P|204:268|179:270,1,90
204,160,15442,1,8,0:2:0:0:
308,128,15660,1,0,0:0:0:0:
308,128,15768,1,0,0:0:0:0:
308,128,15877,2,0,P|356:140|424:144,1,90,0|0,0:0|0:0,0:0:0:0:
204,160,16312,2,0,P|164:156|88:176,1,90,8|0,0:0|0:0,0:0:0:0:
280,352,16747,6,0,P|292:292|284:220,1,135,0|0,0:0|0:0,0:0:0:0:
256,48,17181,2,0,P|251:92|255:137,1,90,8|0,0:2|0:0,0:0:0:0:
368,240,17616,5,0,0:0:0:0:
368,240,17725,1,0,0:0:0:0:
368,240,17834,1,0,0:0:0:0:
200,200,18051,1,8,0:0:0:0:
200,200,18160,1,0,0:0:0:0:
200,200,18268,1,8,0:2:0:0:
84,344,18486,6,0,P|68:276|88:232,1,90,4|0,0:0|0:0,0:0:0:0:
104,156,18921,1,8,0:2:0:0:
256,76,19138,1,0,0:0:0:0:
256,76,19247,1,0,0:0:0:0:
256,75,19355,2,0,P|192:84|132:68,1,90,0|0,0:0|0:0,0:0:0:0:
332,104,19790,2,0,P|396:95|456:111,1,90,8|0,0:2|0:0,0:0:0:0:
268,156,20225,5,0,0:0:0:0:
212,248,20442,1,0,0:0:0:0:
320,252,20660,1,8,0:2:0:0:
160,160,20877,1,0,0:0:0:0:
160,160,20986,1,0,0:0:0:0:
160,160,21094,2,0,P|127:182|102:231,1,90,0|0,0:0|0:0,0:0:0:0:
268,156,21529,2,0,P|264:116|234:70,1,90,8|0,0:2|0:0,0:0:0:0:
212,248,21964,6,0,P|247:264|302:261,1,90,0|0,0:0|0:0,0:0:0:0:
316,256,22290,2,0,L|304:356,1,90,8|0,0:2|0:0,0:0:0:0:
320,360,22616,1,0,0:0:0:0:
496,192,22834,6,0,P|460:208|405:205,1,90
392,200,23160,2,0,L|404:300,1,90,8|0,0:2|0:0,0:0:0:0:
388,304,23486,5,0,0:0:0:0:
388,304,23921,1,8,0:3:0:0:
186,229,24137,1,0,0:3:0:0:
323,165,24354,1,8,0:3:0:0:
249,367,24573,2,0,B|204:354|184:370|148:363,1,101.250003862381
112,300,25008,6,0,P|55:306|79:363,1,135.000005149842,4|0,0:1|0:0,0:0:0:0:
152,224,25442,6,0,P|152:176|136:132,1,90,4|0,0:0|0:0,0:0:0:0:
84,44,25877,1,8,0:2:0:0:
232,168,26094,1,0,0:0:0:0:
232,168,26203,1,0,0:0:0:0:
232,168,26312,6,0,P|232:216|248:260,1,90
138,136,26747,2,0,P|114:94|78:64,1,90,8|0,0:0|0:0,0:0:0:0:
245,255,27181,6,0,P|269:296|304:326,1,90
82,67,27616,2,0,P|40:42|-5:34,1,90,8|0,0:2|0:0,0:0:0:0:
72,180,28051,5,0,0:0:0:0:
184,148,28268,1,0,0:0:0:0:
184,148,28377,1,0,0:0:0:0:
184,148,28486,2,0,P|228:148|271:162,1,90,8|0,0:2|0:0,0:0:0:0:
355,232,28921,2,0,P|362:276|382:316,1,90,0|0,0:0|0:0,0:0:0:0:
476,368,29355,1,8,0:0:0:0:
448,252,29573,5,0,0:0:0:0:
448,252,29681,1,0,0:0:0:0:
448,252,29790,1,0,0:0:0:0:
296,300,30008,1,0,0:0:0:0:
448,252,30225,2,0,P|456:192|440:140,1,90,8|0,0:0|0:0,0:0:0:0:
344,24,30660,6,0,B|332:88|332:88|344:168,1,135
344,176,31094,2,0,L|252:168,1,90,8|0,0:2|0:0,0:0:0:0:
408,88,31529,1,0,0:0:0:0:
408,88,31638,1,0,0:0:0:0:
408,88,31747,1,0,0:0:0:0:
256,44,31964,1,8,0:2:0:0:
256,44,32073,1,0,0:0:0:0:
256,44,32180,1,8,0:2:0:0:
160,96,32399,5,4,0:0:0:0:
208,192,32616,2,0,P|166:208|123:199,2,90,0|8|0,0:0|0:2|0:0,0:0:0:0:
308,144,33268,2,0,P|349:127|392:136,1,90,0|0,0:0|0:0,0:0:0:0:
408,244,33703,2,0,P|366:260|323:251,1,90,8|0,0:2|0:0,0:0:0:0:
464,176,34138,5,0,0:0:0:0:
380,336,34355,1,0,0:0:0:0:
220,252,34573,1,8,0:2:0:0:
380,336,34790,1,0,0:0:0:0:
304,92,35008,1,0,0:0:0:0:
380,336,35225,1,0,0:0:0:0:
272,188,35442,5,8,0:2:0:0:
243,179,35550,1,0,0:0:0:0:
213,176,35659,1,0,0:0:0:0:
183,177,35768,1,0,0:0:0:0:
132,192,35877,6,0,P|88:202|43:202,1,90
184,252,36312,2,0,P|185:296|174:340,1,90,8|0,0:2|0:0,0:0:0:0:
92,284,36747,1,0,0:0:0:0:
272,308,36964,1,0,0:0:0:0:
92,284,37181,2,0,P|80:240|81:195,1,90,8|0,0:2|0:0,0:0:0:0:
160,128,37616,6,0,L|148:72,3,45
224,268,38051,2,0,L|212:324,3,45,8|0|8|8,0:2|0:0|0:2|0:2,0:0:0:0:
308,108,38486,2,0,L|296:52,3,45,0|0|0|0,0:0|0:0|0:0|0:0,0:0:0:0:
372,248,38921,2,0,L|360:304,3,45,8|0|8|8,0:2|0:0|0:2|0:2,0:0:0:0:
256,200,39355,6,0,L|196:200,1,45,0|0,0:0|0:0,0:0:0:0:
148,248,39573,2,0,L|88:248,1,45,0|0,0:0|0:0,0:0:0:0:
211,188,39790,2,0,L|256:188,1,45,8|0,0:2|0:0,0:0:0:0:
319,140,40008,2,0,L|364:140,1,45,8|8,0:2|0:2,0:0:0:0:
176,128,40225,6,0,P|187:170|184:204,1,45,0|0,0:0|0:0,0:0:0:0:
73,179,40442,2,0,P|51:186|29:190,1,45,0|0,0:0|0:0,0:0:0:0:
21,78,40660,2,0,P|13:56|9:34,1,45,0|0,0:0|0:0,0:0:0:0:
122,26,40877,2,0,P|143:18|165:14,1,45,0|0,0:0|0:0,0:0:0:0:
97,104,41094,1,0,0:0:0:0:
215,294,41312,5,0,0:0:0:0:
215,294,41421,1,0,0:0:0:0:
215,294,41529,2,0,P|170:294|128:280,1,90,8|8,0:2|0:2,0:0:0:0:
256,192,41964,1,0,0:0:0:0:
296,294,42181,5,0,0:0:0:0:
296,294,42290,1,0,0:0:0:0:
296,294,42399,2,0,P|340:294|383:279,1,90,8|8,0:0|0:0,0:0:0:0:
384,172,42834,5,0,0:0:0:0:
204,96,43051,1,0,0:0:0:0:
312,96,43268,1,8,0:0:0:0:
128,172,43485,1,0,0:0:0:0:
256,232,43703,5,8,0:0:0:0:
148,292,43921,1,8,0:0:0:0:
128,172,44138,1,0,0:0:0:0:
384,172,44355,1,8,0:0:0:0:
364,292,44572,1,4,0:0:0:0:
